osu file format v14

[General]
AudioFilename: audio.mp3
AudioLeadIn: 2500
PreviewTime: 56272
Countdown: 0
SampleSet: None
StackLeniency: 0.7
Mode: 3
LetterboxInBreaks: 0
SpecialStyle: 0
WidescreenStoryboard: 1

[Editor]
DistanceSpacing: 0.8
BeatDivisor: 4
GridSize: 4
TimelineZoom: 2.4

[Metadata]
Title:Katayoku No Tori
TitleUnicode:片翼の鳥
Artist:Hommarju feat. mamiko
ArtistUnicode:Hommarju feat. mamiko
Creator:semyon422
Version:LN lv.3 9K 6th Twilight
Source:Exit Trance
Tags:Umineko No Naku Koro Ni Katayoku No Tori Gexigamma
BeatmapID:1738749
BeatmapSetID:829848

[Difficulty]
HPDrainRate:7
CircleSize:9
OverallDifficulty:7
ApproachRate:5
SliderMultiplier:1.4
SliderTickRate:1

[Events]
//Background and Video events
0,0,"background.jpg",0,0
//Break Periods
//Storyboard Layer 0 (Background)
//Storyboard Layer 1 (Fail)
//Storyboard Layer 2 (Pass)
//Storyboard Layer 3 (Foreground)
//Storyboard Sound Samples

[TimingPoints]
91,272.727272727273,3,2,0,20,1,0
57363,-100,3,2,0,20,0,1
88454,-100,3,2,0,20,0,0
221000,-100,3,2,0,20,0,1
266818,-100,3,2,0,20,0,0

[HitObjects]
312,192,91,128,0,636:0:0:0:0:
199,192,91,128,0,772:0:0:0:0:
426,192,91,128,0,772:0:0:0:0:
85,192,227,128,0,909:0:0:0:0:
369,192,363,128,0,1045:0:0:0:0:
256,192,363,128,0,1045:0:0:0:0:
142,192,500,128,0,1181:0:0:0:0:
483,192,636,128,0,1318:0:0:0:0:
28,192,636,128,0,1318:0:0:0:0:
312,192,772,128,0,1591:0:0:0:0:
426,192,909,128,0,1591:0:0:0:0:
199,192,909,128,0,1454:0:0:0:0:
85,192,1045,128,0,1727:0:0:0:0:
256,192,1181,128,0,1863:0:0:0:0:
369,192,1181,128,0,1863:0:0:0:0:
142,192,1318,128,0,2000:0:0:0:0:
28,192,1454,128,0,2136:0:0:0:0:
483,192,1454,128,0,2136:0:0:0:0:
199,192,1591,128,0,2272:0:0:0:0:
312,192,1727,128,0,2409:0:0:0:0:
426,192,1727,128,0,2409:0:0:0:0:
85,192,1863,128,0,2545:0:0:0:0:
256,192,2000,128,0,2681:0:0:0:0:
369,192,2000,128,0,2681:0:0:0:0:
142,192,2136,128,0,2818:0:0:0:0:
483,192,2272,128,0,2954:0:0:0:0:
28,192,2272,128,0,2954:0:0:0:0:
199,192,2409,128,0,3091:0:0:0:0:
312,192,2545,128,0,3227:0:0:0:0:
426,192,2545,128,0,3227:0:0:0:0:
85,192,2681,128,0,3227:0:0:0:0:
369,192,2818,128,0,3500:0:0:0:0:
256,192,2818,128,0,3363:0:0:0:0:
142,192,2954,128,0,3500:0:0:0:0:
483,192,3091,128,0,3772:0:0:0:0:
28,192,3091,128,0,3636:0:0:0:0:
199,192,3227,128,0,3772:0:0:0:0:
426,192,3363,128,0,3909:0:0:0:0:
85,192,3363,128,0,4045:0:0:0:0:
312,192,3363,128,0,4045:0:0:0:0:
256,192,3500,128,0,4454:0:0:0:0:
369,192,3636,128,0,4181:0:0:0:0:
142,192,3636,128,0,4318:0:0:0:0:
28,192,3772,128,0,4318:0:0:0:0:
199,192,3909,128,0,4591:0:0:0:0:
483,192,3909,128,0,4591:0:0:0:0:
426,192,4045,128,0,4727:0:0:0:0:
312,192,4181,128,0,4863:0:0:0:0:
85,192,4181,128,0,5000:0:0:0:0:
369,192,4318,128,0,4863:0:0:0:0:
28,192,4454,128,0,5136:0:0:0:0:
142,192,4454,128,0,5409:0:0:0:0:
256,192,4591,128,0,5136:0:0:0:0:
199,192,4727,128,0,5409:0:0:0:0:
483,192,4727,128,0,5272:0:0:0:0:
426,192,4863,128,0,5545:0:0:0:0:
369,192,5000,128,0,5818:0:0:0:0:
312,192,5000,128,0,5681:0:0:0:0:
85,192,5136,128,0,5681:0:0:0:0:
256,192,5272,128,0,5954:0:0:0:0:
28,192,5272,128,0,6227:0:0:0:0:
483,192,5409,128,0,6091:0:0:0:0:
199,192,5545,128,0,6227:0:0:0:0:
142,192,5545,128,0,6363:0:0:0:0:
426,192,5681,128,0,6500:0:0:0:0:
312,192,5818,128,0,6772:0:0:0:0:
85,192,5818,128,0,6500:0:0:0:0:
369,192,5954,128,0,6636:0:0:0:0:
256,192,6091,128,0,7045:0:0:0:0:
483,192,6227,128,0,6772:0:0:0:0:
28,192,6363,1,0,0:0:0:0:
199,192,6363,128,0,6909:0:0:0:0:
28,192,6500,128,0,7727:0:0:0:0:
142,192,6500,1,0,0:0:0:0:
426,192,6636,128,0,7045:0:0:0:0:
142,192,6636,128,0,7863:0:0:0:0:
85,192,6636,128,0,7181:0:0:0:0:
369,192,6772,128,0,7318:0:0:0:0:
483,192,6909,128,0,7454:0:0:0:0:
312,192,6909,128,0,7318:0:0:0:0:
199,192,7045,128,0,7591:0:0:0:0:
256,192,7181,128,0,7591:0:0:0:0:
426,192,7181,128,0,8272:0:0:0:0:
85,192,7318,128,0,8000:0:0:0:0:
312,192,7454,128,0,8136:0:0:0:0:
369,192,7454,128,0,7863:0:0:0:0:
483,192,7591,128,0,8136:0:0:0:0:
256,192,7727,128,0,8409:0:0:0:0:
199,192,7727,128,0,8545:0:0:0:0:
28,192,7863,128,0,8409:0:0:0:0:
369,192,8000,128,0,8681:0:0:0:0:
142,192,8000,128,0,8681:0:0:0:0:
85,192,8136,128,0,8818:0:0:0:0:
312,192,8272,128,0,9227:0:0:0:0:
483,192,8272,128,0,8954:0:0:0:0:
426,192,8409,128,0,8954:0:0:0:0:
256,192,8545,128,0,9091:0:0:0:0:
28,192,8545,128,0,9227:0:0:0:0:
199,192,8681,128,0,9363:0:0:0:0:
369,192,8818,128,0,9500:0:0:0:0:
142,192,8818,128,0,9772:0:0:0:0:
85,192,8954,128,0,9636:0:0:0:0:
483,192,9091,128,0,9704:0:0:0:0:
426,192,9091,128,0,9500:0:0:0:0:
256,192,9227,128,0,9841:0:0:0:0:
28,192,9363,128,0,9841:0:0:0:0:
312,192,9363,128,0,9841:0:0:0:0:
199,192,9500,128,0,9909:0:0:0:0:
426,192,9636,128,0,10045:0:0:0:0:
369,192,9636,128,0,10318:0:0:0:0:
85,192,9704,128,0,10045:0:0:0:0:
483,192,9772,128,0,10181:0:0:0:0:
142,192,9841,128,0,10591:0:0:0:0:
312,192,9909,128,0,10454:0:0:0:0:
28,192,9909,128,0,10591:0:0:0:0:
256,192,9909,128,0,10318:0:0:0:0:
199,192,10045,128,0,10727:0:0:0:0:
426,192,10181,128,0,10863:0:0:0:0:
85,192,10181,128,0,11272:0:0:0:0:
483,192,10318,128,0,10863:0:0:0:0:
256,192,10454,128,0,11409:0:0:0:0:
369,192,10454,128,0,11000:0:0:0:0:
312,192,10591,128,0,11136:0:0:0:0:
28,192,10727,128,0,11545:0:0:0:0:
142,192,10727,128,0,11136:0:0:0:0:
199,192,10863,128,0,11409:0:0:0:0:
426,192,11000,128,0,11954:0:0:0:0:
483,192,11000,128,0,11409:0:0:0:0:
369,192,11136,128,0,11954:0:0:0:0:
142,192,11272,128,0,11681:0:0:0:0:
312,192,11272,128,0,11681:0:0:0:0:
85,192,11409,128,0,11818:0:0:0:0:
199,192,11545,128,0,12227:0:0:0:0:
483,192,11545,128,0,12227:0:0:0:0:
256,192,11545,128,0,12091:0:0:0:0:
28,192,11681,128,0,12227:0:0:0:0:
142,192,11818,128,0,12431:0:0:0:0:
312,192,11818,128,0,12568:0:0:0:0:
85,192,11954,128,0,12363:0:0:0:0:
369,192,12091,128,0,12568:0:0:0:0:
426,192,12091,128,0,12500:0:0:0:0:
256,192,12227,128,0,12636:0:0:0:0:
199,192,12363,128,0,12772:0:0:0:0:
483,192,12363,128,0,12841:0:0:0:0:
28,192,12363,128,0,12704:0:0:0:0:
85,192,12431,128,0,12841:0:0:0:0:
142,192,12500,128,0,12909:0:0:0:0:
426,192,12568,128,0,12977:0:0:0:0:
312,192,12636,128,0,13113:0:0:0:0:
369,192,12636,128,0,13045:0:0:0:0:
256,192,12704,128,0,13113:0:0:0:0:
28,192,12772,128,0,15227:0:0:0:0:
199,192,12841,128,0,14272:0:0:0:0:
483,192,12909,128,0,14545:0:0:0:0:
85,192,12909,128,0,13727:0:0:0:0:
142,192,12977,128,0,14000:0:0:0:0:
426,192,13045,128,0,14818:0:0:0:0:
369,192,13113,128,0,15363:0:0:0:0:
256,192,13181,1,0,0:0:0:0:
312,192,13181,128,0,13727:0:0:0:0:
256,192,13727,128,0,14000:0:0:0:0:
85,192,14000,128,0,14272:0:0:0:0:
142,192,14272,128,0,14545:0:0:0:0:
199,192,14545,128,0,14818:0:0:0:0:
483,192,14818,128,0,15227:0:0:0:0:
426,192,15227,128,0,15363:0:0:0:0:
28,192,15363,128,0,15636:0:0:0:0:
369,192,15636,128,0,15909:0:0:0:0:
312,192,16181,128,0,16318:0:0:0:0:
85,192,16318,128,0,16454:0:0:0:0:
256,192,16454,128,0,16863:0:0:0:0:
426,192,16863,128,0,17000:0:0:0:0:
199,192,17000,128,0,17272:0:0:0:0:
142,192,17272,128,0,17545:0:0:0:0:
28,192,17545,128,0,17818:0:0:0:0:
483,192,17818,128,0,18091:0:0:0:0:
369,192,18091,128,0,18636:0:0:0:0:
85,192,18636,128,0,18909:0:0:0:0:
312,192,18909,128,0,19318:0:0:0:0:
256,192,19727,128,0,20681:0:0:0:0:
199,192,19727,128,0,20545:0:0:0:0:
312,192,19727,128,0,20136:0:0:0:0:
142,192,19863,128,0,20954:0:0:0:0:
426,192,20000,128,0,20818:0:0:0:0:
483,192,20136,128,0,20272:0:0:0:0:
28,192,20272,128,0,20545:0:0:0:0:
85,192,20409,128,0,21363:0:0:0:0:
369,192,20545,128,0,21091:0:0:0:0:
199,192,20681,128,0,21500:0:0:0:0:
256,192,20818,128,0,21636:0:0:0:0:
426,192,20954,128,0,21909:0:0:0:0:
142,192,21091,128,0,22045:0:0:0:0:
483,192,21227,128,0,22181:0:0:0:0:
28,192,21363,128,0,21772:0:0:0:0:
85,192,21500,128,0,22454:0:0:0:0:
199,192,21636,128,0,22863:0:0:0:0:
256,192,21772,128,0,21909:0:0:0:0:
369,192,21909,128,0,22181:0:0:0:0:
426,192,22045,128,0,22727:0:0:0:0:
142,192,22181,128,0,22454:0:0:0:0:
483,192,22318,128,0,23272:0:0:0:0:
312,192,22454,128,0,22727:0:0:0:0:
85,192,22591,128,0,23409:0:0:0:0:
256,192,22727,128,0,23000:0:0:0:0:
426,192,22863,128,0,23681:0:0:0:0:
28,192,23000,128,0,23818:0:0:0:0:
199,192,23000,128,0,23545:0:0:0:0:
369,192,23136,128,0,24091:0:0:0:0:
142,192,23272,128,0,23954:0:0:0:0:
483,192,23409,128,0,24363:0:0:0:0:
85,192,23545,128,0,23818:0:0:0:0:
312,192,23681,128,0,24636:0:0:0:0:
426,192,23818,128,0,24091:0:0:0:0:
28,192,23954,128,0,24772:0:0:0:0:
142,192,24091,128,0,25181:0:0:0:0:
369,192,24227,128,0,25318:0:0:0:0:
199,192,24363,128,0,25045:0:0:0:0:
483,192,24500,128,0,25181:0:0:0:0:
85,192,24636,128,0,25454:0:0:0:0:
256,192,24636,128,0,25318:0:0:0:0:
312,192,24772,128,0,25591:0:0:0:0:
28,192,24909,128,0,25591:0:0:0:0:
426,192,25045,128,0,25727:0:0:0:0:
199,192,25181,128,0,25863:0:0:0:0:
483,192,25318,128,0,26136:0:0:0:0:
369,192,25454,128,0,26136:0:0:0:0:
256,192,25454,128,0,26000:0:0:0:0:
85,192,25591,128,0,26136:0:0:0:0:
28,192,25727,128,0,26272:0:0:0:0:
312,192,25727,128,0,26545:0:0:0:0:
426,192,25863,128,0,26818:0:0:0:0:
142,192,26000,128,0,27091:0:0:0:0:
199,192,26000,128,0,26204:0:0:0:0:
256,192,26136,128,0,27091:0:0:0:0:
483,192,26272,128,0,26818:0:0:0:0:
85,192,26272,128,0,27363:0:0:0:0:
369,192,26272,1,0,0:0:0:0:
28,192,26545,1,0,0:0:0:0:
369,192,26545,128,0,28181:0:0:0:0:
312,192,26818,128,0,27091:0:0:0:0:
28,192,26818,128,0,28727:0:0:0:0:
199,192,27091,128,0,27363:0:0:0:0:
426,192,27091,128,0,27636:0:0:0:0:
256,192,27363,128,0,27636:0:0:0:0:
142,192,27363,128,0,28318:0:0:0:0:
85,192,27636,128,0,27909:0:0:0:0:
483,192,27636,1,0,0:0:0:0:
483,192,27909,128,0,28318:0:0:0:0:
426,192,27909,1,0,0:0:0:0:
312,192,28181,128,0,28727:0:0:0:0:
426,192,28181,128,0,29954:0:0:0:0:
369,192,28318,128,0,28454:0:0:0:0:
142,192,28454,128,0,28727:0:0:0:0:
256,192,28454,1,0,0:0:0:0:
256,192,28727,128,0,29000:0:0:0:0:
199,192,28727,128,0,29409:0:0:0:0:
312,192,29000,128,0,29545:0:0:0:0:
28,192,29000,1,0,0:0:0:0:
28,192,29272,128,0,29409:0:0:0:0:
85,192,29272,128,0,29818:0:0:0:0:
369,192,29409,128,0,29545:0:0:0:0:
199,192,29545,128,0,29954:0:0:0:0:
142,192,29545,1,0,0:0:0:0:
312,192,29818,128,0,30363:0:0:0:0:
142,192,29818,128,0,31454:0:0:0:0:
85,192,29954,128,0,30091:0:0:0:0:
483,192,30091,128,0,30363:0:0:0:0:
426,192,30091,128,0,30636:0:0:0:0:
256,192,30363,128,0,30636:0:0:0:0:
369,192,30363,128,0,30909:0:0:0:0:
199,192,30636,128,0,30909:0:0:0:0:
312,192,30636,128,0,31181:0:0:0:0:
28,192,30909,128,0,31181:0:0:0:0:
426,192,30909,128,0,32000:0:0:0:0:
85,192,31181,128,0,31727:0:0:0:0:
369,192,31181,128,0,31727:0:0:0:0:
483,192,31454,128,0,32409:0:0:0:0:
312,192,31454,1,0,0:0:0:0:
312,192,31727,128,0,32000:0:0:0:0:
142,192,31727,128,0,32409:0:0:0:0:
256,192,32000,128,0,32409:0:0:0:0:
369,192,32000,128,0,32681:0:0:0:0:
426,192,32272,128,0,32750:0:0:0:0:
199,192,32272,128,0,32750:0:0:0:0:
28,192,32409,128,0,32818:0:0:0:0:
483,192,32545,128,0,32954:0:0:0:0:
142,192,32545,128,0,33227:0:0:0:0:
85,192,32681,128,0,33363:0:0:0:0:
369,192,32750,128,0,33500:0:0:0:0:
199,192,32818,128,0,33227:0:0:0:0:
426,192,32818,128,0,33500:0:0:0:0:
28,192,32954,128,0,33772:0:0:0:0:
483,192,33091,128,0,33636:0:0:0:0:
256,192,33091,1,0,0:0:0:0:
256,192,33227,128,0,33363:0:0:0:0:
142,192,33363,128,0,33636:0:0:0:0:
312,192,33363,128,0,33772:0:0:0:0:
85,192,33500,128,0,34045:0:0:0:0:
369,192,33636,128,0,34181:0:0:0:0:
426,192,33636,128,0,34181:0:0:0:0:
483,192,33772,128,0,34318:0:0:0:0:
28,192,33909,128,0,34454:0:0:0:0:
312,192,33909,128,0,34318:0:0:0:0:
199,192,34045,128,0,34591:0:0:0:0:
85,192,34181,128,0,34863:0:0:0:0:
142,192,34181,128,0,34591:0:0:0:0:
426,192,34318,128,0,35000:0:0:0:0:
483,192,34454,128,0,34863:0:0:0:0:
312,192,34454,128,0,35136:0:0:0:0:
28,192,34591,128,0,35136:0:0:0:0:
199,192,34727,128,0,35272:0:0:0:0:
142,192,34727,128,0,35818:0:0:0:0:
256,192,34863,128,0,35000:0:0:0:0:
85,192,35000,128,0,35272:0:0:0:0:
369,192,35000,128,0,35545:0:0:0:0:
426,192,35136,128,0,35681:0:0:0:0:
312,192,35272,128,0,35545:0:0:0:0:
28,192,35272,128,0,35954:0:0:0:0:
199,192,35409,128,0,35954:0:0:0:0:
256,192,35545,128,0,35818:0:0:0:0:
483,192,35545,128,0,36227:0:0:0:0:
369,192,35681,128,0,36227:0:0:0:0:
426,192,35818,128,0,36091:0:0:0:0:
85,192,35818,128,0,36636:0:0:0:0:
142,192,35954,1,0,0:0:0:0:
199,192,36091,128,0,36500:0:0:0:0:
28,192,36091,128,0,36636:0:0:0:0:
142,192,36091,128,0,37318:0:0:0:0:
312,192,36227,128,0,36772:0:0:0:0:
483,192,36363,128,0,36909:0:0:0:0:
369,192,36363,128,0,36772:0:0:0:0:
256,192,36500,128,0,37045:0:0:0:0:
426,192,36636,128,0,36909:0:0:0:0:
199,192,36636,128,0,37181:0:0:0:0:
85,192,36772,1,0,0:0:0:0:
312,192,36909,128,0,37454:0:0:0:0:
369,192,36909,128,0,37318:0:0:0:0:
85,192,36909,128,0,38136:0:0:0:0:
483,192,37045,128,0,37591:0:0:0:0:
256,192,37181,128,0,37591:0:0:0:0:
28,192,37181,128,0,37591:0:0:0:0:
199,192,37318,128,0,37727:0:0:0:0:
142,192,37454,128,0,37659:0:0:0:0:
369,192,37454,128,0,37863:0:0:0:0:
426,192,37591,128,0,37931:0:0:0:0:
28,192,37727,128,0,38545:0:0:0:0:
256,192,37727,128,0,38272:0:0:0:0:
483,192,37727,128,0,38136:0:0:0:0:
199,192,37863,128,0,38409:0:0:0:0:
369,192,37931,128,0,38954:0:0:0:0:
426,192,38000,128,0,38818:0:0:0:0:
312,192,38000,128,0,38409:0:0:0:0:
142,192,38136,128,0,38545:0:0:0:0:
85,192,38272,128,0,38681:0:0:0:0:
483,192,38272,128,0,38681:0:0:0:0:
256,192,38409,128,0,38954:0:0:0:0:
199,192,38545,128,0,39363:0:0:0:0:
312,192,38545,128,0,40454:0:0:0:0:
142,192,38681,128,0,40181:0:0:0:0:
483,192,38818,128,0,39091:0:0:0:0:
85,192,38818,128,0,40727:0:0:0:0:
426,192,38954,128,0,40727:0:0:0:0:
256,192,39091,1,0,0:0:0:0:
369,192,39091,1,0,0:0:0:0:
369,192,39363,1,0,0:0:0:0:
483,192,39363,1,0,0:0:0:0:
256,192,39363,1,0,0:0:0:0:
256,192,39772,128,0,41545:0:0:0:0:
369,192,39772,1,0,0:0:0:0:
483,192,39772,1,0,0:0:0:0:
28,192,40181,128,0,41818:0:0:0:0:
483,192,40181,1,0,0:0:0:0:
369,192,40181,1,0,0:0:0:0:
142,192,40454,128,0,41272:0:0:0:0:
369,192,40454,128,0,42363:0:0:0:0:
483,192,40454,128,0,42363:0:0:0:0:
312,192,40727,128,0,41000:0:0:0:0:
426,192,41000,128,0,41272:0:0:0:0:
85,192,41000,128,0,42363:0:0:0:0:
199,192,41272,128,0,41545:0:0:0:0:
142,192,41545,128,0,41818:0:0:0:0:
256,192,41818,128,0,44000:0:0:0:0:
312,192,41818,128,0,42091:0:0:0:0:
28,192,42091,128,0,42363:0:0:0:0:
426,192,42363,128,0,42636:0:0:0:0:
85,192,42636,1,0,0:0:0:0:
369,192,42636,1,0,0:0:0:0:
483,192,42636,1,0,0:0:0:0:
85,192,43045,1,0,0:0:0:0:
369,192,43045,1,0,0:0:0:0:
483,192,43045,128,0,45636:0:0:0:0:
369,192,43454,1,0,0:0:0:0:
85,192,43454,1,0,0:0:0:0:
199,192,43454,128,0,45363:0:0:0:0:
312,192,43727,128,0,45636:0:0:0:0:
85,192,43727,128,0,47000:0:0:0:0:
369,192,43727,1,0,0:0:0:0:
369,192,44000,128,0,44204:0:0:0:0:
369,192,44272,128,0,44545:0:0:0:0:
256,192,44272,1,0,0:0:0:0:
256,192,44545,128,0,44818:0:0:0:0:
142,192,44818,128,0,45091:0:0:0:0:
28,192,45091,1,0,0:0:0:0:
426,192,45091,128,0,45363:0:0:0:0:
28,192,45363,128,0,45636:0:0:0:0:
199,192,45636,128,0,45909:0:0:0:0:
142,192,45909,128,0,46454:0:0:0:0:
483,192,45909,128,0,47272:0:0:0:0:
312,192,45909,1,0,0:0:0:0:
312,192,46727,128,0,47000:0:0:0:0:
426,192,47000,128,0,47272:0:0:0:0:
85,192,47272,128,0,47545:0:0:0:0:
483,192,47545,128,0,47954:0:0:0:0:
256,192,48363,128,0,48636:0:0:0:0:
199,192,48636,128,0,48909:0:0:0:0:
369,192,48909,128,0,49181:0:0:0:0:
28,192,49181,128,0,49591:0:0:0:0:
85,192,49591,128,0,49727:0:0:0:0:
142,192,49727,128,0,50000:0:0:0:0:
426,192,50000,128,0,50409:0:0:0:0:
312,192,50409,128,0,50545:0:0:0:0:
199,192,50545,128,0,50818:0:0:0:0:
256,192,50818,128,0,51227:0:0:0:0:
256,192,51636,128,0,52181:0:0:0:0:
483,192,52181,128,0,52386:0:0:0:0:
483,192,52454,128,0,55727:0:0:0:0:
369,192,56272,128,0,56545:0:0:0:0:
142,192,56545,128,0,56818:0:0:0:0:
85,192,56818,128,0,57091:0:0:0:0:
426,192,57091,128,0,57363:0:0:0:0:
199,192,57363,128,0,57772:0:0:0:0:
312,192,57363,128,0,58045:0:0:0:0:
28,192,57363,128,0,57772:0:0:0:0:
256,192,57500,128,0,58045:0:0:0:0:
369,192,57636,128,0,58181:0:0:0:0:
142,192,57636,128,0,58318:0:0:0:0:
483,192,57772,128,0,58318:0:0:0:0:
85,192,57772,128,0,58454:0:0:0:0:
199,192,57909,128,0,58591:0:0:0:0:
28,192,57909,128,0,58454:0:0:0:0:
426,192,58045,128,0,58591:0:0:0:0:
256,192,58181,128,0,58727:0:0:0:0:
312,192,58181,128,0,58863:0:0:0:0:
369,192,58318,128,0,58863:0:0:0:0:
483,192,58454,128,0,59000:0:0:0:0:
142,192,58454,128,0,59000:0:0:0:0:
85,192,58591,128,0,59136:0:0:0:0:
28,192,58591,128,0,59136:0:0:0:0:
199,192,58727,128,0,59272:0:0:0:0:
426,192,58727,128,0,59272:0:0:0:0:
256,192,58863,128,0,59409:0:0:0:0:
369,192,59000,128,0,59545:0:0:0:0:
312,192,59000,128,0,59409:0:0:0:0:
483,192,59136,128,0,59681:0:0:0:0:
142,192,59136,128,0,59681:0:0:0:0:
85,192,59272,128,0,59954:0:0:0:0:
28,192,59272,128,0,59818:0:0:0:0:
426,192,59409,128,0,59954:0:0:0:0:
199,192,59409,128,0,60091:0:0:0:0:
312,192,59545,128,0,60091:0:0:0:0:
256,192,59545,128,0,60227:0:0:0:0:
369,192,59681,128,0,60227:0:0:0:0:
483,192,59818,128,0,60500:0:0:0:0:
142,192,59818,128,0,60363:0:0:0:0:
28,192,59954,128,0,60363:0:0:0:0:
85,192,60091,128,0,60500:0:0:0:0:
426,192,60091,128,0,60772:0:0:0:0:
312,192,60227,128,0,60772:0:0:0:0:
199,192,60227,128,0,60636:0:0:0:0:
369,192,60363,128,0,60909:0:0:0:0:
256,192,60363,128,0,60909:0:0:0:0:
28,192,60500,128,0,61045:0:0:0:0:
142,192,60500,1,0,0:0:0:0:
483,192,60636,1,0,0:0:0:0:
85,192,60636,128,0,61045:0:0:0:0:
142,192,60636,128,0,61863:0:0:0:0:
199,192,60772,128,0,61181:0:0:0:0:
483,192,60772,128,0,62000:0:0:0:0:
312,192,60909,128,0,61318:0:0:0:0:
426,192,60909,128,0,61318:0:0:0:0:
369,192,61045,128,0,61454:0:0:0:0:
256,192,61045,128,0,61591:0:0:0:0:
85,192,61181,128,0,61727:0:0:0:0:
28,192,61181,128,0,61591:0:0:0:0:
199,192,61318,128,0,61727:0:0:0:0:
312,192,61454,128,0,62136:0:0:0:0:
426,192,61454,128,0,61863:0:0:0:0:
369,192,61591,128,0,62136:0:0:0:0:
28,192,61727,128,0,62272:0:0:0:0:
256,192,61727,128,0,62272:0:0:0:0:
199,192,61863,128,0,62409:0:0:0:0:
85,192,61863,128,0,62681:0:0:0:0:
426,192,62000,128,0,62409:0:0:0:0:
142,192,62000,128,0,62545:0:0:0:0:
483,192,62136,128,0,62545:0:0:0:0:
312,192,62272,128,0,62818:0:0:0:0:
369,192,62272,128,0,62681:0:0:0:0:
28,192,62409,128,0,62954:0:0:0:0:
256,192,62409,128,0,62954:0:0:0:0:
426,192,62545,128,0,63363:0:0:0:0:
199,192,62545,128,0,63091:0:0:0:0:
483,192,62681,128,0,63363:0:0:0:0:
142,192,62681,128,0,63227:0:0:0:0:
85,192,62818,128,0,63500:0:0:0:0:
369,192,62818,128,0,63772:0:0:0:0:
312,192,62954,128,0,63772:0:0:0:0:
28,192,63091,128,0,63636:0:0:0:0:
256,192,63091,1,0,0:0:0:0:
199,192,63227,1,0,0:0:0:0:
256,192,63227,128,0,64181:0:0:0:0:
199,192,63363,128,0,64454:0:0:0:0:
142,192,63363,128,0,63909:0:0:0:0:
483,192,63500,1,0,0:0:0:0:
426,192,63500,128,0,64045:0:0:0:0:
85,192,63636,1,0,0:0:0:0:
483,192,63636,128,0,64591:0:0:0:0:
28,192,63772,128,0,64045:0:0:0:0:
85,192,63772,1,0,0:0:0:0:
312,192,63909,128,0,64318:0:0:0:0:
369,192,63909,128,0,64181:0:0:0:0:
85,192,63909,128,0,65000:0:0:0:0:
142,192,64045,128,0,64318:0:0:0:0:
28,192,64181,128,0,64727:0:0:0:0:
426,192,64181,128,0,64591:0:0:0:0:
256,192,64318,128,0,64727:0:0:0:0:
369,192,64318,128,0,64863:0:0:0:0:
312,192,64454,128,0,64863:0:0:0:0:
142,192,64454,128,0,65136:0:0:0:0:
199,192,64591,128,0,65000:0:0:0:0:
483,192,64727,128,0,65409:0:0:0:0:
426,192,64727,128,0,65136:0:0:0:0:
256,192,64863,128,0,65409:0:0:0:0:
28,192,64863,128,0,65681:0:0:0:0:
312,192,65000,128,0,65272:0:0:0:0:
369,192,65000,128,0,65681:0:0:0:0:
85,192,65136,128,0,65545:0:0:0:0:
199,192,65136,128,0,65818:0:0:0:0:
426,192,65272,128,0,65818:0:0:0:0:
142,192,65272,128,0,65954:0:0:0:0:
312,192,65409,128,0,65954:0:0:0:0:
483,192,65545,128,0,66227:0:0:0:0:
256,192,65545,128,0,66227:0:0:0:0:
85,192,65681,128,0,66091:0:0:0:0:
369,192,65818,128,0,66500:0:0:0:0:
28,192,65818,128,0,66500:0:0:0:0:
426,192,65954,128,0,66363:0:0:0:0:
199,192,65954,128,0,66363:0:0:0:0:
142,192,66091,128,0,66772:0:0:0:0:
312,192,66091,128,0,66909:0:0:0:0:
85,192,66227,128,0,66636:0:0:0:0:
483,192,66363,128,0,66909:0:0:0:0:
256,192,66363,128,0,66772:0:0:0:0:
426,192,66500,128,0,67181:0:0:0:0:
199,192,66500,128,0,67045:0:0:0:0:
369,192,66636,128,0,67318:0:0:0:0:
28,192,66636,128,0,67045:0:0:0:0:
85,192,66772,128,0,67318:0:0:0:0:
256,192,66909,128,0,67727:0:0:0:0:
142,192,66909,128,0,67454:0:0:0:0:
312,192,67045,1,0,0:0:0:0:
483,192,67045,128,0,67454:0:0:0:0:
312,192,67181,128,0,68136:0:0:0:0:
28,192,67181,128,0,67591:0:0:0:0:
199,192,67181,128,0,67591:0:0:0:0:
426,192,67318,128,0,67863:0:0:0:0:
369,192,67454,128,0,67863:0:0:0:0:
85,192,67454,128,0,68272:0:0:0:0:
483,192,67591,128,0,68000:0:0:0:0:
142,192,67591,128,0,67863:0:0:0:0:
199,192,67727,128,0,68136:0:0:0:0:
28,192,67727,128,0,68272:0:0:0:0:
256,192,67863,128,0,68409:0:0:0:0:
142,192,68000,128,0,68954:0:0:0:0:
426,192,68000,128,0,68409:0:0:0:0:
369,192,68000,128,0,68545:0:0:0:0:
483,192,68136,128,0,68545:0:0:0:0:
199,192,68272,128,0,68818:0:0:0:0:
312,192,68272,128,0,68681:0:0:0:0:
28,192,68409,128,0,69091:0:0:0:0:
85,192,68409,128,0,68681:0:0:0:0:
256,192,68545,128,0,69091:0:0:0:0:
426,192,68545,128,0,68954:0:0:0:0:
369,192,68681,1,0,0:0:0:0:
483,192,68681,128,0,69363:0:0:0:0:
312,192,68818,128,0,69227:0:0:0:0:
369,192,68818,128,0,69909:0:0:0:0:
85,192,68818,128,0,69227:0:0:0:0:
199,192,68954,128,0,69500:0:0:0:0:
426,192,69091,128,0,69500:0:0:0:0:
142,192,69091,128,0,69500:0:0:0:0:
256,192,69227,128,0,69772:0:0:0:0:
28,192,69227,128,0,69636:0:0:0:0:
85,192,69363,128,0,70318:0:0:0:0:
312,192,69363,128,0,70318:0:0:0:0:
483,192,69500,128,0,70181:0:0:0:0:
426,192,69636,128,0,70591:0:0:0:0:
142,192,69636,1,0,0:0:0:0:
199,192,69636,128,0,70045:0:0:0:0:
28,192,69772,1,0,0:0:0:0:
142,192,69772,128,0,70727:0:0:0:0:
28,192,69909,1,0,0:0:0:0:
256,192,69909,128,0,70454:0:0:0:0:
28,192,70045,128,0,70931:0:0:0:0:
369,192,70045,1,0,0:0:0:0:
199,192,70181,128,0,70591:0:0:0:0:
369,192,70181,1,0,0:0:0:0:
483,192,70318,1,0,0:0:0:0:
369,192,70318,128,0,71272:0:0:0:0:
483,192,70454,128,0,71545:0:0:0:0:
312,192,70454,128,0,70795:0:0:0:0:
85,192,70454,128,0,70863:0:0:0:0:
256,192,70591,128,0,70931:0:0:0:0:
199,192,70727,128,0,71000:0:0:0:0:
426,192,70727,128,0,71136:0:0:0:0:
142,192,70795,128,0,71136:0:0:0:0:
312,192,70863,128,0,71272:0:0:0:0:
85,192,70931,128,0,71409:0:0:0:0:
256,192,71000,128,0,71409:0:0:0:0:
28,192,71000,128,0,71818:0:0:0:0:
199,192,71136,128,0,71818:0:0:0:0:
142,192,71272,128,0,71681:0:0:0:0:
426,192,71272,128,0,71681:0:0:0:0:
369,192,71409,128,0,72363:0:0:0:0:
312,192,71409,128,0,72091:0:0:0:0:
85,192,71545,128,0,71954:0:0:0:0:
256,192,71545,128,0,71954:0:0:0:0:
483,192,71681,128,0,72227:0:0:0:0:
142,192,71818,128,0,72772:0:0:0:0:
426,192,71818,128,0,72227:0:0:0:0:
28,192,71954,128,0,72363:0:0:0:0:
199,192,71954,128,0,72636:0:0:0:0:
85,192,72091,128,0,72500:0:0:0:0:
256,192,72091,128,0,72500:0:0:0:0:
312,192,72227,128,0,72772:0:0:0:0:
426,192,72363,128,0,73181:0:0:0:0:
483,192,72363,128,0,73045:0:0:0:0:
369,192,72500,128,0,72909:0:0:0:0:
28,192,72500,128,0,72909:0:0:0:0:
85,192,72636,128,0,73181:0:0:0:0:
256,192,72636,128,0,73318:0:0:0:0:
199,192,72772,128,0,73591:0:0:0:0:
312,192,72909,128,0,73454:0:0:0:0:
142,192,72909,128,0,73318:0:0:0:0:
369,192,73045,128,0,73591:0:0:0:0:
28,192,73045,128,0,73591:0:0:0:0:
483,192,73181,128,0,73727:0:0:0:0:
85,192,73318,128,0,73863:0:0:0:0:
426,192,73318,128,0,73863:0:0:0:0:
142,192,73454,128,0,74136:0:0:0:0:
256,192,73454,128,0,74000:0:0:0:0:
312,192,73591,128,0,74000:0:0:0:0:
369,192,73727,128,0,74136:0:0:0:0:
199,192,73727,128,0,74272:0:0:0:0:
28,192,73727,128,0,74409:0:0:0:0:
483,192,73863,128,0,74272:0:0:0:0:
85,192,74000,128,0,74818:0:0:0:0:
426,192,74000,128,0,74409:0:0:0:0:
256,192,74136,128,0,74681:0:0:0:0:
312,192,74136,128,0,74545:0:0:0:0:
142,192,74272,128,0,74954:0:0:0:0:
369,192,74272,128,0,74681:0:0:0:0:
199,192,74409,128,0,75091:0:0:0:0:
483,192,74409,128,0,74954:0:0:0:0:
28,192,74545,128,0,75091:0:0:0:0:
426,192,74545,128,0,75227:0:0:0:0:
312,192,74681,128,0,75363:0:0:0:0:
256,192,74818,128,0,75636:0:0:0:0:
369,192,74818,128,0,75227:0:0:0:0:
85,192,74954,128,0,75500:0:0:0:0:
483,192,75091,128,0,75500:0:0:0:0:
142,192,75091,128,0,75636:0:0:0:0:
199,192,75227,128,0,75909:0:0:0:0:
28,192,75227,128,0,75772:0:0:0:0:
426,192,75363,128,0,75772:0:0:0:0:
369,192,75363,128,0,76454:0:0:0:0:
312,192,75500,128,0,76181:0:0:0:0:
483,192,75636,128,0,76045:0:0:0:0:
85,192,75636,128,0,76045:0:0:0:0:
256,192,75772,128,0,76591:0:0:0:0:
142,192,75772,128,0,76318:0:0:0:0:
426,192,75909,128,0,76863:0:0:0:0:
28,192,75909,128,0,76795:0:0:0:0:
199,192,76045,128,0,76727:0:0:0:0:
483,192,76181,1,0,0:0:0:0:
85,192,76181,128,0,76931:0:0:0:0:
312,192,76318,1,0,0:0:0:0:
483,192,76318,128,0,76931:0:0:0:0:
142,192,76454,1,0,0:0:0:0:
312,192,76454,128,0,77136:0:0:0:0:
142,192,76591,128,0,77409:0:0:0:0:
369,192,76591,1,0,0:0:0:0:
256,192,76727,128,0,76931:0:0:0:0:
369,192,76727,128,0,77545:0:0:0:0:
199,192,76795,128,0,77000:0:0:0:0:
28,192,76863,128,0,77136:0:0:0:0:
426,192,76931,128,0,77272:0:0:0:0:
483,192,77000,128,0,77818:0:0:0:0:
85,192,77000,128,0,77272:0:0:0:0:
256,192,77000,128,0,77409:0:0:0:0:
199,192,77136,128,0,77681:0:0:0:0:
312,192,77272,128,0,78091:0:0:0:0:
28,192,77272,128,0,77681:0:0:0:0:
426,192,77409,128,0,77681:0:0:0:0:
85,192,77409,128,0,77954:0:0:0:0:
256,192,77545,128,0,78500:0:0:0:0:
142,192,77545,128,0,77954:0:0:0:0:
369,192,77681,128,0,78227:0:0:0:0:
28,192,77818,128,0,78091:0:0:0:0:
426,192,77818,128,0,78363:0:0:0:0:
199,192,77818,128,0,78363:0:0:0:0:
483,192,77954,128,0,78227:0:0:0:0:
85,192,78091,128,0,78772:0:0:0:0:
142,192,78091,128,0,78500:0:0:0:0:
28,192,78227,128,0,79045:0:0:0:0:
312,192,78227,128,0,78636:0:0:0:0:
483,192,78363,128,0,78772:0:0:0:0:
369,192,78363,128,0,78909:0:0:0:0:
199,192,78500,1,0,0:0:0:0:
426,192,78500,128,0,79045:0:0:0:0:
199,192,78636,128,0,79591:0:0:0:0:
142,192,78636,128,0,79181:0:0:0:0:
256,192,78636,128,0,78909:0:0:0:0:
312,192,78772,128,0,79318:0:0:0:0:
85,192,78909,128,0,79318:0:0:0:0:
483,192,78909,128,0,79591:0:0:0:0:
369,192,79045,128,0,79318:0:0:0:0:
256,192,79045,128,0,79727:0:0:0:0:
28,192,79181,128,0,79454:0:0:0:0:
426,192,79181,128,0,79727:0:0:0:0:
142,192,79318,128,0,79863:0:0:0:0:
85,192,79454,128,0,79863:0:0:0:0:
369,192,79454,128,0,80272:0:0:0:0:
312,192,79454,128,0,80000:0:0:0:0:
28,192,79591,128,0,80409:0:0:0:0:
483,192,79727,128,0,80136:0:0:0:0:
199,192,79727,128,0,80000:0:0:0:0:
426,192,79863,128,0,80681:0:0:0:0:
256,192,79863,128,0,80136:0:0:0:0:
85,192,80000,128,0,80409:0:0:0:0:
142,192,80000,128,0,80545:0:0:0:0:
312,192,80136,128,0,80545:0:0:0:0:
199,192,80136,1,0,0:0:0:0:
483,192,80272,128,0,80818:0:0:0:0:
199,192,80272,128,0,81363:0:0:0:0:
256,192,80272,128,0,80954:0:0:0:0:
369,192,80409,128,0,80818:0:0:0:0:
85,192,80545,128,0,81227:0:0:0:0:
28,192,80545,128,0,80954:0:0:0:0:
142,192,80681,128,0,81227:0:0:0:0:
312,192,80681,128,0,81091:0:0:0:0:
426,192,80818,128,0,81363:0:0:0:0:
369,192,80954,128,0,81500:0:0:0:0:
483,192,80954,128,0,81636:0:0:0:0:
256,192,81091,128,0,82045:0:0:0:0:
28,192,81091,128,0,81636:0:0:0:0:
312,192,81227,128,0,81772:0:0:0:0:
142,192,81363,128,0,81772:0:0:0:0:
85,192,81363,128,0,81909:0:0:0:0:
199,192,81500,128,0,82181:0:0:0:0:
426,192,81500,128,0,82045:0:0:0:0:
369,192,81636,128,0,82181:0:0:0:0:
483,192,81772,1,0,0:0:0:0:
28,192,81772,128,0,82591:0:0:0:0:
312,192,81909,128,0,82318:0:0:0:0:
142,192,81909,128,0,82318:0:0:0:0:
483,192,81909,128,0,83000:0:0:0:0:
85,192,82045,128,0,82454:0:0:0:0:
426,192,82181,128,0,82591:0:0:0:0:
256,192,82181,128,0,82591:0:0:0:0:
369,192,82318,128,0,83272:0:0:0:0:
199,192,82318,128,0,82727:0:0:0:0:
312,192,82454,128,0,83681:0:0:0:0:
142,192,82454,128,0,82863:0:0:0:0:
85,192,82591,128,0,83545:0:0:0:0:
28,192,82727,1,0,0:0:0:0:
426,192,82727,128,0,83409:0:0:0:0:
256,192,82727,128,0,83136:0:0:0:0:
28,192,82863,1,0,0:0:0:0:
199,192,82863,128,0,83681:0:0:0:0:
28,192,83000,128,0,84227:0:0:0:0:
142,192,83000,1,0,0:0:0:0:
142,192,83136,1,0,0:0:0:0:
483,192,83136,128,0,83681:0:0:0:0:
142,192,83272,128,0,84227:0:0:0:0:
256,192,83272,1,0,0:0:0:0:
369,192,83409,128,0,83818:0:0:0:0:
256,192,83409,1,0,0:0:0:0:
256,192,83545,128,0,84909:0:0:0:0:
426,192,83545,128,0,83954:0:0:0:0:
85,192,83681,128,0,83954:0:0:0:0:
199,192,83818,128,0,84227:0:0:0:0:
312,192,83818,128,0,84091:0:0:0:0:
483,192,83818,128,0,84363:0:0:0:0:
369,192,83954,128,0,84500:0:0:0:0:
426,192,84091,128,0,84772:0:0:0:0:
85,192,84091,128,0,84500:0:0:0:0:
312,192,84227,128,0,84636:0:0:0:0:
199,192,84363,128,0,85045:0:0:0:0:
142,192,84363,128,0,85045:0:0:0:0:
28,192,84363,128,0,84772:0:0:0:0:
483,192,84500,128,0,85045:0:0:0:0:
85,192,84636,128,0,85318:0:0:0:0:
369,192,84636,128,0,85181:0:0:0:0:
312,192,84772,128,0,85318:0:0:0:0:
28,192,84909,128,0,85863:0:0:0:0:
426,192,84909,128,0,85454:0:0:0:0:
256,192,85045,128,0,85591:0:0:0:0:
199,192,85181,128,0,85591:0:0:0:0:
142,192,85181,128,0,85863:0:0:0:0:
483,192,85181,128,0,85727:0:0:0:0:
369,192,85318,128,0,85863:0:0:0:0:
85,192,85454,128,0,86000:0:0:0:0:
312,192,85454,128,0,86136:0:0:0:0:
426,192,85591,128,0,86136:0:0:0:0:
199,192,85727,128,0,86409:0:0:0:0:
256,192,85727,128,0,86272:0:0:0:0:
483,192,85863,128,0,86681:0:0:0:0:
28,192,86000,128,0,86545:0:0:0:0:
142,192,86000,128,0,86681:0:0:0:0:
369,192,86000,128,0,86409:0:0:0:0:
85,192,86136,128,0,86954:0:0:0:0:
312,192,86272,128,0,87227:0:0:0:0:
426,192,86272,128,0,86681:0:0:0:0:
256,192,86409,128,0,86818:0:0:0:0:
199,192,86545,128,0,86954:0:0:0:0:
369,192,86545,128,0,87227:0:0:0:0:
28,192,86681,128,0,87091:0:0:0:0:
142,192,86818,128,0,87363:0:0:0:0:
426,192,86818,128,0,87500:0:0:0:0:
483,192,86818,128,0,87500:0:0:0:0:
256,192,86954,128,0,87500:0:0:0:0:
199,192,87091,128,0,87772:0:0:0:0:
85,192,87091,128,0,87772:0:0:0:0:
28,192,87227,128,0,87636:0:0:0:0:
312,192,87363,128,0,87909:0:0:0:0:
369,192,87363,128,0,88181:0:0:0:0:
142,192,87500,128,0,88045:0:0:0:0:
426,192,87636,128,0,88318:0:0:0:0:
483,192,87636,128,0,88318:0:0:0:0:
256,192,87636,128,0,88045:0:0:0:0:
28,192,87772,128,0,89000:0:0:0:0:
199,192,87909,128,0,88318:0:0:0:0:
85,192,87909,128,0,89272:0:0:0:0:
312,192,88045,128,0,88727:0:0:0:0:
256,192,88181,128,0,89818:0:0:0:0:
142,192,88181,128,0,89818:0:0:0:0:
369,192,88318,128,0,89545:0:0:0:0:
426,192,88454,128,0,90091:0:0:0:0:
483,192,88454,1,0,0:0:0:0:
199,192,88454,128,0,89818:0:0:0:0:
483,192,88727,128,0,89000:0:0:0:0:
312,192,89000,128,0,89272:0:0:0:0:
28,192,89272,128,0,89545:0:0:0:0:
85,192,89545,128,0,89818:0:0:0:0:
369,192,89818,128,0,90091:0:0:0:0:
142,192,90091,128,0,90636:0:0:0:0:
256,192,90091,128,0,90772:0:0:0:0:
199,192,90091,128,0,90500:0:0:0:0:
426,192,90227,128,0,90909:0:0:0:0:
28,192,90363,128,0,91045:0:0:0:0:
85,192,90363,128,0,91045:0:0:0:0:
312,192,90500,128,0,91318:0:0:0:0:
199,192,90636,128,0,91863:0:0:0:0:
483,192,90636,128,0,91181:0:0:0:0:
142,192,90772,128,0,91318:0:0:0:0:
369,192,90909,128,0,91454:0:0:0:0:
256,192,90909,128,0,91591:0:0:0:0:
426,192,91045,128,0,91591:0:0:0:0:
85,192,91181,128,0,92136:0:0:0:0:
28,192,91181,128,0,91727:0:0:0:0:
483,192,91318,128,0,92409:0:0:0:0:
312,192,91454,128,0,91863:0:0:0:0:
142,192,91454,128,0,92000:0:0:0:0:
369,192,91591,128,0,92136:0:0:0:0:
426,192,91727,128,0,92272:0:0:0:0:
256,192,91727,128,0,92409:0:0:0:0:
28,192,91863,128,0,92545:0:0:0:0:
312,192,92000,128,0,93227:0:0:0:0:
199,192,92000,128,0,92681:0:0:0:0:
142,192,92136,128,0,93227:0:0:0:0:
369,192,92272,128,0,92818:0:0:0:0:
85,192,92272,128,0,92681:0:0:0:0:
426,192,92409,128,0,92954:0:0:0:0:
483,192,92545,128,0,93091:0:0:0:0:
256,192,92545,128,0,92954:0:0:0:0:
28,192,92681,128,0,93227:0:0:0:0:
199,192,92818,128,0,93363:0:0:0:0:
85,192,92818,128,0,93500:0:0:0:0:
369,192,92954,128,0,93500:0:0:0:0:
426,192,93091,128,0,94181:0:0:0:0:
256,192,93091,128,0,93636:0:0:0:0:
483,192,93227,128,0,93772:0:0:0:0:
28,192,93363,128,0,94045:0:0:0:0:
312,192,93363,128,0,93909:0:0:0:0:
142,192,93363,128,0,93772:0:0:0:0:
199,192,93500,128,0,94045:0:0:0:0:
369,192,93636,128,0,94591:0:0:0:0:
85,192,93636,128,0,94591:0:0:0:0:
256,192,93772,128,0,94318:0:0:0:0:
483,192,93909,128,0,94318:0:0:0:0:
142,192,93909,128,0,94727:0:0:0:0:
312,192,94045,128,0,94454:0:0:0:0:
28,192,94181,128,0,94863:0:0:0:0:
199,192,94181,128,0,95000:0:0:0:0:
426,192,94318,128,0,94863:0:0:0:0:
483,192,94454,128,0,95409:0:0:0:0:
256,192,94454,128,0,95681:0:0:0:0:
312,192,94591,128,0,95272:0:0:0:0:
369,192,94727,128,0,95136:0:0:0:0:
85,192,94727,128,0,95136:0:0:0:0:
142,192,94863,128,0,95409:0:0:0:0:
28,192,95000,128,0,95818:0:0:0:0:
426,192,95000,128,0,95545:0:0:0:0:
199,192,95136,128,0,95681:0:0:0:0:
369,192,95272,128,0,96227:0:0:0:0:
85,192,95272,128,0,95954:0:0:0:0:
312,192,95409,128,0,96091:0:0:0:0:
483,192,95545,128,0,96227:0:0:0:0:
142,192,95545,128,0,95954:0:0:0:0:
426,192,95681,128,0,96568:0:0:0:0:
199,192,95818,128,0,96431:0:0:0:0:
256,192,95818,128,0,96363:0:0:0:0:
28,192,95954,128,0,96500:0:0:0:0:
142,192,96091,128,0,96568:0:0:0:0:
85,192,96091,128,0,96568:0:0:0:0:
312,192,96227,128,0,96636:0:0:0:0:
369,192,96363,128,0,96909:0:0:0:0:
483,192,96363,128,0,96772:0:0:0:0:
256,192,96431,128,0,96772:0:0:0:0:
199,192,96500,128,0,97181:0:0:0:0:
28,192,96568,128,0,97045:0:0:0:0:
142,192,96636,128,0,97318:0:0:0:0:
85,192,96636,128,0,97727:0:0:0:0:
426,192,96636,128,0,97045:0:0:0:0:
312,192,96772,128,0,97591:0:0:0:0:
483,192,96909,128,0,97318:0:0:0:0:
256,192,96909,128,0,97454:0:0:0:0:
369,192,97045,128,0,97591:0:0:0:0:
426,192,97181,128,0,97863:0:0:0:0:
28,192,97181,128,0,97863:0:0:0:0:
199,192,97318,128,0,98000:0:0:0:0:
483,192,97454,128,0,98136:0:0:0:0:
142,192,97454,128,0,98136:0:0:0:0:
256,192,97591,128,0,98681:0:0:0:0:
312,192,97727,128,0,98818:0:0:0:0:
369,192,97727,128,0,98272:0:0:0:0:
85,192,97863,128,0,98409:0:0:0:0:
426,192,98000,128,0,98409:0:0:0:0:
28,192,98000,128,0,98545:0:0:0:0:
199,192,98136,128,0,98681:0:0:0:0:
483,192,98272,128,0,99363:0:0:0:0:
142,192,98272,128,0,98954:0:0:0:0:
369,192,98409,128,0,99091:0:0:0:0:
426,192,98545,128,0,99636:0:0:0:0:
85,192,98545,128,0,98954:0:0:0:0:
28,192,98681,128,0,99227:0:0:0:0:
256,192,98818,128,0,99227:0:0:0:0:
199,192,98818,128,0,99500:0:0:0:0:
312,192,98954,128,0,99500:0:0:0:0:
142,192,99091,128,0,99772:0:0:0:0:
85,192,99091,128,0,99772:0:0:0:0:
369,192,99227,128,0,100045:0:0:0:0:
256,192,99363,128,0,100318:0:0:0:0:
28,192,99363,128,0,100181:0:0:0:0:
483,192,99500,128,0,99909:0:0:0:0:
312,192,99636,128,0,100045:0:0:0:0:
199,192,99636,1,0,0:0:0:0:
199,192,99772,128,0,100863:0:0:0:0:
426,192,99772,1,0,0:0:0:0:
85,192,99909,128,0,100591:0:0:0:0:
426,192,99909,128,0,101272:0:0:0:0:
142,192,99909,128,0,100318:0:0:0:0:
483,192,100045,128,0,100454:0:0:0:0:
312,192,100181,128,0,100727:0:0:0:0:
369,192,100181,128,0,100591:0:0:0:0:
28,192,100318,128,0,100863:0:0:0:0:
142,192,100454,128,0,101136:0:0:0:0:
256,192,100454,128,0,101000:0:0:0:0:
483,192,100591,128,0,101136:0:0:0:0:
85,192,100727,128,0,101409:0:0:0:0:
369,192,100727,128,0,101409:0:0:0:0:
312,192,100863,128,0,101681:0:0:0:0:
199,192,101000,128,0,101818:0:0:0:0:
28,192,101000,128,0,101545:0:0:0:0:
256,192,101136,128,0,101681:0:0:0:0:
142,192,101272,128,0,102227:0:0:0:0:
483,192,101272,128,0,102227:0:0:0:0:
426,192,101409,128,0,101954:0:0:0:0:
85,192,101545,128,0,101954:0:0:0:0:
369,192,101545,128,0,102091:0:0:0:0:
28,192,101681,128,0,102363:0:0:0:0:
312,192,101818,128,0,102772:0:0:0:0:
256,192,101818,128,0,102636:0:0:0:0:
199,192,101954,128,0,102500:0:0:0:0:
85,192,102091,128,0,103045:0:0:0:0:
426,192,102091,128,0,102500:0:0:0:0:
369,192,102227,128,0,102772:0:0:0:0:
483,192,102363,128,0,102909:0:0:0:0:
142,192,102363,128,0,102977:0:0:0:0:
28,192,102500,128,0,103113:0:0:0:0:
199,192,102636,128,0,103113:0:0:0:0:
426,192,102636,128,0,103113:0:0:0:0:
256,192,102772,128,0,103181:0:0:0:0:
369,192,102909,128,0,103318:0:0:0:0:
312,192,102909,128,0,103318:0:0:0:0:
483,192,102977,128,0,103727:0:0:0:0:
142,192,103045,128,0,103454:0:0:0:0:
85,192,103113,128,0,103591:0:0:0:0:
199,192,103181,128,0,103863:0:0:0:0:
426,192,103181,128,0,104136:0:0:0:0:
28,192,103181,128,0,103591:0:0:0:0:
256,192,103318,128,0,104000:0:0:0:0:
312,192,103454,128,0,103863:0:0:0:0:
369,192,103454,128,0,104272:0:0:0:0:
142,192,103591,128,0,104545:0:0:0:0:
85,192,103727,128,0,104136:0:0:0:0:
28,192,103727,128,0,104409:0:0:0:0:
483,192,103863,128,0,104409:0:0:0:0:
199,192,104000,128,0,104681:0:0:0:0:
312,192,104000,128,0,104818:0:0:0:0:
256,192,104136,128,0,105227:0:0:0:0:
85,192,104272,128,0,104954:0:0:0:0:
426,192,104272,128,0,104681:0:0:0:0:
369,192,104409,128,0,104954:0:0:0:0:
28,192,104545,128,0,105227:0:0:0:0:
483,192,104545,128,0,105091:0:0:0:0:
142,192,104681,128,0,105363:0:0:0:0:
426,192,104818,128,0,105909:0:0:0:0:
199,192,104818,128,0,105500:0:0:0:0:
312,192,104954,128,0,105772:0:0:0:0:
369,192,105091,128,0,105500:0:0:0:0:
85,192,105091,128,0,106045:0:0:0:0:
483,192,105227,128,0,105636:0:0:0:0:
28,192,105363,128,0,106045:0:0:0:0:
256,192,105363,128,0,105772:0:0:0:0:
142,192,105500,128,0,106181:0:0:0:0:
369,192,105636,128,0,106318:0:0:0:0:
199,192,105636,128,0,106318:0:0:0:0:
483,192,105772,128,0,106591:0:0:0:0:
256,192,105909,128,0,106318:0:0:0:0:
312,192,105909,128,0,106454:0:0:0:0:
426,192,106045,128,0,106591:0:0:0:0:
28,192,106181,128,0,106727:0:0:0:0:
85,192,106181,128,0,106863:0:0:0:0:
142,192,106318,128,0,106863:0:0:0:0:
369,192,106454,128,0,107000:0:0:0:0:
199,192,106454,128,0,107136:0:0:0:0:
256,192,106454,128,0,107409:0:0:0:0:
312,192,106591,128,0,107409:0:0:0:0:
483,192,106727,128,0,107272:0:0:0:0:
426,192,106727,128,0,107136:0:0:0:0:
28,192,106863,128,0,107818:0:0:0:0:
85,192,107000,128,0,107681:0:0:0:0:
142,192,107000,128,0,107545:0:0:0:0:
369,192,107136,128,0,107681:0:0:0:0:
426,192,107272,128,0,107954:0:0:0:0:
199,192,107272,128,0,108091:0:0:0:0:
483,192,107409,128,0,107954:0:0:0:0:
312,192,107545,128,0,107954:0:0:0:0:
256,192,107545,128,0,108227:0:0:0:0:
142,192,107681,128,0,108363:0:0:0:0:
369,192,107818,128,0,108772:0:0:0:0:
85,192,107818,128,0,108227:0:0:0:0:
28,192,107954,128,0,108500:0:0:0:0:
426,192,108091,128,0,108772:0:0:0:0:
312,192,108091,128,0,108500:0:0:0:0:
483,192,108091,128,0,108772:0:0:0:0:
199,192,108227,128,0,108636:0:0:0:0:
85,192,108363,128,0,108909:0:0:0:0:
256,192,108363,128,0,109045:0:0:0:0:
142,192,108500,128,0,109181:0:0:0:0:
28,192,108636,128,0,109045:0:0:0:0:
312,192,108636,128,0,109591:0:0:0:0:
199,192,108772,128,0,109591:0:0:0:0:
426,192,108909,128,0,109591:0:0:0:0:
369,192,108909,128,0,109318:0:0:0:0:
483,192,108909,128,0,109318:0:0:0:0:
85,192,109045,128,0,109454:0:0:0:0:
28,192,109181,128,0,109727:0:0:0:0:
256,192,109181,128,0,109863:0:0:0:0:
142,192,109318,128,0,109863:0:0:0:0:
483,192,109454,128,0,110000:0:0:0:0:
369,192,109454,128,0,110136:0:0:0:0:
85,192,109591,128,0,110681:0:0:0:0:
312,192,109727,128,0,110409:0:0:0:0:
199,192,109727,128,0,110136:0:0:0:0:
426,192,109727,128,0,110272:0:0:0:0:
28,192,109863,128,0,110545:0:0:0:0:
256,192,110000,128,0,110681:0:0:0:0:
142,192,110000,128,0,110409:0:0:0:0:
483,192,110136,128,0,111091:0:0:0:0:
369,192,110272,128,0,110954:0:0:0:0:
199,192,110272,128,0,110954:0:0:0:0:
426,192,110409,128,0,110818:0:0:0:0:
142,192,110545,128,0,111363:0:0:0:0:
312,192,110545,128,0,111500:0:0:0:0:
28,192,110681,128,0,111227:0:0:0:0:
256,192,110818,128,0,111500:0:0:0:0:
85,192,110818,128,0,111227:0:0:0:0:
426,192,110954,128,0,111772:0:0:0:0:
199,192,111091,128,0,111636:0:0:0:0:
369,192,111091,128,0,111772:0:0:0:0:
483,192,111227,128,0,111909:0:0:0:0:
28,192,111363,128,0,112045:0:0:0:0:
85,192,111363,128,0,112181:0:0:0:0:
142,192,111500,128,0,112318:0:0:0:0:
312,192,111636,128,0,112045:0:0:0:0:
256,192,111636,128,0,112318:0:0:0:0:
199,192,111772,128,0,112454:0:0:0:0:
369,192,111909,128,0,112591:0:0:0:0:
426,192,111909,128,0,112591:0:0:0:0:
483,192,112045,128,0,112727:0:0:0:0:
28,192,112181,128,0,113000:0:0:0:0:
312,192,112181,128,0,112863:0:0:0:0:
85,192,112318,128,0,112863:0:0:0:0:
256,192,112454,128,0,113136:0:0:0:0:
142,192,112454,128,0,113136:0:0:0:0:
199,192,112591,128,0,113409:0:0:0:0:
426,192,112727,128,0,113681:0:0:0:0:
369,192,112727,128,0,113545:0:0:0:0:
483,192,112863,128,0,113272:0:0:0:0:
85,192,113000,128,0,113409:0:0:0:0:
312,192,113000,128,0,113681:0:0:0:0:
28,192,113136,128,0,113954:0:0:0:0:
256,192,113272,128,0,113818:0:0:0:0:
142,192,113272,128,0,113954:0:0:0:0:
483,192,113409,128,0,114227:0:0:0:0:
199,192,113545,128,0,114500:0:0:0:0:
85,192,113545,128,0,114227:0:0:0:0:
369,192,113681,128,0,114091:0:0:0:0:
426,192,113818,128,0,114363:0:0:0:0:
312,192,113818,128,0,114636:0:0:0:0:
256,192,113954,128,0,114500:0:0:0:0:
28,192,114091,128,0,114772:0:0:0:0:
142,192,114091,128,0,114772:0:0:0:0:
369,192,114227,128,0,115045:0:0:0:0:
85,192,114363,128,0,115045:0:0:0:0:
483,192,114363,128,0,114909:0:0:0:0:
426,192,114500,128,0,115454:0:0:0:0:
199,192,114636,128,0,115318:0:0:0:0:
256,192,114636,128,0,115181:0:0:0:0:
312,192,114772,128,0,115318:0:0:0:0:
142,192,114909,128,0,115727:0:0:0:0:
28,192,114909,128,0,115591:0:0:0:0:
483,192,115045,128,0,115591:0:0:0:0:
85,192,115181,128,0,115863:0:0:0:0:
369,192,115181,128,0,116136:0:0:0:0:
256,192,115318,128,0,116136:0:0:0:0:
312,192,115454,128,0,115863:0:0:0:0:
199,192,115454,128,0,116000:0:0:0:0:
426,192,115591,128,0,116136:0:0:0:0:
28,192,115727,128,0,116409:0:0:0:0:
483,192,115727,128,0,116409:0:0:0:0:
142,192,115863,128,0,116272:0:0:0:0:
85,192,116000,128,0,116954:0:0:0:0:
312,192,116000,128,0,116954:0:0:0:0:
199,192,116136,128,0,116545:0:0:0:0:
369,192,116272,128,0,116681:0:0:0:0:
426,192,116272,128,0,116681:0:0:0:0:
256,192,116272,128,0,116818:0:0:0:0:
142,192,116409,128,0,117091:0:0:0:0:
28,192,116545,128,0,117227:0:0:0:0:
483,192,116545,128,0,117227:0:0:0:0:
199,192,116681,128,0,117772:0:0:0:0:
426,192,116818,128,0,117772:0:0:0:0:
369,192,116818,128,0,117363:0:0:0:0:
256,192,116954,128,0,117500:0:0:0:0:
85,192,117091,128,0,117500:0:0:0:0:
312,192,117091,128,0,117636:0:0:0:0:
142,192,117227,128,0,117909:0:0:0:0:
28,192,117363,128,0,118045:0:0:0:0:
483,192,117363,128,0,118181:0:0:0:0:
369,192,117500,128,0,118045:0:0:0:0:
256,192,117636,128,0,118591:0:0:0:0:
85,192,117636,128,0,118318:0:0:0:0:
312,192,117772,128,0,118318:0:0:0:0:
426,192,117909,128,0,118591:0:0:0:0:
199,192,117909,128,0,118454:0:0:0:0:
142,192,118045,128,0,119000:0:0:0:0:
369,192,118181,128,0,118863:0:0:0:0:
28,192,118181,128,0,118863:0:0:0:0:
483,192,118318,128,0,118727:0:0:0:0:
312,192,118454,128,0,119409:0:0:0:0:
85,192,118454,128,0,119136:0:0:0:0:
199,192,118591,128,0,119272:0:0:0:0:
256,192,118727,128,0,119136:0:0:0:0:
426,192,118727,128,0,119409:0:0:0:0:
483,192,118863,128,0,119681:0:0:0:0:
28,192,119000,128,0,119545:0:0:0:0:
369,192,119000,128,0,119409:0:0:0:0:
142,192,119136,128,0,119681:0:0:0:0:
85,192,119272,128,0,120227:0:0:0:0:
256,192,119272,128,0,119818:0:0:0:0:
199,192,119409,128,0,119954:0:0:0:0:
312,192,119545,128,0,119954:0:0:0:0:
426,192,119545,128,0,120091:0:0:0:0:
369,192,119545,128,0,120500:0:0:0:0:
28,192,119681,128,0,120227:0:0:0:0:
483,192,119818,128,0,120363:0:0:0:0:
142,192,119818,128,0,120500:0:0:0:0:
256,192,119954,128,0,120636:0:0:0:0:
312,192,120091,128,0,121045:0:0:0:0:
199,192,120091,128,0,121045:0:0:0:0:
426,192,120227,128,0,120772:0:0:0:0:
85,192,120363,128,0,120772:0:0:0:0:
28,192,120363,128,0,120909:0:0:0:0:
483,192,120500,128,0,121181:0:0:0:0:
142,192,120636,128,0,121454:0:0:0:0:
369,192,120636,128,0,121318:0:0:0:0:
256,192,120772,128,0,121318:0:0:0:0:
426,192,120909,128,0,121727:0:0:0:0:
85,192,120909,128,0,121591:0:0:0:0:
28,192,121045,128,0,121863:0:0:0:0:
199,192,121181,128,0,121591:0:0:0:0:
312,192,121181,128,0,121863:0:0:0:0:
483,192,121318,128,0,122136:0:0:0:0:
369,192,121454,128,0,122000:0:0:0:0:
256,192,121454,128,0,122681:0:0:0:0:
142,192,121591,128,0,122136:0:0:0:0:
85,192,121727,128,0,122272:0:0:0:0:
199,192,121727,128,0,122409:0:0:0:0:
426,192,121863,128,0,122409:0:0:0:0:
312,192,122000,128,0,122545:0:0:0:0:
28,192,122000,128,0,122750:0:0:0:0:
369,192,122136,128,0,122750:0:0:0:0:
483,192,122272,128,0,122750:0:0:0:0:
142,192,122272,128,0,123227:0:0:0:0:
85,192,122409,128,0,124454:0:0:0:0:
426,192,122545,128,0,123636:0:0:0:0:
199,192,122545,128,0,124181:0:0:0:0:
312,192,122681,128,0,124181:0:0:0:0:
256,192,122750,128,0,123909:0:0:0:0:
28,192,122818,1,0,0:0:0:0:
483,192,122818,1,0,0:0:0:0:
369,192,122818,1,0,0:0:0:0:
28,192,123227,1,0,0:0:0:0:
369,192,123227,128,0,124727:0:0:0:0:
483,192,123227,1,0,0:0:0:0:
142,192,123636,128,0,125000:0:0:0:0:
483,192,123636,1,0,0:0:0:0:
28,192,123636,1,0,0:0:0:0:
426,192,123909,128,0,125000:0:0:0:0:
28,192,123909,128,0,125818:0:0:0:0:
483,192,123909,128,0,126500:0:0:0:0:
256,192,124181,128,0,124454:0:0:0:0:
312,192,124454,128,0,125545:0:0:0:0:
199,192,124454,128,0,124727:0:0:0:0:
85,192,124727,128,0,125000:0:0:0:0:
369,192,125000,128,0,125272:0:0:0:0:
142,192,125272,128,0,125545:0:0:0:0:
426,192,125272,128,0,127454:0:0:0:0:
199,192,125545,128,0,125818:0:0:0:0:
312,192,125818,128,0,126091:0:0:0:0:
28,192,126091,1,0,0:0:0:0:
256,192,126091,1,0,0:0:0:0:
85,192,126091,1,0,0:0:0:0:
256,192,126500,1,0,0:0:0:0:
85,192,126500,1,0,0:0:0:0:
28,192,126500,128,0,129091:0:0:0:0:
85,192,126909,1,0,0:0:0:0:
256,192,126909,1,0,0:0:0:0:
483,192,126909,128,0,128818:0:0:0:0:
256,192,127181,128,0,129363:0:0:0:0:
85,192,127181,1,0,0:0:0:0:
369,192,127181,128,0,129091:0:0:0:0:
85,192,127454,128,0,127659:0:0:0:0:
426,192,127727,1,0,0:0:0:0:
85,192,127727,128,0,128000:0:0:0:0:
426,192,128000,128,0,128272:0:0:0:0:
142,192,128272,128,0,128545:0:0:0:0:
312,192,128545,128,0,128818:0:0:0:0:
199,192,128545,1,0,0:0:0:0:
199,192,128818,128,0,129091:0:0:0:0:
483,192,129091,128,0,129363:0:0:0:0:
142,192,129363,128,0,130045:0:0:0:0:
28,192,129363,128,0,129772:0:0:0:0:
369,192,129363,128,0,129909:0:0:0:0:
256,192,129500,128,0,130045:0:0:0:0:
85,192,129636,128,0,130318:0:0:0:0:
312,192,129636,128,0,130181:0:0:0:0:
426,192,129772,128,0,130727:0:0:0:0:
483,192,129909,128,0,130591:0:0:0:0:
28,192,129909,128,0,131000:0:0:0:0:
369,192,130045,128,0,130454:0:0:0:0:
256,192,130181,128,0,130863:0:0:0:0:
142,192,130181,128,0,130591:0:0:0:0:
312,192,130318,128,0,130863:0:0:0:0:
199,192,130454,128,0,131409:0:0:0:0:
85,192,130454,128,0,131136:0:0:0:0:
369,192,130591,128,0,131136:0:0:0:0:
142,192,130727,128,0,131272:0:0:0:0:
483,192,130727,128,0,131409:0:0:0:0:
426,192,130863,128,0,131545:0:0:0:0:
312,192,131000,128,0,131681:0:0:0:0:
256,192,131000,128,0,131681:0:0:0:0:
28,192,131136,128,0,131818:0:0:0:0:
369,192,131272,128,0,132091:0:0:0:0:
85,192,131272,128,0,131954:0:0:0:0:
142,192,131409,128,0,131954:0:0:0:0:
199,192,131545,128,0,132363:0:0:0:0:
483,192,131545,128,0,132227:0:0:0:0:
426,192,131681,128,0,132227:0:0:0:0:
312,192,131818,128,0,132363:0:0:0:0:
256,192,131818,128,0,132500:0:0:0:0:
28,192,131954,128,0,132500:0:0:0:0:
85,192,132091,128,0,132636:0:0:0:0:
142,192,132091,128,0,132772:0:0:0:0:
369,192,132227,128,0,133045:0:0:0:0:
426,192,132363,128,0,132909:0:0:0:0:
483,192,132363,128,0,132772:0:0:0:0:
199,192,132500,128,0,133045:0:0:0:0:
312,192,132500,1,0,0:0:0:0:
312,192,132636,128,0,134000:0:0:0:0:
28,192,132636,128,0,133318:0:0:0:0:
256,192,132636,128,0,133181:0:0:0:0:
85,192,132772,128,0,133318:0:0:0:0:
142,192,132909,128,0,133454:0:0:0:0:
483,192,132909,128,0,133591:0:0:0:0:
426,192,133045,128,0,133591:0:0:0:0:
369,192,133181,128,0,133727:0:0:0:0:
199,192,133181,128,0,133863:0:0:0:0:
256,192,133318,128,0,133863:0:0:0:0:
28,192,133454,128,0,134136:0:0:0:0:
85,192,133454,128,0,134136:0:0:0:0:
142,192,133591,128,0,134681:0:0:0:0:
483,192,133727,128,0,134681:0:0:0:0:
426,192,133727,128,0,134272:0:0:0:0:
369,192,133863,128,0,134409:0:0:0:0:
199,192,134000,128,0,134409:0:0:0:0:
256,192,134000,128,0,134545:0:0:0:0:
312,192,134136,128,0,134954:0:0:0:0:
28,192,134272,128,0,134818:0:0:0:0:
85,192,134272,128,0,134954:0:0:0:0:
426,192,134409,128,0,135227:0:0:0:0:
199,192,134545,128,0,135227:0:0:0:0:
369,192,134545,128,0,135363:0:0:0:0:
256,192,134681,128,0,135091:0:0:0:0:
142,192,134818,128,0,135500:0:0:0:0:
483,192,134818,128,0,135636:0:0:0:0:
28,192,134954,128,0,135909:0:0:0:0:
312,192,135091,128,0,135772:0:0:0:0:
85,192,135091,128,0,135772:0:0:0:0:
256,192,135227,128,0,136045:0:0:0:0:
426,192,135363,1,0,0:0:0:0:
199,192,135363,128,0,136181:0:0:0:0:
426,192,135500,128,0,136591:0:0:0:0:
369,192,135500,1,0,0:0:0:0:
142,192,135636,128,0,136045:0:0:0:0:
369,192,135636,1,0,0:0:0:0:
483,192,135772,1,0,0:0:0:0:
369,192,135772,128,0,136931:0:0:0:0:
312,192,135909,128,0,136318:0:0:0:0:
483,192,135909,128,0,137000:0:0:0:0:
85,192,135909,128,0,136318:0:0:0:0:
28,192,136045,128,0,136454:0:0:0:0:
256,192,136181,128,0,136863:0:0:0:0:
142,192,136181,128,0,136591:0:0:0:0:
199,192,136318,128,0,136727:0:0:0:0:
85,192,136454,128,0,137136:0:0:0:0:
312,192,136454,128,0,136931:0:0:0:0:
28,192,136591,128,0,137204:0:0:0:0:
142,192,136727,128,0,137204:0:0:0:0:
426,192,136727,128,0,137477:0:0:0:0:
199,192,136863,128,0,137409:0:0:0:0:
256,192,136931,128,0,137272:0:0:0:0:
369,192,137000,128,0,137477:0:0:0:0:
312,192,137000,128,0,137477:0:0:0:0:
483,192,137136,128,0,138363:0:0:0:0:
85,192,137204,128,0,138091:0:0:0:0:
142,192,137272,128,0,138909:0:0:0:0:
28,192,137272,128,0,138636:0:0:0:0:
256,192,137409,128,0,138909:0:0:0:0:
199,192,137477,128,0,138909:0:0:0:0:
426,192,137545,128,0,139727:0:0:0:0:
312,192,137545,128,0,139454:0:0:0:0:
369,192,137545,1,0,0:0:0:0:
369,192,138091,128,0,138363:0:0:0:0:
85,192,138363,128,0,138636:0:0:0:0:
483,192,138636,128,0,138909:0:0:0:0:
28,192,138909,128,0,139181:0:0:0:0:
256,192,139181,128,0,140272:0:0:0:0:
142,192,139181,1,0,0:0:0:0:
199,192,139181,128,0,141091:0:0:0:0:
142,192,139454,128,0,141363:0:0:0:0:
312,192,139727,128,0,140272:0:0:0:0:
426,192,140000,128,0,140818:0:0:0:0:
369,192,140272,128,0,140545:0:0:0:0:
28,192,140272,1,0,0:0:0:0:
28,192,140545,128,0,140818:0:0:0:0:
312,192,140545,1,0,0:0:0:0:
312,192,140818,128,0,141091:0:0:0:0:
483,192,140818,128,0,141636:0:0:0:0:
426,192,141091,128,0,141363:0:0:0:0:
85,192,141091,1,0,0:0:0:0:
85,192,141363,128,0,141909:0:0:0:0:
199,192,141363,128,0,142181:0:0:0:0:
142,192,141636,1,0,0:0:0:0:
142,192,141909,128,0,142181:0:0:0:0:
483,192,141909,128,0,142454:0:0:0:0:
256,192,142181,128,0,142454:0:0:0:0:
369,192,142181,128,0,143272:0:0:0:0:
426,192,142454,128,0,142727:0:0:0:0:
199,192,142454,128,0,143000:0:0:0:0:
28,192,142727,128,0,143000:0:0:0:0:
483,192,142727,1,0,0:0:0:0:
483,192,143000,128,0,143545:0:0:0:0:
312,192,143000,128,0,144636:0:0:0:0:
199,192,143272,128,0,144091:0:0:0:0:
369,192,143545,128,0,144363:0:0:0:0:
426,192,143818,128,0,144091:0:0:0:0:
256,192,143818,128,0,144909:0:0:0:0:
85,192,144091,128,0,144909:0:0:0:0:
28,192,144091,128,0,145727:0:0:0:0:
199,192,144363,128,0,146272:0:0:0:0:
369,192,144636,128,0,146272:0:0:0:0:
312,192,144909,128,0,145454:0:0:0:0:
142,192,144909,128,0,145454:0:0:0:0:
256,192,145181,128,0,146545:0:0:0:0:
426,192,145454,128,0,147091:0:0:0:0:
483,192,145727,128,0,146000:0:0:0:0:
142,192,145727,1,0,0:0:0:0:
142,192,146000,128,0,146272:0:0:0:0:
28,192,146000,1,0,0:0:0:0:
28,192,146272,128,0,146545:0:0:0:0:
85,192,146272,128,0,147363:0:0:0:0:
199,192,146545,128,0,146818:0:0:0:0:
369,192,146545,1,0,0:0:0:0:
369,192,146818,128,0,147091:0:0:0:0:
256,192,146818,1,0,0:0:0:0:
256,192,147091,128,0,147363:0:0:0:0:
312,192,147091,1,0,0:0:0:0:
312,192,147363,128,0,147636:0:0:0:0:
426,192,147363,1,0,0:0:0:0:
426,192,147636,128,0,147909:0:0:0:0:
85,192,147636,128,0,148181:0:0:0:0:
483,192,147909,128,0,148181:0:0:0:0:
199,192,147909,128,0,148181:0:0:0:0:
28,192,148181,128,0,148454:0:0:0:0:
142,192,148181,128,0,148727:0:0:0:0:
85,192,148454,128,0,148727:0:0:0:0:
199,192,148454,1,0,0:0:0:0:
199,192,148727,128,0,149000:0:0:0:0:
483,192,148727,1,0,0:0:0:0:
483,192,149000,128,0,149545:0:0:0:0:
142,192,149000,128,0,150909:0:0:0:0:
369,192,149272,1,0,0:0:0:0:
369,192,149545,128,0,149818:0:0:0:0:
256,192,149545,128,0,150363:0:0:0:0:
28,192,149818,128,0,150636:0:0:0:0:
312,192,149818,128,0,150636:0:0:0:0:
85,192,150091,128,0,152000:0:0:0:0:
426,192,150363,128,0,151181:0:0:0:0:
256,192,150636,128,0,152000:0:0:0:0:
312,192,150909,1,0,0:0:0:0:
312,192,151181,128,0,151386:0:0:0:0:
142,192,151181,128,0,152545:0:0:0:0:
312,192,151454,128,0,151727:0:0:0:0:
426,192,151454,1,0,0:0:0:0:
426,192,151727,128,0,152000:0:0:0:0:
199,192,151727,1,0,0:0:0:0:
199,192,152000,128,0,152272:0:0:0:0:
483,192,152000,128,0,153091:0:0:0:0:
256,192,152272,128,0,153363:0:0:0:0:
85,192,152272,128,0,153091:0:0:0:0:
369,192,152545,128,0,153363:0:0:0:0:
142,192,152818,128,0,153636:0:0:0:0:
28,192,153091,128,0,153909:0:0:0:0:
483,192,153363,1,0,0:0:0:0:
85,192,153363,128,0,153636:0:0:0:0:
483,192,153636,128,0,153909:0:0:0:0:
369,192,153636,1,0,0:0:0:0:
369,192,153909,128,0,154181:0:0:0:0:
142,192,153909,128,0,154727:0:0:0:0:
28,192,154181,128,0,154454:0:0:0:0:
312,192,154181,1,0,0:0:0:0:
312,192,154454,128,0,155000:0:0:0:0:
256,192,154454,128,0,155545:0:0:0:0:
426,192,154727,128,0,155545:0:0:0:0:
199,192,155000,128,0,155272:0:0:0:0:
142,192,155000,1,0,0:0:0:0:
142,192,155272,128,0,155545:0:0:0:0:
85,192,155272,1,0,0:0:0:0:
85,192,155545,128,0,155818:0:0:0:0:
28,192,155545,128,0,156636:0:0:0:0:
256,192,155818,128,0,156091:0:0:0:0:
426,192,155818,1,0,0:0:0:0:
199,192,156091,128,0,156636:0:0:0:0:
426,192,156091,128,0,158545:0:0:0:0:
483,192,156363,128,0,156909:0:0:0:0:
369,192,156636,128,0,157181:0:0:0:0:
256,192,156909,128,0,157181:0:0:0:0:
28,192,156909,128,0,158000:0:0:0:0:
483,192,157181,128,0,158000:0:0:0:0:
312,192,157181,128,0,158272:0:0:0:0:
369,192,157454,128,0,158818:0:0:0:0:
199,192,157727,128,0,159909:0:0:0:0:
142,192,158000,128,0,158545:0:0:0:0:
85,192,158000,128,0,159363:0:0:0:0:
28,192,158272,1,0,0:0:0:0:
28,192,158545,128,0,158818:0:0:0:0:
312,192,158545,128,0,160454:0:0:0:0:
256,192,158818,128,0,159363:0:0:0:0:
426,192,158818,128,0,159636:0:0:0:0:
369,192,159091,128,0,160727:0:0:0:0:
483,192,159363,1,0,0:0:0:0:
85,192,159636,128,0,159909:0:0:0:0:
483,192,159636,1,0,0:0:0:0:
483,192,159909,128,0,160181:0:0:0:0:
426,192,159909,1,0,0:0:0:0:
426,192,160181,128,0,160454:0:0:0:0:
199,192,160181,1,0,0:0:0:0:
199,192,160454,128,0,160727:0:0:0:0:
142,192,160454,1,0,0:0:0:0:
142,192,160727,128,0,161000:0:0:0:0:
312,192,160727,1,0,0:0:0:0:
312,192,161000,128,0,161272:0:0:0:0:
369,192,161000,1,0,0:0:0:0:
369,192,161272,128,0,161818:0:0:0:0:
85,192,161272,128,0,162091:0:0:0:0:
256,192,161545,1,0,0:0:0:0:
256,192,161818,128,0,162091:0:0:0:0:
28,192,161818,1,0,0:0:0:0:
28,192,162091,128,0,162295:0:0:0:0:
483,192,162091,128,0,163454:0:0:0:0:
28,192,162363,128,0,162636:0:0:0:0:
85,192,162363,128,0,162909:0:0:0:0:
426,192,162636,128,0,162841:0:0:0:0:
199,192,162636,128,0,164000:0:0:0:0:
426,192,162909,128,0,164000:0:0:0:0:
142,192,162909,128,0,164272:0:0:0:0:
85,192,163181,128,0,164818:0:0:0:0:
312,192,163454,128,0,164545:0:0:0:0:
483,192,163727,128,0,165363:0:0:0:0:
369,192,164000,128,0,165091:0:0:0:0:
199,192,164272,128,0,165363:0:0:0:0:
142,192,164545,128,0,165363:0:0:0:0:
256,192,164545,128,0,166181:0:0:0:0:
312,192,164818,128,0,167000:0:0:0:0:
85,192,165091,128,0,168636:0:0:0:0:
28,192,165363,128,0,167000:0:0:0:0:
369,192,165363,128,0,167818:0:0:0:0:
483,192,166181,1,0,0:0:0:0:
199,192,166181,128,0,169454:0:0:0:0:
483,192,167000,128,0,168636:0:0:0:0:
256,192,167000,128,0,170272:0:0:0:0:
312,192,167818,1,0,0:0:0:0:
426,192,167818,128,0,171909:0:0:0:0:
369,192,168636,128,0,170272:0:0:0:0:
312,192,168636,128,0,172727:0:0:0:0:
142,192,169454,1,0,0:0:0:0:
85,192,169454,128,0,171091:0:0:0:0:
199,192,170272,128,0,173545:0:0:0:0:
142,192,170272,128,0,174363:0:0:0:0:
28,192,171091,128,0,174363:0:0:0:0:
256,192,171091,1,0,0:0:0:0:
85,192,171909,128,0,176000:0:0:0:0:
256,192,171909,1,0,0:0:0:0:
256,192,172727,128,0,178727:0:0:0:0:
426,192,172727,1,0,0:0:0:0:
426,192,173545,1,0,0:0:0:0:
312,192,173545,128,0,179000:0:0:0:0:
426,192,174363,128,0,179272:0:0:0:0:
483,192,174363,128,0,176818:0:0:0:0:
28,192,175181,128,0,179000:0:0:0:0:
142,192,175181,1,0,0:0:0:0:
142,192,176000,1,0,0:0:0:0:
369,192,176000,128,0,178454:0:0:0:0:
85,192,176818,1,0,0:0:0:0:
142,192,176818,128,0,179818:0:0:0:0:
85,192,177636,128,0,180363:0:0:0:0:
483,192,177636,1,0,0:0:0:0:
483,192,178454,1,0,0:0:0:0:
199,192,178454,128,0,179545:0:0:0:0:
483,192,178727,128,0,180909:0:0:0:0:
369,192,178727,1,0,0:0:0:0:
256,192,179000,128,0,179818:0:0:0:0:
369,192,179000,128,0,181454:0:0:0:0:
312,192,179272,1,0,0:0:0:0:
28,192,179272,128,0,180091:0:0:0:0:
312,192,179545,128,0,181727:0:0:0:0:
426,192,179545,1,0,0:0:0:0:
426,192,179818,128,0,182000:0:0:0:0:
199,192,179818,128,0,180636:0:0:0:0:
256,192,180091,1,0,0:0:0:0:
142,192,180091,128,0,180636:0:0:0:0:
28,192,180363,1,0,0:0:0:0:
256,192,180363,128,0,182545:0:0:0:0:
85,192,180636,128,0,181181:0:0:0:0:
28,192,180636,128,0,182545:0:0:0:0:
142,192,180909,128,0,181181:0:0:0:0:
199,192,180909,1,0,0:0:0:0:
199,192,181181,128,0,181454:0:0:0:0:
483,192,181181,1,0,0:0:0:0:
483,192,181454,128,0,181727:0:0:0:0:
85,192,181454,1,0,0:0:0:0:
85,192,181727,128,0,182272:0:0:0:0:
369,192,181727,1,0,0:0:0:0:
312,192,182000,128,0,182818:0:0:0:0:
369,192,182000,1,0,0:0:0:0:
426,192,182272,128,0,182818:0:0:0:0:
369,192,182272,1,0,0:0:0:0:
142,192,182545,128,0,182818:0:0:0:0:
369,192,182545,128,0,185000:0:0:0:0:
256,192,182818,128,0,183091:0:0:0:0:
28,192,182818,128,0,183363:0:0:0:0:
312,192,183091,128,0,183295:0:0:0:0:
426,192,183091,128,0,183909:0:0:0:0:
312,192,183363,128,0,183909:0:0:0:0:
199,192,183363,128,0,184727:0:0:0:0:
28,192,183636,1,0,0:0:0:0:
142,192,183636,128,0,184454:0:0:0:0:
28,192,183909,128,0,184181:0:0:0:0:
483,192,183909,128,0,185272:0:0:0:0:
426,192,184181,128,0,185000:0:0:0:0:
256,192,184181,1,0,0:0:0:0:
256,192,184454,1,0,0:0:0:0:
85,192,184454,128,0,185818:0:0:0:0:
256,192,184727,1,0,0:0:0:0:
142,192,184727,128,0,186636:0:0:0:0:
199,192,185000,128,0,186363:0:0:0:0:
256,192,185000,1,0,0:0:0:0:
256,192,185272,128,0,187727:0:0:0:0:
369,192,185272,1,0,0:0:0:0:
369,192,185545,1,0,0:0:0:0:
483,192,185545,1,0,0:0:0:0:
369,192,185818,128,0,186091:0:0:0:0:
483,192,185818,1,0,0:0:0:0:
483,192,186091,128,0,186363:0:0:0:0:
85,192,186091,1,0,0:0:0:0:
85,192,186363,128,0,186568:0:0:0:0:
312,192,186363,128,0,187181:0:0:0:0:
85,192,186636,128,0,186909:0:0:0:0:
199,192,186636,128,0,187454:0:0:0:0:
426,192,186909,128,0,187181:0:0:0:0:
142,192,186909,1,0,0:0:0:0:
142,192,187181,128,0,187454:0:0:0:0:
28,192,187181,1,0,0:0:0:0:
28,192,187454,128,0,187727:0:0:0:0:
312,192,187454,1,0,0:0:0:0:
312,192,187727,128,0,188000:0:0:0:0:
199,192,187727,1,0,0:0:0:0:
199,192,188000,128,0,188272:0:0:0:0:
256,192,188000,1,0,0:0:0:0:
256,192,188272,128,0,188818:0:0:0:0:
426,192,188272,128,0,188818:0:0:0:0:
483,192,188545,1,0,0:0:0:0:
369,192,188545,128,0,189091:0:0:0:0:
483,192,188818,1,0,0:0:0:0:
85,192,188818,128,0,189636:0:0:0:0:
426,192,189091,128,0,189363:0:0:0:0:
483,192,189091,128,0,190727:0:0:0:0:
369,192,189363,128,0,189636:0:0:0:0:
142,192,189363,1,0,0:0:0:0:
142,192,189636,128,0,189841:0:0:0:0:
28,192,189636,128,0,190454:0:0:0:0:
142,192,189909,128,0,190454:0:0:0:0:
85,192,189909,128,0,191681:0:0:0:0:
426,192,190181,128,0,191545:0:0:0:0:
312,192,190181,1,0,0:0:0:0:
312,192,190454,128,0,190727:0:0:0:0:
199,192,190454,128,0,191681:0:0:0:0:
369,192,190727,128,0,191545:0:0:0:0:
28,192,190727,1,0,0:0:0:0:
28,192,191545,128,0,192227:0:0:0:0:
483,192,191545,128,0,191954:0:0:0:0:
256,192,191545,128,0,191954:0:0:0:0:
426,192,191681,128,0,192363:0:0:0:0:
199,192,191818,128,0,192500:0:0:0:0:
85,192,191818,128,0,192500:0:0:0:0:
142,192,191954,128,0,192636:0:0:0:0:
256,192,192091,128,0,192772:0:0:0:0:
483,192,192091,128,0,192909:0:0:0:0:
312,192,192227,128,0,193181:0:0:0:0:
369,192,192363,128,0,192772:0:0:0:0:
28,192,192363,128,0,193045:0:0:0:0:
426,192,192500,128,0,193045:0:0:0:0:
199,192,192636,128,0,193318:0:0:0:0:
85,192,192636,128,0,193318:0:0:0:0:
142,192,192772,128,0,193727:0:0:0:0:
256,192,192909,128,0,193591:0:0:0:0:
369,192,192909,128,0,193454:0:0:0:0:
483,192,193045,128,0,193863:0:0:0:0:
28,192,193181,128,0,193591:0:0:0:0:
426,192,193181,128,0,194136:0:0:0:0:
312,192,193318,128,0,193863:0:0:0:0:
85,192,193454,128,0,194000:0:0:0:0:
199,192,193454,128,0,194136:0:0:0:0:
369,192,193591,128,0,194272:0:0:0:0:
28,192,193727,128,0,194681:0:0:0:0:
256,192,193727,128,0,194409:0:0:0:0:
142,192,193863,128,0,194545:0:0:0:0:
483,192,194000,128,0,194409:0:0:0:0:
312,192,194000,128,0,194681:0:0:0:0:
85,192,194136,128,0,194681:0:0:0:0:
426,192,194272,128,0,194954:0:0:0:0:
199,192,194272,128,0,194818:0:0:0:0:
369,192,194409,128,0,195227:0:0:0:0:
256,192,194545,128,0,194954:0:0:0:0:
483,192,194545,128,0,195227:0:0:0:0:
142,192,194681,128,0,195091:0:0:0:0:
312,192,194818,128,0,195636:0:0:0:0:
28,192,194818,128,0,195500:0:0:0:0:
85,192,194818,128,0,195500:0:0:0:0:
199,192,194954,128,0,195363:0:0:0:0:
256,192,195091,128,0,195909:0:0:0:0:
426,192,195091,128,0,195772:0:0:0:0:
142,192,195227,128,0,196045:0:0:0:0:
369,192,195363,128,0,195772:0:0:0:0:
483,192,195363,128,0,196454:0:0:0:0:
199,192,195500,128,0,196045:0:0:0:0:
85,192,195636,128,0,196318:0:0:0:0:
28,192,195636,128,0,196181:0:0:0:0:
312,192,195772,128,0,196591:0:0:0:0:
369,192,195909,128,0,197136:0:0:0:0:
426,192,195909,128,0,196318:0:0:0:0:
256,192,196045,128,0,196863:0:0:0:0:
142,192,196181,128,0,196591:0:0:0:0:
199,192,196181,128,0,196727:0:0:0:0:
28,192,196318,128,0,196863:0:0:0:0:
426,192,196454,128,0,197272:0:0:0:0:
85,192,196454,128,0,197000:0:0:0:0:
483,192,196591,128,0,197136:0:0:0:0:
312,192,196727,128,0,197409:0:0:0:0:
142,192,196727,128,0,197409:0:0:0:0:
199,192,196863,128,0,197545:0:0:0:0:
256,192,197000,128,0,197681:0:0:0:0:
28,192,197000,128,0,197954:0:0:0:0:
85,192,197136,128,0,197681:0:0:0:0:
483,192,197272,128,0,198091:0:0:0:0:
369,192,197272,128,0,197818:0:0:0:0:
426,192,197409,128,0,197954:0:0:0:0:
142,192,197545,128,0,198363:0:0:0:0:
312,192,197545,128,0,198227:0:0:0:0:
199,192,197681,128,0,198227:0:0:0:0:
256,192,197818,1,0,0:0:0:0:
85,192,197818,128,0,198500:0:0:0:0:
369,192,197954,1,0,0:0:0:0:
256,192,197954,128,0,199318:0:0:0:0:
28,192,198091,128,0,198500:0:0:0:0:
426,192,198091,128,0,198772:0:0:0:0:
369,192,198091,128,0,199591:0:0:0:0:
483,192,198227,128,0,198636:0:0:0:0:
199,192,198363,128,0,198772:0:0:0:0:
312,192,198363,128,0,198909:0:0:0:0:
142,192,198500,128,0,199045:0:0:0:0:
28,192,198636,128,0,199045:0:0:0:0:
85,192,198636,128,0,199181:0:0:0:0:
483,192,198772,128,0,199454:0:0:0:0:
199,192,198909,128,0,199863:0:0:0:0:
426,192,198909,128,0,199318:0:0:0:0:
312,192,199045,128,0,199591:0:0:0:0:
142,192,199181,128,0,200136:0:0:0:0:
28,192,199181,128,0,200000:0:0:0:0:
85,192,199318,128,0,199727:0:0:0:0:
426,192,199454,128,0,200409:0:0:0:0:
256,192,199454,128,0,199863:0:0:0:0:
483,192,199591,128,0,200409:0:0:0:0:
312,192,199727,128,0,200272:0:0:0:0:
369,192,199727,128,0,200136:0:0:0:0:
85,192,199863,128,0,200681:0:0:0:0:
256,192,200000,128,0,200545:0:0:0:0:
199,192,200000,128,0,200954:0:0:0:0:
28,192,200136,128,0,200681:0:0:0:0:
369,192,200272,128,0,200818:0:0:0:0:
142,192,200272,128,0,201091:0:0:0:0:
312,192,200409,128,0,200954:0:0:0:0:
483,192,200545,128,0,201227:0:0:0:0:
426,192,200545,128,0,201227:0:0:0:0:
256,192,200681,128,0,201772:0:0:0:0:
28,192,200818,128,0,201227:0:0:0:0:
85,192,200818,128,0,201363:0:0:0:0:
369,192,200954,128,0,201500:0:0:0:0:
312,192,201091,128,0,201500:0:0:0:0:
199,192,201091,128,0,201636:0:0:0:0:
142,192,201227,128,0,201772:0:0:0:0:
28,192,201363,128,0,202318:0:0:0:0:
426,192,201363,128,0,202045:0:0:0:0:
483,192,201363,128,0,201909:0:0:0:0:
85,192,201500,128,0,202045:0:0:0:0:
312,192,201636,128,0,202454:0:0:0:0:
369,192,201636,128,0,202727:0:0:0:0:
199,192,201772,128,0,202181:0:0:0:0:
256,192,201909,128,0,202318:0:0:0:0:
142,192,201909,128,0,202591:0:0:0:0:
483,192,202045,128,0,202591:0:0:0:0:
426,192,202181,128,0,202863:0:0:0:0:
85,192,202181,128,0,202863:0:0:0:0:
199,192,202318,128,0,203204:0:0:0:0:
256,192,202454,128,0,203136:0:0:0:0:
28,192,202454,128,0,203000:0:0:0:0:
312,192,202591,128,0,203409:0:0:0:0:
142,192,202727,128,0,203272:0:0:0:0:
483,192,202727,128,0,203204:0:0:0:0:
369,192,202863,128,0,203409:0:0:0:0:
85,192,203000,128,0,203545:0:0:0:0:
426,192,203000,128,0,203681:0:0:0:0:
28,192,203136,128,0,203681:0:0:0:0:
256,192,203204,128,0,203954:0:0:0:0:
199,192,203272,128,0,203818:0:0:0:0:
483,192,203272,128,0,204227:0:0:0:0:
142,192,203409,128,0,203954:0:0:0:0:
312,192,203545,128,0,204091:0:0:0:0:
369,192,203545,128,0,204227:0:0:0:0:
85,192,203681,128,0,204363:0:0:0:0:
28,192,203818,128,0,204431:0:0:0:0:
426,192,203818,128,0,204568:0:0:0:0:
199,192,203954,128,0,204500:0:0:0:0:
142,192,204091,128,0,204568:0:0:0:0:
256,192,204091,128,0,204568:0:0:0:0:
312,192,204227,128,0,204636:0:0:0:0:
483,192,204363,128,0,204772:0:0:0:0:
369,192,204363,128,0,204772:0:0:0:0:
85,192,204431,128,0,204909:0:0:0:0:
28,192,204500,128,0,205045:0:0:0:0:
199,192,204568,128,0,205045:0:0:0:0:
142,192,204636,128,0,205318:0:0:0:0:
426,192,204636,128,0,205181:0:0:0:0:
256,192,204636,128,0,205591:0:0:0:0:
312,192,204772,128,0,205318:0:0:0:0:
483,192,204909,128,0,206000:0:0:0:0:
369,192,204909,128,0,205454:0:0:0:0:
85,192,205045,128,0,205863:0:0:0:0:
199,192,205181,128,0,205727:0:0:0:0:
28,192,205181,128,0,205591:0:0:0:0:
426,192,205318,128,0,205863:0:0:0:0:
312,192,205454,128,0,206136:0:0:0:0:
142,192,205454,128,0,206409:0:0:0:0:
369,192,205591,128,0,206272:0:0:0:0:
256,192,205727,128,0,206136:0:0:0:0:
28,192,205727,128,0,206681:0:0:0:0:
199,192,205863,128,0,206545:0:0:0:0:
85,192,206000,128,0,206681:0:0:0:0:
426,192,206000,128,0,206409:0:0:0:0:
483,192,206136,128,0,206818:0:0:0:0:
312,192,206272,128,0,207227:0:0:0:0:
256,192,206272,128,0,207227:0:0:0:0:
369,192,206409,128,0,206954:0:0:0:0:
426,192,206545,128,0,206954:0:0:0:0:
142,192,206545,128,0,207091:0:0:0:0:
199,192,206681,128,0,207363:0:0:0:0:
28,192,206818,128,0,207636:0:0:0:0:
85,192,206818,128,0,207500:0:0:0:0:
483,192,206954,128,0,207500:0:0:0:0:
426,192,207091,128,0,208045:0:0:0:0:
369,192,207091,128,0,207772:0:0:0:0:
142,192,207227,128,0,207772:0:0:0:0:
312,192,207363,128,0,207772:0:0:0:0:
256,192,207363,128,0,207909:0:0:0:0:
199,192,207500,128,0,208318:0:0:0:0:
85,192,207636,128,0,208454:0:0:0:0:
483,192,207636,128,0,208045:0:0:0:0:
28,192,207772,128,0,208181:0:0:0:0:
312,192,207909,128,0,208863:0:0:0:0:
142,192,207909,128,0,208318:0:0:0:0:
369,192,207909,128,0,208591:0:0:0:0:
256,192,208045,128,0,208591:0:0:0:0:
483,192,208181,128,0,208727:0:0:0:0:
426,192,208181,128,0,208863:0:0:0:0:
28,192,208318,128,0,209136:0:0:0:0:
199,192,208454,128,0,209000:0:0:0:0:
142,192,208454,128,0,209136:0:0:0:0:
85,192,208591,128,0,209409:0:0:0:0:
369,192,208727,128,0,209409:0:0:0:0:
256,192,208727,128,0,209272:0:0:0:0:
483,192,208863,128,0,209681:0:0:0:0:
426,192,209000,128,0,209545:0:0:0:0:
312,192,209000,128,0,209954:0:0:0:0:
199,192,209136,128,0,209681:0:0:0:0:
142,192,209272,128,0,209954:0:0:0:0:
28,192,209272,128,0,209818:0:0:0:0:
256,192,209409,128,0,210091:0:0:0:0:
85,192,209545,128,0,210227:0:0:0:0:
369,192,209545,128,0,210568:0:0:0:0:
426,192,209681,128,0,210500:0:0:0:0:
199,192,209818,128,0,210227:0:0:0:0:
483,192,209818,128,0,210363:0:0:0:0:
28,192,209954,128,0,210772:0:0:0:0:
312,192,210091,128,0,210568:0:0:0:0:
142,192,210091,128,0,210841:0:0:0:0:
256,192,210227,128,0,210909:0:0:0:0:
199,192,210363,128,0,211113:0:0:0:0:
85,192,210363,128,0,210841:0:0:0:0:
483,192,210500,128,0,211045:0:0:0:0:
426,192,210568,128,0,211113:0:0:0:0:
312,192,210636,128,0,211113:0:0:0:0:
369,192,210636,1,0,0:0:0:0:
369,192,210772,128,0,212136:0:0:0:0:
28,192,210841,128,0,211181:0:0:0:0:
85,192,210909,128,0,211318:0:0:0:0:
142,192,210909,128,0,211318:0:0:0:0:
256,192,211045,128,0,211591:0:0:0:0:
483,192,211113,128,0,211454:0:0:0:0:
199,192,211181,128,0,211863:0:0:0:0:
312,192,211181,128,0,211591:0:0:0:0:
426,192,211181,128,0,211727:0:0:0:0:
28,192,211318,128,0,211863:0:0:0:0:
85,192,211454,128,0,212000:0:0:0:0:
142,192,211454,128,0,212409:0:0:0:0:
483,192,211591,128,0,212136:0:0:0:0:
312,192,211727,128,0,212545:0:0:0:0:
256,192,211727,128,0,212409:0:0:0:0:
426,192,211863,128,0,212272:0:0:0:0:
199,192,212000,128,0,212681:0:0:0:0:
28,192,212000,128,0,212681:0:0:0:0:
85,192,212136,128,0,213227:0:0:0:0:
369,192,212272,128,0,212818:0:0:0:0:
483,192,212272,128,0,212954:0:0:0:0:
426,192,212409,128,0,212954:0:0:0:0:
256,192,212545,128,0,213091:0:0:0:0:
142,192,212545,128,0,213227:0:0:0:0:
312,192,212681,128,0,213500:0:0:0:0:
199,192,212818,128,0,213363:0:0:0:0:
28,192,212818,128,0,213636:0:0:0:0:
369,192,212954,128,0,213500:0:0:0:0:
483,192,213091,128,0,213772:0:0:0:0:
426,192,213091,128,0,214045:0:0:0:0:
256,192,213227,128,0,213772:0:0:0:0:
142,192,213363,128,0,213909:0:0:0:0:
85,192,213363,128,0,214045:0:0:0:0:
199,192,213500,128,0,214181:0:0:0:0:
369,192,213636,128,0,214318:0:0:0:0:
312,192,213636,128,0,214318:0:0:0:0:
28,192,213772,128,0,214863:0:0:0:0:
256,192,213909,128,0,214863:0:0:0:0:
483,192,213909,128,0,214591:0:0:0:0:
142,192,214045,128,0,214454:0:0:0:0:
85,192,214181,128,0,214591:0:0:0:0:
426,192,214181,128,0,214727:0:0:0:0:
199,192,214318,128,0,215000:0:0:0:0:
369,192,214454,128,0,215136:0:0:0:0:
312,192,214454,128,0,215136:0:0:0:0:
142,192,214591,128,0,215272:0:0:0:0:
85,192,214727,128,0,215681:0:0:0:0:
483,192,214727,128,0,215409:0:0:0:0:
426,192,214863,128,0,215409:0:0:0:0:
28,192,215000,128,0,215545:0:0:0:0:
256,192,215000,128,0,215681:0:0:0:0:
199,192,215136,128,0,215954:0:0:0:0:
312,192,215272,128,0,215818:0:0:0:0:
369,192,215272,128,0,215954:0:0:0:0:
142,192,215409,128,0,215954:0:0:0:0:
483,192,215545,128,0,216091:0:0:0:0:
426,192,215545,128,0,216227:0:0:0:0:
28,192,215681,128,0,216295:0:0:0:0:
85,192,215818,128,0,216295:0:0:0:0:
256,192,215818,128,0,216363:0:0:0:0:
312,192,215954,128,0,216500:0:0:0:0:
199,192,216091,128,0,216636:0:0:0:0:
142,192,216091,128,0,216568:0:0:0:0:
369,192,216091,128,0,216568:0:0:0:0:
483,192,216227,128,0,216772:0:0:0:0:
426,192,216295,128,0,216841:0:0:0:0:
85,192,216363,128,0,216909:0:0:0:0:
28,192,216363,128,0,216841:0:0:0:0:
256,192,216500,128,0,216977:0:0:0:0:
312,192,216568,128,0,217181:0:0:0:0:
142,192,216636,128,0,217113:0:0:0:0:
369,192,216636,128,0,217045:0:0:0:0:
199,192,216772,128,0,217250:0:0:0:0:
483,192,216841,128,0,217318:0:0:0:0:
28,192,216909,128,0,217386:0:0:0:0:
426,192,216909,128,0,217454:0:0:0:0:
85,192,216977,128,0,217522:0:0:0:0:
256,192,217045,128,0,217591:0:0:0:0:
369,192,217113,128,0,217659:0:0:0:0:
142,192,217181,128,0,217727:0:0:0:0:
312,192,217250,128,0,217659:0:0:0:0:
199,192,217318,128,0,219909:0:0:0:0:
483,192,217386,128,0,220727:0:0:0:0:
28,192,217454,128,0,220727:0:0:0:0:
426,192,217522,128,0,220727:0:0:0:0:
85,192,217591,128,0,220454:0:0:0:0:
256,192,217659,128,0,220181:0:0:0:0:
312,192,217727,128,0,219363:0:0:0:0:
369,192,217727,128,0,219363:0:0:0:0:
142,192,219909,128,0,220181:0:0:0:0:
199,192,220181,128,0,220454:0:0:0:0:
256,192,220454,128,0,220727:0:0:0:0:
85,192,220727,128,0,221000:0:0:0:0:
28,192,221000,128,0,221409:0:0:0:0:
426,192,221000,128,0,221681:0:0:0:0:
483,192,221000,128,0,221545:0:0:0:0:
142,192,221136,128,0,221681:0:0:0:0:
369,192,221272,128,0,221818:0:0:0:0:
312,192,221272,128,0,221954:0:0:0:0:
256,192,221409,128,0,222091:0:0:0:0:
199,192,221409,128,0,221954:0:0:0:0:
85,192,221545,128,0,222091:0:0:0:0:
28,192,221545,128,0,222227:0:0:0:0:
483,192,221681,128,0,222227:0:0:0:0:
142,192,221818,128,0,222363:0:0:0:0:
426,192,221818,128,0,222363:0:0:0:0:
369,192,221954,128,0,222636:0:0:0:0:
312,192,222091,128,0,222636:0:0:0:0:
199,192,222091,128,0,222500:0:0:0:0:
85,192,222227,128,0,222772:0:0:0:0:
256,192,222227,128,0,222772:0:0:0:0:
28,192,222363,128,0,223045:0:0:0:0:
483,192,222363,128,0,222909:0:0:0:0:
142,192,222500,128,0,223045:0:0:0:0:
426,192,222500,128,0,222909:0:0:0:0:
199,192,222636,128,0,223318:0:0:0:0:
369,192,222772,128,0,223318:0:0:0:0:
312,192,222772,128,0,223181:0:0:0:0:
256,192,222909,128,0,223454:0:0:0:0:
85,192,222909,128,0,223727:0:0:0:0:
483,192,223045,128,0,223591:0:0:0:0:
426,192,223045,128,0,223863:0:0:0:0:
142,192,223181,128,0,223727:0:0:0:0:
28,192,223181,128,0,223591:0:0:0:0:
312,192,223318,128,0,223863:0:0:0:0:
199,192,223454,128,0,224000:0:0:0:0:
369,192,223454,128,0,224000:0:0:0:0:
256,192,223591,128,0,224136:0:0:0:0:
483,192,223727,128,0,224136:0:0:0:0:
28,192,223727,128,0,224272:0:0:0:0:
85,192,223863,128,0,224409:0:0:0:0:
142,192,223863,128,0,224409:0:0:0:0:
312,192,224000,128,0,224545:0:0:0:0:
426,192,224000,128,0,224545:0:0:0:0:
369,192,224136,1,0,0:0:0:0:
199,192,224136,128,0,224681:0:0:0:0:
256,192,224272,1,0,0:0:0:0:
369,192,224272,128,0,225363:0:0:0:0:
483,192,224272,128,0,224681:0:0:0:0:
28,192,224409,128,0,224818:0:0:0:0:
256,192,224409,128,0,225500:0:0:0:0:
142,192,224545,128,0,224954:0:0:0:0:
85,192,224545,128,0,224954:0:0:0:0:
426,192,224681,128,0,225227:0:0:0:0:
312,192,224681,128,0,225091:0:0:0:0:
199,192,224818,128,0,225227:0:0:0:0:
483,192,224818,128,0,225363:0:0:0:0:
28,192,224954,128,0,225500:0:0:0:0:
85,192,225091,128,0,225636:0:0:0:0:
142,192,225091,128,0,225772:0:0:0:0:
312,192,225227,128,0,225636:0:0:0:0:
199,192,225363,128,0,225772:0:0:0:0:
426,192,225363,128,0,225909:0:0:0:0:
369,192,225500,128,0,226045:0:0:0:0:
483,192,225500,128,0,226181:0:0:0:0:
28,192,225636,128,0,226318:0:0:0:0:
256,192,225636,128,0,226045:0:0:0:0:
85,192,225772,128,0,226591:0:0:0:0:
312,192,225772,128,0,226181:0:0:0:0:
142,192,225909,128,0,226318:0:0:0:0:
199,192,225909,128,0,226454:0:0:0:0:
426,192,226045,128,0,226591:0:0:0:0:
369,192,226181,128,0,227000:0:0:0:0:
256,192,226181,128,0,227000:0:0:0:0:
312,192,226318,128,0,226727:0:0:0:0:
483,192,226318,128,0,227272:0:0:0:0:
28,192,226454,128,0,227136:0:0:0:0:
142,192,226454,128,0,226863:0:0:0:0:
199,192,226591,128,0,227409:0:0:0:0:
85,192,226727,128,0,227409:0:0:0:0:
426,192,226727,1,0,0:0:0:0:
426,192,226863,128,0,227681:0:0:0:0:
312,192,226863,1,0,0:0:0:0:
312,192,227000,128,0,227954:0:0:0:0:
142,192,227000,128,0,227545:0:0:0:0:
369,192,227136,128,0,227681:0:0:0:0:
256,192,227136,1,0,0:0:0:0:
256,192,227272,128,0,228091:0:0:0:0:
28,192,227272,1,0,0:0:0:0:
28,192,227409,128,0,228227:0:0:0:0:
483,192,227409,1,0,0:0:0:0:
483,192,227545,128,0,228636:0:0:0:0:
199,192,227545,128,0,227818:0:0:0:0:
85,192,227545,128,0,227818:0:0:0:0:
142,192,227681,128,0,227954:0:0:0:0:
426,192,227818,128,0,228500:0:0:0:0:
369,192,227818,128,0,228227:0:0:0:0:
199,192,227954,128,0,228363:0:0:0:0:
85,192,227954,128,0,228363:0:0:0:0:
142,192,228091,128,0,228636:0:0:0:0:
312,192,228091,128,0,228772:0:0:0:0:
256,192,228227,128,0,229045:0:0:0:0:
28,192,228363,128,0,229181:0:0:0:0:
369,192,228363,128,0,228772:0:0:0:0:
199,192,228500,128,0,229318:0:0:0:0:
85,192,228500,128,0,228909:0:0:0:0:
426,192,228636,128,0,229045:0:0:0:0:
142,192,228772,128,0,229591:0:0:0:0:
483,192,228772,128,0,229181:0:0:0:0:
312,192,228909,128,0,229318:0:0:0:0:
369,192,228909,128,0,229454:0:0:0:0:
85,192,229045,128,0,229727:0:0:0:0:
256,192,229181,128,0,229591:0:0:0:0:
426,192,229181,128,0,229727:0:0:0:0:
28,192,229318,128,0,230000:0:0:0:0:
483,192,229318,128,0,230136:0:0:0:0:
312,192,229454,128,0,229863:0:0:0:0:
199,192,229454,128,0,229863:0:0:0:0:
369,192,229591,128,0,230409:0:0:0:0:
142,192,229727,128,0,230136:0:0:0:0:
256,192,229727,128,0,230272:0:0:0:0:
426,192,229863,128,0,230545:0:0:0:0:
85,192,229863,128,0,230272:0:0:0:0:
199,192,230000,128,0,230409:0:0:0:0:
312,192,230000,128,0,230681:0:0:0:0:
28,192,230136,128,0,230545:0:0:0:0:
142,192,230272,128,0,230954:0:0:0:0:
483,192,230272,128,0,230681:0:0:0:0:
256,192,230409,128,0,230818:0:0:0:0:
85,192,230409,128,0,230954:0:0:0:0:
369,192,230545,128,0,231091:0:0:0:0:
199,192,230545,128,0,231363:0:0:0:0:
426,192,230681,1,0,0:0:0:0:
28,192,230681,128,0,231091:0:0:0:0:
312,192,230818,128,0,231227:0:0:0:0:
483,192,230818,128,0,231227:0:0:0:0:
426,192,230818,128,0,231909:0:0:0:0:
256,192,230954,128,0,231500:0:0:0:0:
85,192,231091,128,0,231500:0:0:0:0:
142,192,231091,128,0,231500:0:0:0:0:
28,192,231227,128,0,231636:0:0:0:0:
369,192,231227,128,0,231772:0:0:0:0:
312,192,231363,128,0,232181:0:0:0:0:
483,192,231363,128,0,231909:0:0:0:0:
199,192,231500,128,0,231772:0:0:0:0:
85,192,231636,128,0,232318:0:0:0:0:
142,192,231636,128,0,232045:0:0:0:0:
256,192,231636,128,0,232045:0:0:0:0:
28,192,231772,128,0,232318:0:0:0:0:
199,192,231909,128,0,232591:0:0:0:0:
369,192,231909,128,0,232181:0:0:0:0:
426,192,232045,128,0,232454:0:0:0:0:
483,192,232045,128,0,232863:0:0:0:0:
256,192,232181,128,0,232727:0:0:0:0:
142,192,232181,128,0,232591:0:0:0:0:
369,192,232318,1,0,0:0:0:0:
312,192,232318,128,0,232727:0:0:0:0:
369,192,232454,128,0,233681:0:0:0:0:
85,192,232454,128,0,233000:0:0:0:0:
28,192,232454,128,0,232863:0:0:0:0:
426,192,232591,128,0,233136:0:0:0:0:
142,192,232727,128,0,233136:0:0:0:0:
199,192,232727,128,0,233136:0:0:0:0:
256,192,232863,128,0,233409:0:0:0:0:
312,192,232863,128,0,233272:0:0:0:0:
28,192,233000,128,0,233954:0:0:0:0:
483,192,233000,128,0,233545:0:0:0:0:
85,192,233136,128,0,233954:0:0:0:0:
142,192,233272,128,0,234091:0:0:0:0:
199,192,233272,1,0,0:0:0:0:
426,192,233272,128,0,233818:0:0:0:0:
312,192,233409,1,0,0:0:0:0:
199,192,233409,128,0,234500:0:0:0:0:
312,192,233545,1,0,0:0:0:0:
256,192,233545,128,0,234227:0:0:0:0:
483,192,233681,1,0,0:0:0:0:
312,192,233681,128,0,234568:0:0:0:0:
483,192,233818,1,0,0:0:0:0:
369,192,233818,128,0,234227:0:0:0:0:
483,192,233954,128,0,234909:0:0:0:0:
426,192,233954,1,0,0:0:0:0:
85,192,234091,128,0,234431:0:0:0:0:
426,192,234091,128,0,235181:0:0:0:0:
28,192,234091,128,0,234363:0:0:0:0:
142,192,234227,128,0,234568:0:0:0:0:
369,192,234363,128,0,234636:0:0:0:0:
256,192,234363,128,0,234772:0:0:0:0:
28,192,234431,128,0,235045:0:0:0:0:
85,192,234500,128,0,235045:0:0:0:0:
199,192,234568,128,0,234772:0:0:0:0:
312,192,234636,128,0,235318:0:0:0:0:
142,192,234636,128,0,235181:0:0:0:0:
369,192,234772,128,0,235454:0:0:0:0:
199,192,234909,128,0,235863:0:0:0:0:
256,192,234909,128,0,235318:0:0:0:0:
483,192,235045,128,0,235591:0:0:0:0:
85,192,235181,128,0,235591:0:0:0:0:
28,192,235181,128,0,236000:0:0:0:0:
426,192,235318,128,0,235727:0:0:0:0:
142,192,235318,128,0,236136:0:0:0:0:
256,192,235454,128,0,236000:0:0:0:0:
312,192,235454,128,0,235863:0:0:0:0:
369,192,235591,128,0,236136:0:0:0:0:
85,192,235727,128,0,236409:0:0:0:0:
483,192,235727,128,0,236545:0:0:0:0:
426,192,235863,128,0,236409:0:0:0:0:
312,192,236000,128,0,236681:0:0:0:0:
199,192,236000,128,0,236272:0:0:0:0:
28,192,236136,128,0,236681:0:0:0:0:
256,192,236136,128,0,236954:0:0:0:0:
369,192,236272,128,0,236818:0:0:0:0:
142,192,236272,128,0,236818:0:0:0:0:
199,192,236409,128,0,237363:0:0:0:0:
85,192,236545,128,0,237091:0:0:0:0:
426,192,236545,128,0,237091:0:0:0:0:
483,192,236681,128,0,236954:0:0:0:0:
312,192,236818,128,0,237227:0:0:0:0:
28,192,236818,128,0,237227:0:0:0:0:
142,192,236954,128,0,237636:0:0:0:0:
369,192,236954,128,0,237500:0:0:0:0:
256,192,237091,128,0,237500:0:0:0:0:
483,192,237091,128,0,237772:0:0:0:0:
85,192,237227,128,0,237636:0:0:0:0:
426,192,237227,1,0,0:0:0:0:
28,192,237363,128,0,237772:0:0:0:0:
426,192,237363,128,0,238318:0:0:0:0:
312,192,237363,1,0,0:0:0:0:
199,192,237500,128,0,237909:0:0:0:0:
312,192,237500,128,0,238591:0:0:0:0:
256,192,237636,128,0,238045:0:0:0:0:
369,192,237636,128,0,238045:0:0:0:0:
85,192,237772,128,0,238181:0:0:0:0:
142,192,237772,128,0,238318:0:0:0:0:
28,192,237909,128,0,238727:0:0:0:0:
483,192,237909,128,0,238727:0:0:0:0:
199,192,238045,128,0,238454:0:0:0:0:
256,192,238181,128,0,238591:0:0:0:0:
369,192,238181,128,0,239000:0:0:0:0:
85,192,238318,128,0,238863:0:0:0:0:
426,192,238454,128,0,239409:0:0:0:0:
142,192,238454,128,0,238863:0:0:0:0:
199,192,238591,128,0,239136:0:0:0:0:
256,192,238727,128,0,239136:0:0:0:0:
312,192,238727,128,0,239272:0:0:0:0:
483,192,238863,128,0,239409:0:0:0:0:
28,192,238863,128,0,239272:0:0:0:0:
142,192,239000,128,0,239545:0:0:0:0:
85,192,239000,128,0,239681:0:0:0:0:
369,192,239136,128,0,239681:0:0:0:0:
199,192,239272,128,0,239818:0:0:0:0:
256,192,239272,128,0,240091:0:0:0:0:
312,192,239409,128,0,239954:0:0:0:0:
28,192,239409,128,0,240091:0:0:0:0:
483,192,239545,128,0,240363:0:0:0:0:
426,192,239545,128,0,240227:0:0:0:0:
142,192,239681,128,0,240431:0:0:0:0:
369,192,239818,128,0,240500:0:0:0:0:
85,192,239818,1,0,0:0:0:0:
199,192,239954,1,0,0:0:0:0:
85,192,239954,128,0,240568:0:0:0:0:
312,192,240091,128,0,240568:0:0:0:0:
199,192,240091,128,0,241045:0:0:0:0:
28,192,240227,1,0,0:0:0:0:
256,192,240227,128,0,240568:0:0:0:0:
28,192,240363,128,0,241318:0:0:0:0:
426,192,240363,128,0,240636:0:0:0:0:
483,192,240431,128,0,240772:0:0:0:0:
142,192,240500,128,0,240772:0:0:0:0:
369,192,240568,128,0,240909:0:0:0:0:
312,192,240636,128,0,241045:0:0:0:0:
256,192,240636,128,0,240909:0:0:0:0:
85,192,240636,128,0,241454:0:0:0:0:
426,192,240772,128,0,241181:0:0:0:0:
142,192,240909,128,0,241318:0:0:0:0:
483,192,240909,128,0,241318:0:0:0:0:
256,192,241045,128,0,241863:0:0:0:0:
369,192,241045,128,0,241727:0:0:0:0:
312,192,241181,128,0,241591:0:0:0:0:
199,192,241181,128,0,241591:0:0:0:0:
426,192,241318,128,0,241727:0:0:0:0:
483,192,241454,128,0,242136:0:0:0:0:
28,192,241454,128,0,241863:0:0:0:0:
142,192,241454,128,0,242000:0:0:0:0:
85,192,241591,128,0,242000:0:0:0:0:
312,192,241727,128,0,242136:0:0:0:0:
199,192,241727,128,0,242409:0:0:0:0:
369,192,241863,128,0,242272:0:0:0:0:
426,192,241863,128,0,242409:0:0:0:0:
28,192,242000,128,0,242545:0:0:0:0:
256,192,242000,128,0,242545:0:0:0:0:
85,192,242136,128,0,242681:0:0:0:0:
142,192,242136,1,0,0:0:0:0:
483,192,242272,128,0,242681:0:0:0:0:
142,192,242272,128,0,243363:0:0:0:0:
312,192,242272,128,0,242954:0:0:0:0:
369,192,242409,128,0,242818:0:0:0:0:
199,192,242545,128,0,242954:0:0:0:0:
426,192,242545,128,0,242954:0:0:0:0:
256,192,242681,128,0,243091:0:0:0:0:
28,192,242681,128,0,243227:0:0:0:0:
483,192,242818,128,0,243227:0:0:0:0:
85,192,242818,128,0,243363:0:0:0:0:
369,192,242954,128,0,243500:0:0:0:0:
312,192,243091,128,0,243636:0:0:0:0:
426,192,243091,128,0,243500:0:0:0:0:
199,192,243091,128,0,243772:0:0:0:0:
256,192,243227,128,0,243636:0:0:0:0:
28,192,243363,128,0,244045:0:0:0:0:
483,192,243363,128,0,243909:0:0:0:0:
85,192,243500,128,0,244318:0:0:0:0:
142,192,243500,128,0,243772:0:0:0:0:
426,192,243636,128,0,244181:0:0:0:0:
369,192,243636,128,0,244045:0:0:0:0:
256,192,243772,1,0,0:0:0:0:
312,192,243772,128,0,244181:0:0:0:0:
256,192,243909,128,0,244863:0:0:0:0:
142,192,243909,1,0,0:0:0:0:
199,192,243909,128,0,244318:0:0:0:0:
142,192,244045,128,0,245136:0:0:0:0:
483,192,244045,128,0,244591:0:0:0:0:
28,192,244181,128,0,244454:0:0:0:0:
369,192,244181,128,0,244591:0:0:0:0:
312,192,244318,128,0,244727:0:0:0:0:
426,192,244318,128,0,244591:0:0:0:0:
199,192,244454,128,0,244863:0:0:0:0:
85,192,244454,128,0,245000:0:0:0:0:
28,192,244591,128,0,245000:0:0:0:0:
426,192,244727,128,0,245681:0:0:0:0:
483,192,244727,128,0,245272:0:0:0:0:
369,192,244727,128,0,245136:0:0:0:0:
312,192,244863,128,0,245272:0:0:0:0:
199,192,245000,128,0,245409:0:0:0:0:
256,192,245000,128,0,245409:0:0:0:0:
28,192,245136,128,0,245818:0:0:0:0:
85,192,245136,128,0,245545:0:0:0:0:
142,192,245272,128,0,245818:0:0:0:0:
369,192,245272,128,0,245681:0:0:0:0:
312,192,245409,1,0,0:0:0:0:
483,192,245409,128,0,245954:0:0:0:0:
199,192,245545,128,0,246227:0:0:0:0:
256,192,245545,128,0,246227:0:0:0:0:
312,192,245545,128,0,246636:0:0:0:0:
85,192,245681,128,0,245954:0:0:0:0:
426,192,245818,128,0,246091:0:0:0:0:
369,192,245818,128,0,246772:0:0:0:0:
142,192,245954,128,0,246500:0:0:0:0:
28,192,245954,128,0,246363:0:0:0:0:
483,192,246091,128,0,246909:0:0:0:0:
85,192,246091,128,0,247045:0:0:0:0:
426,192,246227,128,0,247318:0:0:0:0:
199,192,246363,1,0,0:0:0:0:
256,192,246363,128,0,247045:0:0:0:0:
28,192,246500,1,0,0:0:0:0:
199,192,246500,128,0,247591:0:0:0:0:
28,192,246636,1,0,0:0:0:0:
142,192,246636,128,0,247181:0:0:0:0:
28,192,246772,128,0,247591:0:0:0:0:
312,192,246772,1,0,0:0:0:0:
369,192,246909,128,0,247318:0:0:0:0:
312,192,246909,1,0,0:0:0:0:
483,192,247045,1,0,0:0:0:0:
312,192,247045,128,0,248000:0:0:0:0:
256,192,247181,128,0,247454:0:0:0:0:
483,192,247181,128,0,248136:0:0:0:0:
85,192,247181,128,0,247454:0:0:0:0:
142,192,247318,128,0,247727:0:0:0:0:
369,192,247454,128,0,247863:0:0:0:0:
426,192,247454,128,0,247863:0:0:0:0:
256,192,247591,128,0,248545:0:0:0:0:
85,192,247591,128,0,248136:0:0:0:0:
28,192,247727,128,0,248681:0:0:0:0:
199,192,247727,128,0,248545:0:0:0:0:
142,192,247863,128,0,248272:0:0:0:0:
369,192,248000,128,0,248409:0:0:0:0:
426,192,248000,128,0,248409:0:0:0:0:
312,192,248136,128,0,249091:0:0:0:0:
483,192,248272,128,0,248954:0:0:0:0:
85,192,248272,128,0,248818:0:0:0:0:
142,192,248409,128,0,248681:0:0:0:0:
369,192,248545,128,0,249227:0:0:0:0:
426,192,248545,128,0,248954:0:0:0:0:
199,192,248681,128,0,249227:0:0:0:0:
256,192,248681,128,0,249091:0:0:0:0:
142,192,248818,128,0,249500:0:0:0:0:
28,192,248818,128,0,249363:0:0:0:0:
85,192,248954,128,0,249772:0:0:0:0:
426,192,249091,128,0,249500:0:0:0:0:
483,192,249091,128,0,249636:0:0:0:0:
256,192,249227,128,0,250045:0:0:0:0:
312,192,249227,128,0,249772:0:0:0:0:
369,192,249363,128,0,249909:0:0:0:0:
199,192,249363,128,0,250045:0:0:0:0:
28,192,249500,128,0,249909:0:0:0:0:
426,192,249636,128,0,250591:0:0:0:0:
142,192,249636,128,0,250181:0:0:0:0:
483,192,249772,128,0,250181:0:0:0:0:
85,192,249909,128,0,250318:0:0:0:0:
312,192,249909,128,0,250318:0:0:0:0:
369,192,250045,128,0,250591:0:0:0:0:
28,192,250045,128,0,250454:0:0:0:0:
199,192,250181,128,0,250727:0:0:0:0:
256,192,250181,128,0,250727:0:0:0:0:
142,192,250318,128,0,251000:0:0:0:0:
483,192,250318,1,0,0:0:0:0:
312,192,250454,128,0,250863:0:0:0:0:
85,192,250454,128,0,250863:0:0:0:0:
483,192,250454,128,0,251681:0:0:0:0:
28,192,250591,128,0,251136:0:0:0:0:
369,192,250727,128,0,251136:0:0:0:0:
426,192,250727,128,0,251272:0:0:0:0:
256,192,250863,128,0,251409:0:0:0:0:
199,192,250863,128,0,251409:0:0:0:0:
312,192,251000,128,0,251681:0:0:0:0:
85,192,251000,128,0,251545:0:0:0:0:
142,192,251136,128,0,252091:0:0:0:0:
28,192,251272,128,0,252091:0:0:0:0:
369,192,251272,128,0,251818:0:0:0:0:
426,192,251409,128,0,251818:0:0:0:0:
199,192,251545,128,0,251954:0:0:0:0:
256,192,251545,128,0,252227:0:0:0:0:
85,192,251681,128,0,252363:0:0:0:0:
483,192,251818,128,0,252363:0:0:0:0:
312,192,251818,128,0,252227:0:0:0:0:
426,192,251954,128,0,252500:0:0:0:0:
369,192,251954,128,0,252500:0:0:0:0:
199,192,252091,128,0,252772:0:0:0:0:
28,192,252227,128,0,252636:0:0:0:0:
142,192,252227,128,0,252772:0:0:0:0:
312,192,252363,128,0,253318:0:0:0:0:
256,192,252363,128,0,252909:0:0:0:0:
483,192,252500,128,0,253181:0:0:0:0:
85,192,252500,128,0,253045:0:0:0:0:
369,192,252636,128,0,253591:0:0:0:0:
426,192,252636,128,0,253181:0:0:0:0:
28,192,252772,128,0,253591:0:0:0:0:
199,192,252909,128,0,253454:0:0:0:0:
142,192,252909,1,0,0:0:0:0:
256,192,253045,1,0,0:0:0:0:
142,192,253045,128,0,254000:0:0:0:0:
256,192,253181,128,0,254272:0:0:0:0:
85,192,253181,128,0,253727:0:0:0:0:
426,192,253318,128,0,253863:0:0:0:0:
483,192,253318,1,0,0:0:0:0:
312,192,253454,1,0,0:0:0:0:
483,192,253454,128,0,254545:0:0:0:0:
199,192,253591,128,0,253863:0:0:0:0:
312,192,253591,1,0,0:0:0:0:
369,192,253727,128,0,254000:0:0:0:0:
28,192,253727,128,0,254136:0:0:0:0:
312,192,253727,128,0,254681:0:0:0:0:
85,192,253863,128,0,254136:0:0:0:0:
199,192,254000,128,0,254409:0:0:0:0:
426,192,254000,128,0,254409:0:0:0:0:
142,192,254136,128,0,254818:0:0:0:0:
369,192,254136,128,0,254954:0:0:0:0:
28,192,254272,128,0,254681:0:0:0:0:
85,192,254272,128,0,255091:0:0:0:0:
256,192,254409,128,0,254954:0:0:0:0:
199,192,254545,128,0,255227:0:0:0:0:
426,192,254545,128,0,255363:0:0:0:0:
483,192,254681,128,0,255091:0:0:0:0:
28,192,254818,128,0,255772:0:0:0:0:
312,192,254818,128,0,255363:0:0:0:0:
142,192,254954,128,0,255500:0:0:0:0:
369,192,255091,128,0,255500:0:0:0:0:
256,192,255091,128,0,255636:0:0:0:0:
483,192,255227,128,0,255772:0:0:0:0:
85,192,255227,128,0,255909:0:0:0:0:
199,192,255363,128,0,256045:0:0:0:0:
312,192,255500,128,0,256659:0:0:0:0:
426,192,255500,128,0,256045:0:0:0:0:
369,192,255636,128,0,256386:0:0:0:0:
142,192,255636,128,0,256591:0:0:0:0:
256,192,255772,128,0,256181:0:0:0:0:
483,192,255909,128,0,256386:0:0:0:0:
28,192,255909,128,0,256318:0:0:0:0:
85,192,256045,128,0,256863:0:0:0:0:
426,192,256181,128,0,256659:0:0:0:0:
199,192,256181,128,0,257136:0:0:0:0:
256,192,256318,128,0,256931:0:0:0:0:
28,192,256386,128,0,257000:0:0:0:0:
369,192,256454,128,0,256931:0:0:0:0:
483,192,256454,1,0,0:0:0:0:
483,192,256591,128,0,257681:0:0:0:0:
142,192,256659,128,0,257136:0:0:0:0:
426,192,256727,128,0,257272:0:0:0:0:
312,192,256727,1,0,0:0:0:0:
312,192,256863,128,0,258227:0:0:0:0:
85,192,256931,128,0,257272:0:0:0:0:
256,192,257000,128,0,257409:0:0:0:0:
369,192,257000,128,0,257409:0:0:0:0:
28,192,257136,128,0,257545:0:0:0:0:
199,192,257272,128,0,257681:0:0:0:0:
142,192,257272,128,0,257818:0:0:0:0:
85,192,257409,128,0,258363:0:0:0:0:
426,192,257409,128,0,258091:0:0:0:0:
369,192,257545,128,0,257954:0:0:0:0:
256,192,257545,128,0,257954:0:0:0:0:
28,192,257681,128,0,258636:0:0:0:0:
483,192,257818,128,0,258500:0:0:0:0:
199,192,257818,128,0,258227:0:0:0:0:
142,192,257954,128,0,258363:0:0:0:0:
256,192,258091,128,0,258772:0:0:0:0:
369,192,258091,128,0,258909:0:0:0:0:
426,192,258227,128,0,259045:0:0:0:0:
199,192,258363,128,0,258772:0:0:0:0:
312,192,258363,128,0,258636:0:0:0:0:
85,192,258500,128,0,258909:0:0:0:0:
142,192,258500,128,0,259045:0:0:0:0:
483,192,258636,128,0,259181:0:0:0:0:
28,192,258772,128,0,259318:0:0:0:0:
312,192,258772,128,0,259522:0:0:0:0:
256,192,258909,128,0,259591:0:0:0:0:
199,192,258909,128,0,259318:0:0:0:0:
369,192,259045,128,0,259454:0:0:0:0:
85,192,259045,128,0,259659:0:0:0:0:
426,192,259181,128,0,259795:0:0:0:0:
142,192,259181,128,0,259727:0:0:0:0:
483,192,259318,128,0,259863:0:0:0:0:
199,192,259454,128,0,260204:0:0:0:0:
28,192,259454,128,0,259931:0:0:0:0:
369,192,259522,128,0,260000:0:0:0:0:
312,192,259591,128,0,260136:0:0:0:0:
256,192,259659,128,0,260068:0:0:0:0:
85,192,259727,128,0,260204:0:0:0:0:
142,192,259795,128,0,260409:0:0:0:0:
426,192,259863,128,0,260204:0:0:0:0:
483,192,259931,128,0,260272:0:0:0:0:
28,192,260000,128,0,260545:0:0:0:0:
369,192,260068,128,0,260613:0:0:0:0:
256,192,260136,128,0,260681:0:0:0:0:
312,192,260204,128,0,260750:0:0:0:0:
426,192,260272,128,0,260750:0:0:0:0:
199,192,260272,1,0,0:0:0:0:
85,192,260272,128,0,260613:0:0:0:0:
199,192,260409,1,0,0:0:0:0:
483,192,260409,128,0,260818:0:0:0:0:
142,192,260545,128,0,260818:0:0:0:0:
199,192,260545,128,0,261772:0:0:0:0:
28,192,260613,128,0,260954:0:0:0:0:
85,192,260681,128,0,261500:0:0:0:0:
369,192,260681,128,0,260954:0:0:0:0:
256,192,260750,128,0,261091:0:0:0:0:
312,192,260818,128,0,261227:0:0:0:0:
426,192,260818,128,0,261636:0:0:0:0:
483,192,260954,128,0,261363:0:0:0:0:
142,192,260954,1,0,0:0:0:0:
142,192,261091,1,0,0:0:0:0:
28,192,261091,128,0,261909:0:0:0:0:
369,192,261091,128,0,261772:0:0:0:0:
256,192,261227,128,0,262045:0:0:0:0:
142,192,261227,1,0,0:0:0:0:
142,192,261363,128,0,262454:0:0:0:0:
312,192,261363,1,0,0:0:0:0:
483,192,261500,128,0,262045:0:0:0:0:
312,192,261500,1,0,0:0:0:0:
85,192,261636,1,0,0:0:0:0:
312,192,261636,128,0,262727:0:0:0:0:
426,192,261772,128,0,262181:0:0:0:0:
85,192,261772,1,0,0:0:0:0:
369,192,261909,128,0,262454:0:0:0:0:
199,192,261909,1,0,0:0:0:0:
85,192,261909,128,0,263136:0:0:0:0:
199,192,262045,128,0,263000:0:0:0:0:
28,192,262045,128,0,262318:0:0:0:0:
256,192,262181,128,0,262591:0:0:0:0:
483,192,262181,1,0,0:0:0:0:
426,192,262318,128,0,262591:0:0:0:0:
483,192,262318,1,0,0:0:0:0:
28,192,262454,128,0,262863:0:0:0:0:
483,192,262454,128,0,263409:0:0:0:0:
142,192,262591,128,0,262863:0:0:0:0:
369,192,262591,1,0,0:0:0:0:
369,192,262727,128,0,263681:0:0:0:0:
256,192,262727,1,0,0:0:0:0:
426,192,262727,128,0,263409:0:0:0:0:
312,192,262863,128,0,263272:0:0:0:0:
256,192,262863,128,0,263818:0:0:0:0:
142,192,263000,128,0,263545:0:0:0:0:
28,192,263000,1,0,0:0:0:0:
28,192,263136,1,0,0:0:0:0:
199,192,263136,128,0,263681:0:0:0:0:
85,192,263272,1,0,0:0:0:0:
28,192,263272,128,0,264227:0:0:0:0:
312,192,263409,128,0,263954:0:0:0:0:
85,192,263409,1,0,0:0:0:0:
85,192,263545,128,0,264636:0:0:0:0:
426,192,263545,1,0,0:0:0:0:
483,192,263545,128,0,263954:0:0:0:0:
426,192,263681,128,0,264500:0:0:0:0:
142,192,263681,1,0,0:0:0:0:
142,192,263818,1,0,0:0:0:0:
369,192,263818,128,0,264091:0:0:0:0:
199,192,263818,128,0,264227:0:0:0:0:
256,192,263954,1,0,0:0:0:0:
142,192,263954,128,0,264909:0:0:0:0:
256,192,264091,1,0,0:0:0:0:
483,192,264091,128,0,264500:0:0:0:0:
312,192,264091,128,0,264363:0:0:0:0:
369,192,264227,1,0,0:0:0:0:
256,192,264227,128,0,265181:0:0:0:0:
199,192,264363,128,0,264772:0:0:0:0:
369,192,264363,1,0,0:0:0:0:
28,192,264363,128,0,264772:0:0:0:0:
312,192,264500,1,0,0:0:0:0:
369,192,264500,128,0,265454:0:0:0:0:
483,192,264636,128,0,265045:0:0:0:0:
312,192,264636,1,0,0:0:0:0:
426,192,264636,128,0,265045:0:0:0:0:
85,192,264772,1,0,0:0:0:0:
312,192,264772,128,0,265727:0:0:0:0:
85,192,264909,1,0,0:0:0:0:
28,192,264909,128,0,265250:0:0:0:0:
199,192,264909,128,0,265318:0:0:0:0:
85,192,265045,1,0,0:0:0:0:
142,192,265045,128,0,265386:0:0:0:0:
483,192,265181,128,0,265522:0:0:0:0:
426,192,265181,128,0,265863:0:0:0:0:
85,192,265181,128,0,266136:0:0:0:0:
256,192,265250,128,0,265591:0:0:0:0:
28,192,265318,128,0,265659:0:0:0:0:
199,192,265386,128,0,265795:0:0:0:0:
142,192,265454,128,0,265931:0:0:0:0:
369,192,265522,128,0,266000:0:0:0:0:
483,192,265591,128,0,266204:0:0:0:0:
256,192,265659,128,0,266068:0:0:0:0:
28,192,265727,128,0,266272:0:0:0:0:
312,192,265795,128,0,266341:0:0:0:0:
199,192,265863,128,0,266409:0:0:0:0:
426,192,265931,128,0,266477:0:0:0:0:
142,192,266000,128,0,266545:0:0:0:0:
369,192,266068,128,0,266681:0:0:0:0:
256,192,266136,128,0,266750:0:0:0:0:
85,192,266204,128,0,266613:0:0:0:0:
483,192,266272,128,0,266818:0:0:0:0:
28,192,266341,128,0,266750:0:0:0:0:
312,192,266409,128,0,266750:0:0:0:0:
199,192,266477,128,0,266818:0:0:0:0:
426,192,266545,128,0,266818:0:0:0:0:
142,192,266613,128,0,266818:0:0:0:0:
85,192,266681,128,0,266818:0:0:0:0:
369,192,266750,128,0,266818:0:0:0:0:
28,192,266818,1,0,0:0:0:0:
256,192,266818,1,0,0:0:0:0:
312,192,266818,1,0,0:0:0:0:
