osu file format v14

[General]
AudioFilename: audio.mp3
AudioLeadIn: 2500
PreviewTime: 56272
Countdown: 0
SampleSet: None
StackLeniency: 0.7
Mode: 3
LetterboxInBreaks: 0
SpecialStyle: 0
WidescreenStoryboard: 1

[Editor]
DistanceSpacing: 0.8
BeatDivisor: 2
GridSize: 4
TimelineZoom: 0.8399998

[Metadata]
Title:Katayoku No Tori
TitleUnicode:片翼の鳥
Artist:Hommarju feat. mamiko
ArtistUnicode:Hommarju feat. mamiko
Creator:semyon422
Version:LN lv.2 8K 2nd Twilight
Source:Exit Trance
Tags:Umineko No Naku Koro Ni Katayoku No Tori Gexigamma
BeatmapID:1738692
BeatmapSetID:829848

[Difficulty]
HPDrainRate:7
CircleSize:8
OverallDifficulty:7
ApproachRate:5
SliderMultiplier:1.4
SliderTickRate:1

[Events]
//Background and Video events
0,0,"background.jpg",0,0
//Break Periods
//Storyboard Layer 0 (Background)
//Storyboard Layer 1 (Fail)
//Storyboard Layer 2 (Pass)
//Storyboard Layer 3 (Foreground)
//Storyboard Sound Samples

[TimingPoints]
91,272.727272727273,3,2,0,20,1,0
57363,-100,3,2,0,20,0,1
88454,-100,3,2,0,20,0,0
221000,-100,3,2,0,20,0,1
266818,-100,3,2,0,20,0,0

[HitObjects]
480,192,91,128,0,1181:0:0:0:0:
224,192,91,1,0,0:0:0:0:
224,192,363,128,0,2136:0:0:0:0:
352,192,500,128,0,1454:0:0:0:0:
96,192,500,1,0,0:0:0:0:
96,192,909,128,0,2545:0:0:0:0:
416,192,1181,128,0,2000:0:0:0:0:
288,192,1454,128,0,2136:0:0:0:0:
160,192,1727,128,0,2545:0:0:0:0:
32,192,1727,1,0,0:0:0:0:
32,192,2000,128,0,3636:0:0:0:0:
352,192,2136,1,0,0:0:0:0:
480,192,2136,128,0,2818:0:0:0:0:
352,192,2545,128,0,3772:0:0:0:0:
416,192,2818,128,0,3636:0:0:0:0:
288,192,3091,128,0,3772:0:0:0:0:
160,192,3363,128,0,4181:0:0:0:0:
480,192,3363,1,0,0:0:0:0:
480,192,3636,128,0,5545:0:0:0:0:
224,192,3772,128,0,4454:0:0:0:0:
96,192,3772,128,0,5000:0:0:0:0:
416,192,4181,128,0,5000:0:0:0:0:
288,192,4454,128,0,5272:0:0:0:0:
160,192,4727,128,0,5272:0:0:0:0:
32,192,5000,128,0,5818:0:0:0:0:
224,192,5000,128,0,5818:0:0:0:0:
352,192,5272,128,0,6091:0:0:0:0:
416,192,5545,128,0,6363:0:0:0:0:
288,192,5818,128,0,6500:0:0:0:0:
160,192,5818,128,0,6500:0:0:0:0:
96,192,6091,128,0,6636:0:0:0:0:
224,192,6363,128,0,7045:0:0:0:0:
32,192,6500,128,0,7045:0:0:0:0:
352,192,6636,128,0,7727:0:0:0:0:
416,192,6636,128,0,7454:0:0:0:0:
480,192,6909,128,0,7454:0:0:0:0:
160,192,7045,128,0,8272:0:0:0:0:
288,192,7045,128,0,8000:0:0:0:0:
96,192,7454,128,0,8272:0:0:0:0:
32,192,7727,128,0,8545:0:0:0:0:
480,192,8000,128,0,9091:0:0:0:0:
416,192,8272,128,0,9363:0:0:0:0:
224,192,8272,128,0,9363:0:0:0:0:
288,192,8545,128,0,9091:0:0:0:0:
96,192,8681,128,0,9363:0:0:0:0:
352,192,8681,128,0,9363:0:0:0:0:
32,192,9091,128,0,10181:0:0:0:0:
160,192,9363,128,0,10181:0:0:0:0:
288,192,9636,128,0,10318:0:0:0:0:
96,192,9909,128,0,10727:0:0:0:0:
352,192,9909,128,0,11272:0:0:0:0:
480,192,10181,128,0,11272:0:0:0:0:
224,192,10318,128,0,11000:0:0:0:0:
416,192,10318,128,0,11272:0:0:0:0:
160,192,10727,128,0,11545:0:0:0:0:
288,192,11000,128,0,12363:0:0:0:0:
32,192,11272,128,0,12091:0:0:0:0:
224,192,11545,128,0,12363:0:0:0:0:
96,192,11545,128,0,12909:0:0:0:0:
416,192,11818,128,0,12636:0:0:0:0:
480,192,12091,128,0,12909:0:0:0:0:
352,192,12363,128,0,14000:0:0:0:0:
160,192,12363,1,0,0:0:0:0:
32,192,12636,1,0,0:0:0:0:
160,192,12636,128,0,14818:0:0:0:0:
32,192,12909,1,0,0:0:0:0:
224,192,12909,128,0,14818:0:0:0:0:
416,192,13181,128,0,15636:0:0:0:0:
32,192,13181,128,0,14000:0:0:0:0:
288,192,14000,128,0,14818:0:0:0:0:
480,192,14818,128,0,15363:0:0:0:0:
96,192,15363,128,0,17272:0:0:0:0:
352,192,15636,128,0,16181:0:0:0:0:
224,192,16181,128,0,18091:0:0:0:0:
160,192,16454,128,0,17272:0:0:0:0:
416,192,17272,128,0,18091:0:0:0:0:
288,192,18091,128,0,18636:0:0:0:0:
480,192,18636,128,0,20000:0:0:0:0:
96,192,18909,128,0,19727:0:0:0:0:
224,192,19727,128,0,20818:0:0:0:0:
32,192,19727,128,0,20545:0:0:0:0:
352,192,20000,128,0,21091:0:0:0:0:
416,192,20272,128,0,21363:0:0:0:0:
480,192,20545,128,0,22181:0:0:0:0:
288,192,20818,128,0,21909:0:0:0:0:
160,192,21091,128,0,21909:0:0:0:0:
32,192,21363,128,0,22181:0:0:0:0:
224,192,21636,128,0,22454:0:0:0:0:
352,192,21909,128,0,23000:0:0:0:0:
96,192,22181,128,0,23000:0:0:0:0:
416,192,22454,128,0,23545:0:0:0:0:
160,192,22727,128,0,23818:0:0:0:0:
32,192,23000,128,0,23818:0:0:0:0:
288,192,23000,128,0,23818:0:0:0:0:
224,192,23272,128,0,24363:0:0:0:0:
480,192,23545,128,0,24636:0:0:0:0:
96,192,23818,128,0,24636:0:0:0:0:
352,192,24091,128,0,24909:0:0:0:0:
416,192,24363,128,0,25181:0:0:0:0:
32,192,24636,128,0,25454:0:0:0:0:
288,192,24636,128,0,25454:0:0:0:0:
160,192,24909,128,0,25727:0:0:0:0:
224,192,25181,128,0,25727:0:0:0:0:
480,192,25454,128,0,26000:0:0:0:0:
96,192,25454,128,0,26272:0:0:0:0:
416,192,25727,128,0,26545:0:0:0:0:
352,192,25727,128,0,26545:0:0:0:0:
32,192,26000,128,0,27091:0:0:0:0:
288,192,26000,128,0,26818:0:0:0:0:
224,192,26272,128,0,27363:0:0:0:0:
160,192,26272,128,0,29272:0:0:0:0:
480,192,26545,128,0,27636:0:0:0:0:
96,192,26818,128,0,27909:0:0:0:0:
416,192,27091,128,0,28454:0:0:0:0:
352,192,27363,128,0,28181:0:0:0:0:
288,192,27636,128,0,28454:0:0:0:0:
32,192,27909,128,0,28727:0:0:0:0:
224,192,28181,128,0,29272:0:0:0:0:
480,192,28454,128,0,29272:0:0:0:0:
352,192,28727,128,0,29545:0:0:0:0:
96,192,29000,128,0,30091:0:0:0:0:
288,192,29272,128,0,30091:0:0:0:0:
416,192,29545,128,0,32000:0:0:0:0:
32,192,29545,128,0,30636:0:0:0:0:
480,192,29818,128,0,30909:0:0:0:0:
352,192,30091,128,0,30909:0:0:0:0:
224,192,30363,128,0,31454:0:0:0:0:
288,192,30636,128,0,31454:0:0:0:0:
160,192,30909,128,0,32000:0:0:0:0:
96,192,31181,128,0,32272:0:0:0:0:
32,192,31454,128,0,32409:0:0:0:0:
352,192,31727,128,0,32409:0:0:0:0:
480,192,32000,128,0,32545:0:0:0:0:
288,192,32272,128,0,33091:0:0:0:0:
224,192,32409,128,0,32818:0:0:0:0:
160,192,32545,128,0,33091:0:0:0:0:
96,192,32681,128,0,33363:0:0:0:0:
352,192,32818,128,0,33909:0:0:0:0:
32,192,32818,128,0,33636:0:0:0:0:
480,192,33091,128,0,33909:0:0:0:0:
416,192,33363,128,0,33909:0:0:0:0:
224,192,33363,128,0,34727:0:0:0:0:
160,192,33636,128,0,34454:0:0:0:0:
96,192,33909,128,0,34727:0:0:0:0:
32,192,34181,128,0,34727:0:0:0:0:
288,192,34454,128,0,35272:0:0:0:0:
416,192,34454,128,0,35272:0:0:0:0:
480,192,34727,128,0,35545:0:0:0:0:
352,192,35000,128,0,35818:0:0:0:0:
160,192,35000,128,0,36091:0:0:0:0:
32,192,35272,128,0,36091:0:0:0:0:
96,192,35545,128,0,36363:0:0:0:0:
224,192,35818,128,0,36636:0:0:0:0:
288,192,36091,128,0,36909:0:0:0:0:
416,192,36091,128,0,36909:0:0:0:0:
480,192,36363,128,0,37181:0:0:0:0:
352,192,36636,128,0,37454:0:0:0:0:
96,192,36909,128,0,37727:0:0:0:0:
32,192,36909,128,0,37727:0:0:0:0:
160,192,37181,128,0,38000:0:0:0:0:
224,192,37454,128,0,38272:0:0:0:0:
288,192,37727,128,0,38545:0:0:0:0:
480,192,37727,128,0,38545:0:0:0:0:
416,192,37727,128,0,38545:0:0:0:0:
352,192,38000,128,0,39091:0:0:0:0:
32,192,38272,128,0,39772:0:0:0:0:
96,192,38545,128,0,39091:0:0:0:0:
160,192,38818,128,0,39363:0:0:0:0:
224,192,39091,128,0,40181:0:0:0:0:
288,192,39363,1,0,0:0:0:0:
480,192,39363,1,0,0:0:0:0:
288,192,39772,128,0,41818:0:0:0:0:
480,192,39772,128,0,41818:0:0:0:0:
160,192,40181,128,0,43045:0:0:0:0:
352,192,40181,128,0,41000:0:0:0:0:
416,192,40454,128,0,43045:0:0:0:0:
96,192,40454,128,0,43045:0:0:0:0:
224,192,41000,128,0,41818:0:0:0:0:
32,192,41818,128,0,43045:0:0:0:0:
224,192,42636,1,0,0:0:0:0:
352,192,42636,1,0,0:0:0:0:
224,192,43045,128,0,46727:0:0:0:0:
352,192,43045,1,0,0:0:0:0:
32,192,43454,128,0,45909:0:0:0:0:
352,192,43454,128,0,47000:0:0:0:0:
288,192,43727,128,0,45091:0:0:0:0:
480,192,43727,128,0,45909:0:0:0:0:
96,192,44272,128,0,45091:0:0:0:0:
416,192,45091,128,0,46727:0:0:0:0:
160,192,45909,128,0,46454:0:0:0:0:
96,192,45909,128,0,46454:0:0:0:0:
288,192,46727,128,0,48363:0:0:0:0:
480,192,47000,128,0,48636:0:0:0:0:
416,192,47272,128,0,48909:0:0:0:0:
32,192,47545,128,0,49181:0:0:0:0:
160,192,48363,128,0,49727:0:0:0:0:
224,192,48636,128,0,49727:0:0:0:0:
352,192,48909,128,0,50000:0:0:0:0:
288,192,49181,128,0,50545:0:0:0:0:
480,192,49591,128,0,50545:0:0:0:0:
96,192,49727,128,0,51636:0:0:0:0:
416,192,50000,128,0,50818:0:0:0:0:
32,192,50409,128,0,52454:0:0:0:0:
224,192,50545,128,0,52454:0:0:0:0:
160,192,50818,128,0,51363:0:0:0:0:
352,192,51636,128,0,52181:0:0:0:0:
416,192,52181,128,0,56818:0:0:0:0:
480,192,52454,128,0,55727:0:0:0:0:
288,192,56272,128,0,56545:0:0:0:0:
96,192,56545,128,0,56818:0:0:0:0:
224,192,56818,128,0,57091:0:0:0:0:
32,192,57091,128,0,57363:0:0:0:0:
352,192,57363,128,0,58454:0:0:0:0:
160,192,57363,128,0,58454:0:0:0:0:
416,192,57636,128,0,58727:0:0:0:0:
288,192,57909,128,0,59000:0:0:0:0:
480,192,58181,1,0,0:0:0:0:
96,192,58181,1,0,0:0:0:0:
480,192,58454,128,0,60091:0:0:0:0:
96,192,58454,128,0,59818:0:0:0:0:
224,192,58727,128,0,59545:0:0:0:0:
32,192,59000,128,0,59818:0:0:0:0:
160,192,59272,1,0,0:0:0:0:
352,192,59272,128,0,59818:0:0:0:0:
416,192,59545,128,0,60091:0:0:0:0:
160,192,59545,128,0,61181:0:0:0:0:
288,192,59818,128,0,60363:0:0:0:0:
224,192,60091,128,0,60636:0:0:0:0:
32,192,60363,128,0,61181:0:0:0:0:
352,192,60363,128,0,61454:0:0:0:0:
416,192,60636,128,0,61454:0:0:0:0:
288,192,60909,128,0,61727:0:0:0:0:
224,192,60909,1,0,0:0:0:0:
96,192,61181,128,0,62272:0:0:0:0:
224,192,61181,128,0,63091:0:0:0:0:
480,192,61454,128,0,62272:0:0:0:0:
32,192,61727,128,0,62545:0:0:0:0:
416,192,62000,128,0,63091:0:0:0:0:
288,192,62272,128,0,63091:0:0:0:0:
352,192,62272,128,0,63091:0:0:0:0:
160,192,62545,128,0,63363:0:0:0:0:
480,192,62818,128,0,63636:0:0:0:0:
96,192,63091,128,0,63909:0:0:0:0:
32,192,63363,128,0,63909:0:0:0:0:
288,192,63636,128,0,64454:0:0:0:0:
352,192,63772,128,0,64727:0:0:0:0:
160,192,63909,128,0,65000:0:0:0:0:
416,192,63909,128,0,64454:0:0:0:0:
480,192,64181,128,0,65272:0:0:0:0:
224,192,64454,128,0,65272:0:0:0:0:
32,192,64727,128,0,65818:0:0:0:0:
96,192,64727,128,0,65818:0:0:0:0:
416,192,65000,128,0,66091:0:0:0:0:
288,192,65272,1,0,0:0:0:0:
288,192,65545,128,0,66909:0:0:0:0:
352,192,65545,128,0,66363:0:0:0:0:
224,192,65818,128,0,66636:0:0:0:0:
160,192,66091,1,0,0:0:0:0:
160,192,66363,128,0,68000:0:0:0:0:
480,192,66363,128,0,66909:0:0:0:0:
32,192,66636,128,0,67181:0:0:0:0:
96,192,66636,128,0,67454:0:0:0:0:
416,192,66909,128,0,67727:0:0:0:0:
224,192,67181,128,0,68000:0:0:0:0:
352,192,67181,128,0,67727:0:0:0:0:
480,192,67454,128,0,68545:0:0:0:0:
32,192,67727,128,0,68272:0:0:0:0:
288,192,68000,128,0,69363:0:0:0:0:
96,192,68000,128,0,68545:0:0:0:0:
352,192,68272,128,0,69091:0:0:0:0:
416,192,68545,128,0,69363:0:0:0:0:
224,192,68818,128,0,69363:0:0:0:0:
32,192,68818,128,0,69909:0:0:0:0:
96,192,69091,1,0,0:0:0:0:
96,192,69363,1,0,0:0:0:0:
480,192,69363,128,0,70454:0:0:0:0:
160,192,69636,128,0,70454:0:0:0:0:
96,192,69636,128,0,71000:0:0:0:0:
224,192,69909,128,0,70727:0:0:0:0:
352,192,69909,128,0,70727:0:0:0:0:
416,192,70181,1,0,0:0:0:0:
416,192,70454,128,0,71818:0:0:0:0:
288,192,70454,128,0,71272:0:0:0:0:
32,192,70727,128,0,71545:0:0:0:0:
160,192,71000,128,0,71545:0:0:0:0:
480,192,71272,128,0,72091:0:0:0:0:
352,192,71272,1,0,0:0:0:0:
352,192,71545,128,0,73181:0:0:0:0:
224,192,71545,128,0,72363:0:0:0:0:
288,192,71818,128,0,72363:0:0:0:0:
160,192,72091,128,0,72636:0:0:0:0:
96,192,72363,128,0,73181:0:0:0:0:
32,192,72363,128,0,72909:0:0:0:0:
480,192,72636,128,0,73454:0:0:0:0:
288,192,72909,128,0,73454:0:0:0:0:
224,192,72909,128,0,73727:0:0:0:0:
416,192,73181,128,0,73727:0:0:0:0:
160,192,73181,128,0,74272:0:0:0:0:
32,192,73454,128,0,74272:0:0:0:0:
96,192,73727,128,0,74545:0:0:0:0:
480,192,74000,128,0,75091:0:0:0:0:
288,192,74000,128,0,75091:0:0:0:0:
224,192,74272,128,0,75363:0:0:0:0:
416,192,74272,128,0,75363:0:0:0:0:
352,192,74545,128,0,75091:0:0:0:0:
32,192,74818,128,0,75636:0:0:0:0:
160,192,75091,128,0,75909:0:0:0:0:
96,192,75363,128,0,75909:0:0:0:0:
352,192,75636,128,0,76454:0:0:0:0:
288,192,75909,128,0,76727:0:0:0:0:
480,192,75909,128,0,76727:0:0:0:0:
224,192,76181,128,0,76863:0:0:0:0:
416,192,76181,128,0,76863:0:0:0:0:
96,192,76454,128,0,77000:0:0:0:0:
32,192,76454,128,0,77000:0:0:0:0:
160,192,76727,128,0,77272:0:0:0:0:
352,192,76863,128,0,77818:0:0:0:0:
480,192,77000,128,0,78091:0:0:0:0:
288,192,77000,128,0,78091:0:0:0:0:
224,192,77272,128,0,77818:0:0:0:0:
416,192,77545,128,0,78091:0:0:0:0:
32,192,77818,128,0,78909:0:0:0:0:
96,192,77818,128,0,78636:0:0:0:0:
160,192,78091,128,0,78909:0:0:0:0:
224,192,78363,128,0,79181:0:0:0:0:
352,192,78636,128,0,79454:0:0:0:0:
416,192,78636,128,0,79181:0:0:0:0:
480,192,78909,128,0,79727:0:0:0:0:
288,192,79181,128,0,80000:0:0:0:0:
96,192,79454,128,0,80272:0:0:0:0:
160,192,79454,128,0,80272:0:0:0:0:
32,192,79727,128,0,80272:0:0:0:0:
416,192,79727,128,0,80545:0:0:0:0:
224,192,80000,128,0,81091:0:0:0:0:
480,192,80272,1,0,0:0:0:0:
352,192,80272,128,0,81091:0:0:0:0:
288,192,80545,128,0,81091:0:0:0:0:
480,192,80545,128,0,82181:0:0:0:0:
32,192,80818,128,0,81636:0:0:0:0:
160,192,81091,128,0,81909:0:0:0:0:
96,192,81091,128,0,81909:0:0:0:0:
416,192,81363,128,0,82318:0:0:0:0:
288,192,81636,128,0,82318:0:0:0:0:
352,192,81909,128,0,82591:0:0:0:0:
224,192,81909,128,0,82591:0:0:0:0:
32,192,82181,128,0,82727:0:0:0:0:
96,192,82318,128,0,82863:0:0:0:0:
160,192,82454,128,0,83000:0:0:0:0:
288,192,82591,128,0,83545:0:0:0:0:
416,192,82727,128,0,83545:0:0:0:0:
480,192,82863,128,0,83545:0:0:0:0:
352,192,83000,128,0,83545:0:0:0:0:
224,192,83136,128,0,84363:0:0:0:0:
32,192,83272,128,0,84636:0:0:0:0:
96,192,83545,128,0,88454:0:0:0:0:
160,192,83818,1,0,0:0:0:0:
160,192,84091,128,0,85591:0:0:0:0:
352,192,84363,128,0,85454:0:0:0:0:
480,192,84636,128,0,85454:0:0:0:0:
416,192,84909,128,0,85591:0:0:0:0:
288,192,85181,128,0,85863:0:0:0:0:
224,192,85454,128,0,86272:0:0:0:0:
32,192,85591,128,0,86272:0:0:0:0:
480,192,85863,128,0,86818:0:0:0:0:
416,192,86000,128,0,87091:0:0:0:0:
352,192,86272,128,0,87636:0:0:0:0:
288,192,86545,128,0,87363:0:0:0:0:
32,192,86818,128,0,87909:0:0:0:0:
160,192,87091,128,0,87909:0:0:0:0:
224,192,87363,128,0,88181:0:0:0:0:
480,192,87636,128,0,88454:0:0:0:0:
416,192,87909,128,0,90091:0:0:0:0:
288,192,88181,128,0,90363:0:0:0:0:
160,192,88454,128,0,90636:0:0:0:0:
352,192,90091,128,0,90909:0:0:0:0:
32,192,90091,1,0,0:0:0:0:
224,192,90363,128,0,91181:0:0:0:0:
32,192,90363,128,0,92000:0:0:0:0:
480,192,90636,128,0,91454:0:0:0:0:
288,192,90909,128,0,91727:0:0:0:0:
416,192,90909,128,0,91454:0:0:0:0:
160,192,91181,128,0,92000:0:0:0:0:
352,192,91454,128,0,92000:0:0:0:0:
96,192,91454,128,0,92272:0:0:0:0:
224,192,91727,128,0,92545:0:0:0:0:
480,192,92000,128,0,92545:0:0:0:0:
416,192,92000,128,0,92818:0:0:0:0:
288,192,92272,128,0,92818:0:0:0:0:
160,192,92545,128,0,93363:0:0:0:0:
352,192,92545,128,0,93363:0:0:0:0:
96,192,92818,128,0,93636:0:0:0:0:
224,192,93091,128,0,93909:0:0:0:0:
480,192,93091,128,0,93909:0:0:0:0:
32,192,93363,128,0,94181:0:0:0:0:
288,192,93363,1,0,0:0:0:0:
416,192,93636,128,0,94454:0:0:0:0:
288,192,93636,128,0,95272:0:0:0:0:
160,192,93909,128,0,94727:0:0:0:0:
96,192,94181,128,0,94727:0:0:0:0:
352,192,94181,128,0,95000:0:0:0:0:
480,192,94454,128,0,95272:0:0:0:0:
32,192,94727,128,0,95272:0:0:0:0:
224,192,94727,128,0,95272:0:0:0:0:
416,192,95000,128,0,95818:0:0:0:0:
96,192,95272,128,0,96091:0:0:0:0:
160,192,95272,128,0,96091:0:0:0:0:
352,192,95545,128,0,96363:0:0:0:0:
32,192,95818,128,0,96909:0:0:0:0:
224,192,95818,128,0,96500:0:0:0:0:
480,192,96091,128,0,96636:0:0:0:0:
416,192,96363,128,0,96909:0:0:0:0:
288,192,96500,128,0,96909:0:0:0:0:
96,192,96636,128,0,97727:0:0:0:0:
160,192,96636,128,0,97181:0:0:0:0:
224,192,96909,128,0,97727:0:0:0:0:
352,192,96909,128,0,97454:0:0:0:0:
480,192,97181,128,0,98272:0:0:0:0:
288,192,97454,128,0,98000:0:0:0:0:
416,192,97454,128,0,98272:0:0:0:0:
160,192,97727,128,0,98272:0:0:0:0:
32,192,98000,128,0,98545:0:0:0:0:
352,192,98000,128,0,98818:0:0:0:0:
224,192,98272,128,0,99363:0:0:0:0:
96,192,98545,128,0,99363:0:0:0:0:
288,192,98545,128,0,99363:0:0:0:0:
160,192,98818,128,0,99636:0:0:0:0:
416,192,99091,128,0,99909:0:0:0:0:
32,192,99091,128,0,99909:0:0:0:0:
480,192,99363,128,0,99909:0:0:0:0:
352,192,99636,128,0,100181:0:0:0:0:
96,192,99772,128,0,100454:0:0:0:0:
160,192,99909,128,0,100727:0:0:0:0:
288,192,99909,1,0,0:0:0:0:
224,192,100181,128,0,101000:0:0:0:0:
288,192,100181,128,0,101545:0:0:0:0:
480,192,100454,128,0,101000:0:0:0:0:
32,192,100727,128,0,101272:0:0:0:0:
352,192,100727,128,0,101272:0:0:0:0:
416,192,101000,128,0,101545:0:0:0:0:
96,192,101272,128,0,101818:0:0:0:0:
160,192,101272,128,0,102363:0:0:0:0:
480,192,101545,128,0,102363:0:0:0:0:
224,192,101545,128,0,102091:0:0:0:0:
352,192,101818,128,0,102363:0:0:0:0:
32,192,101818,128,0,102363:0:0:0:0:
416,192,102091,128,0,102636:0:0:0:0:
224,192,102363,128,0,103181:0:0:0:0:
96,192,102363,128,0,102909:0:0:0:0:
288,192,102636,128,0,103181:0:0:0:0:
352,192,102909,128,0,103727:0:0:0:0:
32,192,102909,128,0,103454:0:0:0:0:
416,192,103181,128,0,103727:0:0:0:0:
160,192,103454,128,0,104000:0:0:0:0:
96,192,103454,128,0,104272:0:0:0:0:
288,192,103727,128,0,104545:0:0:0:0:
32,192,104000,128,0,104818:0:0:0:0:
480,192,104000,128,0,104818:0:0:0:0:
416,192,104272,128,0,105091:0:0:0:0:
160,192,104545,128,0,105091:0:0:0:0:
352,192,104545,128,0,105363:0:0:0:0:
96,192,104818,128,0,105636:0:0:0:0:
224,192,105091,128,0,105636:0:0:0:0:
288,192,105091,128,0,105909:0:0:0:0:
32,192,105363,128,0,105909:0:0:0:0:
160,192,105636,128,0,106727:0:0:0:0:
480,192,105636,128,0,106454:0:0:0:0:
416,192,105909,128,0,106727:0:0:0:0:
224,192,106181,128,0,107000:0:0:0:0:
352,192,106181,128,0,106727:0:0:0:0:
96,192,106454,128,0,107272:0:0:0:0:
32,192,106454,1,0,0:0:0:0:
288,192,106727,128,0,107545:0:0:0:0:
32,192,106727,128,0,108091:0:0:0:0:
480,192,107000,128,0,107545:0:0:0:0:
352,192,107272,128,0,107818:0:0:0:0:
416,192,107272,128,0,108091:0:0:0:0:
160,192,107545,128,0,108091:0:0:0:0:
224,192,107818,128,0,108363:0:0:0:0:
96,192,107818,128,0,108636:0:0:0:0:
480,192,108091,128,0,108909:0:0:0:0:
288,192,108091,128,0,108636:0:0:0:0:
352,192,108363,128,0,109181:0:0:0:0:
160,192,108636,128,0,109181:0:0:0:0:
416,192,108909,128,0,109454:0:0:0:0:
224,192,108909,128,0,109727:0:0:0:0:
96,192,109181,128,0,110272:0:0:0:0:
288,192,109181,128,0,110000:0:0:0:0:
480,192,109454,128,0,110000:0:0:0:0:
32,192,109454,128,0,110272:0:0:0:0:
352,192,109727,128,0,110818:0:0:0:0:
160,192,109727,128,0,116272:0:0:0:0:
416,192,110000,128,0,111091:0:0:0:0:
224,192,110272,128,0,111091:0:0:0:0:
480,192,110545,128,0,111636:0:0:0:0:
288,192,110818,128,0,112181:0:0:0:0:
32,192,111091,128,0,111909:0:0:0:0:
96,192,111363,128,0,112181:0:0:0:0:
224,192,111636,128,0,112727:0:0:0:0:
352,192,111909,128,0,113000:0:0:0:0:
416,192,112181,128,0,113000:0:0:0:0:
480,192,112454,128,0,113545:0:0:0:0:
32,192,112727,128,0,113818:0:0:0:0:
96,192,113000,128,0,113818:0:0:0:0:
288,192,113272,128,0,114363:0:0:0:0:
416,192,113545,128,0,114909:0:0:0:0:
224,192,113818,128,0,114636:0:0:0:0:
352,192,114091,128,0,115181:0:0:0:0:
96,192,114363,128,0,115181:0:0:0:0:
480,192,114636,128,0,115454:0:0:0:0:
32,192,114909,128,0,115727:0:0:0:0:
288,192,115181,128,0,116000:0:0:0:0:
224,192,115454,128,0,116272:0:0:0:0:
96,192,115727,128,0,117091:0:0:0:0:
416,192,116000,128,0,116818:0:0:0:0:
480,192,116272,128,0,117091:0:0:0:0:
352,192,116272,128,0,117363:0:0:0:0:
32,192,116545,128,0,117363:0:0:0:0:
288,192,116818,128,0,118181:0:0:0:0:
224,192,117091,128,0,118454:0:0:0:0:
416,192,117363,128,0,118181:0:0:0:0:
480,192,117636,128,0,119000:0:0:0:0:
32,192,117909,128,0,118727:0:0:0:0:
96,192,118181,128,0,119272:0:0:0:0:
352,192,118454,128,0,119272:0:0:0:0:
160,192,118727,128,0,119818:0:0:0:0:
416,192,119000,128,0,120091:0:0:0:0:
288,192,119272,128,0,120091:0:0:0:0:
224,192,119545,128,0,120909:0:0:0:0:
32,192,119545,128,0,120909:0:0:0:0:
352,192,119818,128,0,120636:0:0:0:0:
480,192,120091,128,0,121181:0:0:0:0:
96,192,120363,128,0,121181:0:0:0:0:
288,192,120636,128,0,121727:0:0:0:0:
160,192,120909,128,0,121727:0:0:0:0:
416,192,121181,128,0,122272:0:0:0:0:
352,192,121454,128,0,122272:0:0:0:0:
96,192,121727,128,0,122545:0:0:0:0:
480,192,122000,128,0,122818:0:0:0:0:
32,192,122000,128,0,122818:0:0:0:0:
224,192,122272,128,0,122818:0:0:0:0:
160,192,122545,128,0,123636:0:0:0:0:
288,192,122818,128,0,123636:0:0:0:0:
352,192,122818,128,0,124181:0:0:0:0:
416,192,123227,128,0,123909:0:0:0:0:
96,192,123227,128,0,123909:0:0:0:0:
32,192,123636,128,0,124181:0:0:0:0:
224,192,123636,128,0,124454:0:0:0:0:
480,192,123909,128,0,124727:0:0:0:0:
288,192,123909,128,0,124727:0:0:0:0:
160,192,124181,128,0,125000:0:0:0:0:
96,192,124454,128,0,125545:0:0:0:0:
416,192,124454,128,0,125272:0:0:0:0:
32,192,124727,128,0,125818:0:0:0:0:
224,192,125000,128,0,125545:0:0:0:0:
352,192,125272,128,0,125818:0:0:0:0:
288,192,125272,128,0,126091:0:0:0:0:
480,192,125545,128,0,126091:0:0:0:0:
160,192,125818,128,0,126500:0:0:0:0:
224,192,126091,128,0,127181:0:0:0:0:
416,192,126091,128,0,126909:0:0:0:0:
352,192,126500,128,0,127181:0:0:0:0:
96,192,126500,128,0,127181:0:0:0:0:
32,192,126909,128,0,127727:0:0:0:0:
480,192,126909,128,0,127727:0:0:0:0:
288,192,127181,128,0,128272:0:0:0:0:
160,192,127181,128,0,128000:0:0:0:0:
416,192,127454,128,0,128545:0:0:0:0:
96,192,127727,128,0,128818:0:0:0:0:
352,192,127727,128,0,128545:0:0:0:0:
224,192,128000,128,0,128818:0:0:0:0:
32,192,128272,128,0,129363:0:0:0:0:
480,192,128545,128,0,129363:0:0:0:0:
160,192,128545,1,0,0:0:0:0:
160,192,128818,128,0,130181:0:0:0:0:
352,192,129091,128,0,130181:0:0:0:0:
224,192,129363,128,0,129909:0:0:0:0:
288,192,129363,128,0,131000:0:0:0:0:
416,192,129363,128,0,130181:0:0:0:0:
96,192,129636,128,0,130454:0:0:0:0:
480,192,129909,128,0,130727:0:0:0:0:
32,192,130181,128,0,131000:0:0:0:0:
224,192,130454,128,0,131272:0:0:0:0:
416,192,130727,128,0,131818:0:0:0:0:
96,192,131000,128,0,131818:0:0:0:0:
352,192,131000,128,0,132091:0:0:0:0:
480,192,131272,128,0,132363:0:0:0:0:
160,192,131545,128,0,132363:0:0:0:0:
32,192,131818,128,0,132636:0:0:0:0:
224,192,132091,128,0,132909:0:0:0:0:
96,192,132363,128,0,133181:0:0:0:0:
416,192,132500,128,0,133727:0:0:0:0:
288,192,132636,128,0,133727:0:0:0:0:
352,192,132636,128,0,133454:0:0:0:0:
160,192,132909,128,0,134272:0:0:0:0:
480,192,133181,128,0,134272:0:0:0:0:
32,192,133454,128,0,134272:0:0:0:0:
224,192,133727,128,0,134818:0:0:0:0:
352,192,134000,128,0,134818:0:0:0:0:
96,192,134272,128,0,135091:0:0:0:0:
288,192,134545,128,0,135363:0:0:0:0:
416,192,134818,128,0,135500:0:0:0:0:
32,192,135091,128,0,135500:0:0:0:0:
160,192,135363,128,0,135636:0:0:0:0:
480,192,135363,128,0,135636:0:0:0:0:
352,192,135500,128,0,135772:0:0:0:0:
224,192,135500,128,0,135909:0:0:0:0:
96,192,135636,128,0,136181:0:0:0:0:
288,192,135636,128,0,136454:0:0:0:0:
416,192,135772,128,0,136454:0:0:0:0:
32,192,135772,128,0,136727:0:0:0:0:
160,192,135909,128,0,137000:0:0:0:0:
480,192,135909,128,0,137545:0:0:0:0:
352,192,136181,128,0,137000:0:0:0:0:
224,192,136454,128,0,137545:0:0:0:0:
96,192,136727,128,0,137545:0:0:0:0:
416,192,137000,128,0,139181:0:0:0:0:
288,192,137272,1,0,0:0:0:0:
32,192,137545,128,0,139727:0:0:0:0:
288,192,137545,1,0,0:0:0:0:
352,192,139181,128,0,140272:0:0:0:0:
288,192,139181,128,0,140818:0:0:0:0:
160,192,139454,128,0,140272:0:0:0:0:
224,192,139727,128,0,140545:0:0:0:0:
416,192,140000,128,0,140818:0:0:0:0:
96,192,140272,128,0,141091:0:0:0:0:
32,192,140545,128,0,141363:0:0:0:0:
160,192,140818,128,0,141909:0:0:0:0:
480,192,140818,128,0,141636:0:0:0:0:
224,192,141091,128,0,142181:0:0:0:0:
416,192,141363,128,0,141909:0:0:0:0:
352,192,141636,128,0,142454:0:0:0:0:
96,192,141909,128,0,143000:0:0:0:0:
32,192,142181,128,0,143272:0:0:0:0:
288,192,142454,128,0,143545:0:0:0:0:
480,192,142454,128,0,143272:0:0:0:0:
160,192,142727,128,0,143818:0:0:0:0:
224,192,143000,128,0,143545:0:0:0:0:
352,192,143272,128,0,144091:0:0:0:0:
416,192,143545,128,0,144363:0:0:0:0:
96,192,143818,128,0,144909:0:0:0:0:
32,192,144091,128,0,144909:0:0:0:0:
480,192,144091,128,0,144909:0:0:0:0:
288,192,144363,128,0,145181:0:0:0:0:
160,192,144636,128,0,145727:0:0:0:0:
416,192,144909,1,0,0:0:0:0:
352,192,144909,128,0,146000:0:0:0:0:
416,192,145181,128,0,147091:0:0:0:0:
480,192,145454,128,0,146272:0:0:0:0:
224,192,145727,128,0,146818:0:0:0:0:
96,192,145727,128,0,146545:0:0:0:0:
288,192,146000,128,0,146818:0:0:0:0:
32,192,146272,128,0,147363:0:0:0:0:
160,192,146545,128,0,147363:0:0:0:0:
480,192,146818,128,0,147636:0:0:0:0:
352,192,147091,128,0,147636:0:0:0:0:
96,192,147363,128,0,148181:0:0:0:0:
288,192,147363,128,0,148181:0:0:0:0:
224,192,147636,128,0,148454:0:0:0:0:
160,192,147909,128,0,149000:0:0:0:0:
352,192,148181,128,0,149545:0:0:0:0:
32,192,148181,128,0,149000:0:0:0:0:
480,192,148454,128,0,149272:0:0:0:0:
416,192,148727,128,0,149545:0:0:0:0:
96,192,149000,128,0,149545:0:0:0:0:
288,192,149000,128,0,149818:0:0:0:0:
224,192,149272,128,0,149818:0:0:0:0:
32,192,149545,128,0,150363:0:0:0:0:
160,192,149818,128,0,150636:0:0:0:0:
480,192,149818,128,0,150636:0:0:0:0:
416,192,150091,128,0,150909:0:0:0:0:
224,192,150363,128,0,151181:0:0:0:0:
288,192,150636,128,0,151727:0:0:0:0:
352,192,150636,128,0,151454:0:0:0:0:
32,192,150909,128,0,151727:0:0:0:0:
96,192,151181,128,0,152272:0:0:0:0:
416,192,151454,128,0,152272:0:0:0:0:
480,192,151454,128,0,152818:0:0:0:0:
224,192,151727,128,0,152545:0:0:0:0:
160,192,152000,128,0,152818:0:0:0:0:
32,192,152272,128,0,153091:0:0:0:0:
352,192,152272,128,0,153091:0:0:0:0:
288,192,152545,128,0,153363:0:0:0:0:
416,192,152818,128,0,153909:0:0:0:0:
96,192,153091,128,0,153909:0:0:0:0:
224,192,153363,128,0,154727:0:0:0:0:
160,192,153636,128,0,154727:0:0:0:0:
288,192,153909,128,0,155000:0:0:0:0:
352,192,153909,128,0,154727:0:0:0:0:
480,192,154181,128,0,155000:0:0:0:0:
32,192,154454,128,0,155000:0:0:0:0:
96,192,154727,128,0,155818:0:0:0:0:
416,192,155000,128,0,155818:0:0:0:0:
352,192,155272,128,0,156363:0:0:0:0:
160,192,155545,128,0,156363:0:0:0:0:
480,192,155545,128,0,156363:0:0:0:0:
288,192,155818,128,0,156636:0:0:0:0:
224,192,156091,128,0,156636:0:0:0:0:
416,192,156363,128,0,157181:0:0:0:0:
96,192,156636,128,0,157454:0:0:0:0:
480,192,156909,128,0,157727:0:0:0:0:
160,192,157181,128,0,158000:0:0:0:0:
288,192,157181,128,0,158000:0:0:0:0:
352,192,157454,128,0,158272:0:0:0:0:
32,192,157727,128,0,158272:0:0:0:0:
416,192,158000,128,0,158818:0:0:0:0:
96,192,158000,128,0,158545:0:0:0:0:
224,192,158272,128,0,159091:0:0:0:0:
480,192,158545,128,0,159636:0:0:0:0:
32,192,158818,128,0,159636:0:0:0:0:
160,192,158818,128,0,159363:0:0:0:0:
352,192,159091,128,0,159909:0:0:0:0:
416,192,159363,128,0,160181:0:0:0:0:
288,192,159636,128,0,160727:0:0:0:0:
224,192,159636,128,0,160454:0:0:0:0:
96,192,159909,128,0,160727:0:0:0:0:
32,192,160181,128,0,161545:0:0:0:0:
480,192,160454,128,0,161272:0:0:0:0:
352,192,160454,128,0,161272:0:0:0:0:
416,192,160727,128,0,161545:0:0:0:0:
224,192,161000,128,0,161818:0:0:0:0:
96,192,161272,128,0,162363:0:0:0:0:
160,192,161272,128,0,161818:0:0:0:0:
288,192,161545,128,0,162909:0:0:0:0:
352,192,161818,128,0,162636:0:0:0:0:
480,192,162091,128,0,163454:0:0:0:0:
416,192,162091,128,0,163454:0:0:0:0:
224,192,162363,128,0,163454:0:0:0:0:
32,192,162636,1,0,0:0:0:0:
32,192,162909,128,0,164000:0:0:0:0:
96,192,163181,128,0,164545:0:0:0:0:
352,192,163454,128,0,164272:0:0:0:0:
160,192,163727,128,0,164818:0:0:0:0:
288,192,164000,128,0,165091:0:0:0:0:
224,192,164272,128,0,166181:0:0:0:0:
480,192,164545,128,0,165363:0:0:0:0:
416,192,164818,128,0,167000:0:0:0:0:
352,192,165091,1,0,0:0:0:0:
352,192,165363,128,0,167000:0:0:0:0:
96,192,166181,128,0,169454:0:0:0:0:
160,192,167000,128,0,168636:0:0:0:0:
288,192,167818,128,0,171091:0:0:0:0:
32,192,168636,128,0,170272:0:0:0:0:
416,192,169454,128,0,172727:0:0:0:0:
224,192,170272,128,0,173545:0:0:0:0:
480,192,171091,128,0,175181:0:0:0:0:
96,192,171909,1,0,0:0:0:0:
96,192,172727,128,0,177636:0:0:0:0:
352,192,173545,128,0,177636:0:0:0:0:
288,192,174363,128,0,177636:0:0:0:0:
416,192,175181,1,0,0:0:0:0:
416,192,176000,128,0,179000:0:0:0:0:
160,192,176818,1,0,0:0:0:0:
160,192,177636,128,0,180091:0:0:0:0:
480,192,178454,128,0,179272:0:0:0:0:
32,192,178727,128,0,179818:0:0:0:0:
224,192,179000,128,0,180091:0:0:0:0:
288,192,179272,128,0,180363:0:0:0:0:
352,192,179545,128,0,180636:0:0:0:0:
96,192,179818,128,0,180909:0:0:0:0:
480,192,180091,128,0,181181:0:0:0:0:
416,192,180363,128,0,181454:0:0:0:0:
32,192,180636,128,0,181727:0:0:0:0:
224,192,180909,128,0,181727:0:0:0:0:
288,192,181181,128,0,182272:0:0:0:0:
352,192,181454,128,0,182272:0:0:0:0:
96,192,181727,128,0,182818:0:0:0:0:
160,192,182000,128,0,183091:0:0:0:0:
480,192,182272,128,0,183363:0:0:0:0:
416,192,182545,128,0,183091:0:0:0:0:
32,192,182818,128,0,183909:0:0:0:0:
352,192,183091,128,0,184181:0:0:0:0:
288,192,183363,128,0,183909:0:0:0:0:
224,192,183636,128,0,185000:0:0:0:0:
96,192,183909,128,0,184727:0:0:0:0:
160,192,184181,128,0,185000:0:0:0:0:
480,192,184454,128,0,185545:0:0:0:0:
32,192,184727,128,0,185818:0:0:0:0:
352,192,185000,128,0,186636:0:0:0:0:
416,192,185272,128,0,186363:0:0:0:0:
96,192,185545,128,0,186636:0:0:0:0:
288,192,185818,128,0,186091:0:0:0:0:
224,192,186091,128,0,186363:0:0:0:0:
480,192,186363,128,0,186636:0:0:0:0:
160,192,186636,128,0,187727:0:0:0:0:
32,192,186909,128,0,188000:0:0:0:0:
416,192,187181,128,0,188272:0:0:0:0:
96,192,187454,128,0,188818:0:0:0:0:
288,192,187727,128,0,188818:0:0:0:0:
352,192,188000,128,0,188818:0:0:0:0:
224,192,188272,128,0,188818:0:0:0:0:
160,192,188545,128,0,189636:0:0:0:0:
480,192,188818,128,0,190181:0:0:0:0:
32,192,189091,128,0,189909:0:0:0:0:
416,192,189363,128,0,190454:0:0:0:0:
352,192,189636,128,0,190727:0:0:0:0:
288,192,189909,128,0,190727:0:0:0:0:
96,192,190181,128,0,191000:0:0:0:0:
160,192,190454,128,0,191272:0:0:0:0:
32,192,190727,128,0,191545:0:0:0:0:
224,192,191000,128,0,191818:0:0:0:0:
480,192,191272,128,0,192363:0:0:0:0:
352,192,191545,128,0,192909:0:0:0:0:
416,192,191545,128,0,192363:0:0:0:0:
96,192,191818,1,0,0:0:0:0:
96,192,192091,1,0,0:0:0:0:
160,192,192091,1,0,0:0:0:0:
96,192,192363,128,0,194000:0:0:0:0:
160,192,192363,128,0,194272:0:0:0:0:
224,192,192636,1,0,0:0:0:0:
288,192,192636,128,0,193727:0:0:0:0:
224,192,192909,128,0,194818:0:0:0:0:
416,192,193181,128,0,194000:0:0:0:0:
480,192,193181,1,0,0:0:0:0:
480,192,193454,1,0,0:0:0:0:
480,192,193727,128,0,195636:0:0:0:0:
32,192,194000,128,0,194818:0:0:0:0:
352,192,194272,128,0,195091:0:0:0:0:
288,192,194545,1,0,0:0:0:0:
288,192,194818,1,0,0:0:0:0:
416,192,194818,128,0,195909:0:0:0:0:
288,192,195091,128,0,197000:0:0:0:0:
32,192,195363,1,0,0:0:0:0:
96,192,195636,128,0,196454:0:0:0:0:
32,192,195636,128,0,197818:0:0:0:0:
352,192,195909,128,0,197000:0:0:0:0:
160,192,196181,128,0,197272:0:0:0:0:
224,192,196454,128,0,197000:0:0:0:0:
416,192,197000,128,0,198091:0:0:0:0:
96,192,197272,128,0,198091:0:0:0:0:
352,192,197818,128,0,198636:0:0:0:0:
480,192,197954,128,0,199181:0:0:0:0:
160,192,198091,128,0,198909:0:0:0:0:
288,192,198363,1,0,0:0:0:0:
288,192,198636,1,0,0:0:0:0:
224,192,198636,1,0,0:0:0:0:
288,192,198909,128,0,201091:0:0:0:0:
224,192,198909,128,0,200818:0:0:0:0:
416,192,199181,128,0,200272:0:0:0:0:
32,192,199181,1,0,0:0:0:0:
32,192,199454,128,0,201363:0:0:0:0:
160,192,199727,128,0,200545:0:0:0:0:
352,192,199727,1,0,0:0:0:0:
352,192,200000,1,0,0:0:0:0:
352,192,200272,128,0,202181:0:0:0:0:
480,192,200545,128,0,201363:0:0:0:0:
96,192,200818,128,0,201636:0:0:0:0:
416,192,201091,1,0,0:0:0:0:
160,192,201363,128,0,202454:0:0:0:0:
416,192,201363,1,0,0:0:0:0:
416,192,201636,128,0,203272:0:0:0:0:
480,192,201909,1,0,0:0:0:0:
480,192,202181,1,0,0:0:0:0:
96,192,202181,128,0,203000:0:0:0:0:
480,192,202454,128,0,203818:0:0:0:0:
224,192,202727,1,0,0:0:0:0:
288,192,203000,128,0,203272:0:0:0:0:
224,192,203000,128,0,204636:0:0:0:0:
32,192,203272,128,0,203545:0:0:0:0:
160,192,203545,128,0,203818:0:0:0:0:
96,192,203818,128,0,204091:0:0:0:0:
352,192,204091,128,0,204363:0:0:0:0:
288,192,204363,128,0,204636:0:0:0:0:
416,192,204636,128,0,205727:0:0:0:0:
32,192,204636,128,0,205727:0:0:0:0:
160,192,204909,128,0,205727:0:0:0:0:
480,192,205181,128,0,206545:0:0:0:0:
96,192,205454,128,0,206545:0:0:0:0:
352,192,205727,128,0,206545:0:0:0:0:
224,192,206000,128,0,207091:0:0:0:0:
288,192,206272,128,0,207636:0:0:0:0:
160,192,206272,128,0,207091:0:0:0:0:
416,192,206545,128,0,207636:0:0:0:0:
32,192,206818,128,0,207636:0:0:0:0:
352,192,207091,128,0,207909:0:0:0:0:
96,192,207363,128,0,208454:0:0:0:0:
480,192,207636,128,0,208454:0:0:0:0:
160,192,207909,128,0,209000:0:0:0:0:
224,192,207909,128,0,208727:0:0:0:0:
32,192,208181,128,0,209272:0:0:0:0:
416,192,208454,128,0,209818:0:0:0:0:
352,192,208727,128,0,209818:0:0:0:0:
288,192,209000,128,0,209545:0:0:0:0:
480,192,209272,128,0,210363:0:0:0:0:
96,192,209545,128,0,210363:0:0:0:0:
224,192,209545,128,0,210636:0:0:0:0:
160,192,209818,128,0,210909:0:0:0:0:
288,192,210091,128,0,211454:0:0:0:0:
32,192,210363,128,0,210636:0:0:0:0:
352,192,210636,128,0,210909:0:0:0:0:
416,192,210909,128,0,211181:0:0:0:0:
96,192,211181,128,0,212272:0:0:0:0:
480,192,211181,128,0,212000:0:0:0:0:
224,192,211454,128,0,212545:0:0:0:0:
32,192,211727,128,0,213091:0:0:0:0:
160,192,212000,128,0,212818:0:0:0:0:
352,192,212272,128,0,213091:0:0:0:0:
288,192,212545,128,0,213636:0:0:0:0:
416,192,212818,128,0,213909:0:0:0:0:
480,192,212818,128,0,213636:0:0:0:0:
96,192,213091,128,0,213909:0:0:0:0:
160,192,213363,128,0,214454:0:0:0:0:
224,192,213636,128,0,214454:0:0:0:0:
352,192,213909,128,0,215000:0:0:0:0:
32,192,214181,128,0,215545:0:0:0:0:
288,192,214454,128,0,215272:0:0:0:0:
480,192,214454,128,0,215818:0:0:0:0:
96,192,214727,128,0,215545:0:0:0:0:
416,192,215000,128,0,215818:0:0:0:0:
224,192,215272,128,0,216227:0:0:0:0:
160,192,215545,128,0,216363:0:0:0:0:
352,192,215818,128,0,216500:0:0:0:0:
288,192,216091,128,0,216636:0:0:0:0:
96,192,216091,128,0,216636:0:0:0:0:
416,192,216227,128,0,216909:0:0:0:0:
32,192,216363,128,0,216909:0:0:0:0:
480,192,216500,128,0,217045:0:0:0:0:
224,192,216636,128,0,217181:0:0:0:0:
160,192,216772,128,0,217318:0:0:0:0:
352,192,216909,128,0,217591:0:0:0:0:
96,192,217045,128,0,217591:0:0:0:0:
288,192,217181,128,0,219909:0:0:0:0:
32,192,217318,128,0,219909:0:0:0:0:
416,192,217454,128,0,219909:0:0:0:0:
480,192,217591,128,0,220181:0:0:0:0:
224,192,217795,128,0,219363:0:0:0:0:
160,192,219909,128,0,220181:0:0:0:0:
96,192,220181,128,0,220454:0:0:0:0:
352,192,220454,128,0,220727:0:0:0:0:
416,192,220727,128,0,221000:0:0:0:0:
32,192,221000,128,0,222091:0:0:0:0:
480,192,221000,128,0,221818:0:0:0:0:
288,192,221272,128,0,222091:0:0:0:0:
160,192,221545,128,0,222636:0:0:0:0:
352,192,221818,1,0,0:0:0:0:
96,192,221818,1,0,0:0:0:0:
352,192,222091,128,0,223454:0:0:0:0:
96,192,222091,128,0,223727:0:0:0:0:
480,192,222363,128,0,223181:0:0:0:0:
288,192,222636,128,0,223454:0:0:0:0:
32,192,222909,128,0,223727:0:0:0:0:
224,192,222909,1,0,0:0:0:0:
224,192,223181,128,0,224545:0:0:0:0:
416,192,223181,128,0,224000:0:0:0:0:
160,192,223454,1,0,0:0:0:0:
160,192,223727,128,0,225091:0:0:0:0:
480,192,224000,128,0,224818:0:0:0:0:
288,192,224000,1,0,0:0:0:0:
288,192,224272,128,0,225909:0:0:0:0:
416,192,224545,128,0,225091:0:0:0:0:
32,192,224545,1,0,0:0:0:0:
352,192,224818,128,0,225363:0:0:0:0:
32,192,224818,128,0,226454:0:0:0:0:
96,192,225091,128,0,225636:0:0:0:0:
480,192,225363,128,0,226181:0:0:0:0:
416,192,225636,128,0,226454:0:0:0:0:
352,192,225909,128,0,227000:0:0:0:0:
224,192,225909,128,0,226454:0:0:0:0:
96,192,226181,128,0,227272:0:0:0:0:
160,192,226454,128,0,227409:0:0:0:0:
480,192,226727,128,0,227545:0:0:0:0:
224,192,227000,128,0,228091:0:0:0:0:
416,192,227272,128,0,227818:0:0:0:0:
288,192,227409,128,0,228091:0:0:0:0:
352,192,227545,128,0,228909:0:0:0:0:
32,192,227545,128,0,228363:0:0:0:0:
96,192,227818,128,0,228363:0:0:0:0:
160,192,228091,128,0,229181:0:0:0:0:
416,192,228363,128,0,229454:0:0:0:0:
480,192,228363,128,0,229181:0:0:0:0:
288,192,228636,128,0,229727:0:0:0:0:
96,192,228909,1,0,0:0:0:0:
96,192,229181,128,0,230545:0:0:0:0:
32,192,229181,128,0,230000:0:0:0:0:
224,192,229454,128,0,230000:0:0:0:0:
480,192,229727,1,0,0:0:0:0:
480,192,230000,128,0,231636:0:0:0:0:
160,192,230000,128,0,230545:0:0:0:0:
352,192,230272,128,0,230818:0:0:0:0:
416,192,230272,128,0,231091:0:0:0:0:
224,192,230545,128,0,231091:0:0:0:0:
32,192,230818,128,0,231636:0:0:0:0:
288,192,230818,128,0,231636:0:0:0:0:
160,192,231091,128,0,231909:0:0:0:0:
352,192,231363,128,0,232181:0:0:0:0:
416,192,231636,128,0,232181:0:0:0:0:
224,192,231636,128,0,232727:0:0:0:0:
96,192,231909,128,0,233000:0:0:0:0:
32,192,232181,128,0,233272:0:0:0:0:
288,192,232454,128,0,233000:0:0:0:0:
160,192,232454,128,0,233545:0:0:0:0:
416,192,232727,1,0,0:0:0:0:
352,192,233000,128,0,234091:0:0:0:0:
416,192,233000,1,0,0:0:0:0:
416,192,233272,128,0,234636:0:0:0:0:
480,192,233272,128,0,233818:0:0:0:0:
288,192,233545,128,0,234363:0:0:0:0:
224,192,233545,128,0,234363:0:0:0:0:
96,192,233818,1,0,0:0:0:0:
96,192,234091,128,0,235454:0:0:0:0:
32,192,234091,128,0,234909:0:0:0:0:
480,192,234363,128,0,235181:0:0:0:0:
160,192,234636,128,0,235454:0:0:0:0:
224,192,234909,128,0,235727:0:0:0:0:
352,192,234909,1,0,0:0:0:0:
288,192,235181,128,0,235727:0:0:0:0:
352,192,235181,128,0,236818:0:0:0:0:
32,192,235454,128,0,236000:0:0:0:0:
480,192,235727,128,0,236272:0:0:0:0:
160,192,236000,128,0,236545:0:0:0:0:
416,192,236000,128,0,236818:0:0:0:0:
288,192,236272,128,0,237091:0:0:0:0:
32,192,236545,128,0,237091:0:0:0:0:
224,192,236545,128,0,237091:0:0:0:0:
480,192,236818,128,0,237909:0:0:0:0:
96,192,236818,128,0,237363:0:0:0:0:
160,192,237091,128,0,237909:0:0:0:0:
416,192,237363,128,0,238181:0:0:0:0:
224,192,237636,128,0,238727:0:0:0:0:
32,192,237636,128,0,238727:0:0:0:0:
96,192,237909,128,0,238727:0:0:0:0:
288,192,237909,128,0,239000:0:0:0:0:
352,192,238181,128,0,238727:0:0:0:0:
160,192,238454,128,0,239272:0:0:0:0:
416,192,238727,128,0,239545:0:0:0:0:
480,192,239000,128,0,239818:0:0:0:0:
352,192,239272,128,0,240091:0:0:0:0:
96,192,239545,128,0,240363:0:0:0:0:
32,192,239545,128,0,240363:0:0:0:0:
288,192,239818,128,0,240500:0:0:0:0:
224,192,239818,128,0,240500:0:0:0:0:
160,192,240091,128,0,240636:0:0:0:0:
416,192,240091,128,0,240909:0:0:0:0:
480,192,240363,128,0,240909:0:0:0:0:
352,192,240500,128,0,241181:0:0:0:0:
32,192,240636,128,0,241727:0:0:0:0:
96,192,240636,128,0,241454:0:0:0:0:
224,192,240909,128,0,241727:0:0:0:0:
288,192,241181,128,0,242272:0:0:0:0:
160,192,241454,128,0,242272:0:0:0:0:
480,192,241454,128,0,242272:0:0:0:0:
352,192,241727,128,0,242545:0:0:0:0:
416,192,242000,128,0,242818:0:0:0:0:
96,192,242272,128,0,243091:0:0:0:0:
224,192,242272,128,0,243091:0:0:0:0:
32,192,242545,128,0,243363:0:0:0:0:
480,192,242818,128,0,243636:0:0:0:0:
288,192,243091,128,0,243909:0:0:0:0:
160,192,243091,128,0,243909:0:0:0:0:
352,192,243363,128,0,244181:0:0:0:0:
416,192,243363,128,0,244181:0:0:0:0:
224,192,243636,128,0,244727:0:0:0:0:
96,192,243909,128,0,244727:0:0:0:0:
32,192,243909,1,0,0:0:0:0:
32,192,244181,128,0,245954:0:0:0:0:
480,192,244181,128,0,244727:0:0:0:0:
160,192,244454,128,0,245545:0:0:0:0:
416,192,244727,128,0,245272:0:0:0:0:
288,192,244727,128,0,245545:0:0:0:0:
352,192,245000,128,0,245818:0:0:0:0:
480,192,245272,128,0,245954:0:0:0:0:
224,192,245545,128,0,246227:0:0:0:0:
96,192,245545,128,0,246091:0:0:0:0:
416,192,245818,128,0,246363:0:0:0:0:
288,192,245954,128,0,246500:0:0:0:0:
352,192,246091,128,0,246636:0:0:0:0:
160,192,246227,128,0,246772:0:0:0:0:
480,192,246363,128,0,247181:0:0:0:0:
96,192,246500,128,0,247181:0:0:0:0:
224,192,246636,128,0,247591:0:0:0:0:
32,192,246772,128,0,247454:0:0:0:0:
416,192,246909,128,0,247181:0:0:0:0:
288,192,247181,128,0,248272:0:0:0:0:
352,192,247454,128,0,248272:0:0:0:0:
160,192,247591,128,0,248272:0:0:0:0:
32,192,247727,128,0,248818:0:0:0:0:
96,192,248000,128,0,248681:0:0:0:0:
480,192,248272,128,0,248818:0:0:0:0:
224,192,248409,128,0,248818:0:0:0:0:
416,192,248545,128,0,249227:0:0:0:0:
160,192,248681,128,0,249636:0:0:0:0:
352,192,248818,128,0,249636:0:0:0:0:
288,192,249091,128,0,249772:0:0:0:0:
96,192,249227,128,0,249909:0:0:0:0:
224,192,249363,128,0,250045:0:0:0:0:
480,192,249636,128,0,250181:0:0:0:0:
32,192,249772,128,0,250318:0:0:0:0:
416,192,249909,128,0,250727:0:0:0:0:
352,192,250045,128,0,250727:0:0:0:0:
160,192,250181,128,0,251000:0:0:0:0:
288,192,250318,128,0,250863:0:0:0:0:
96,192,250454,128,0,251818:0:0:0:0:
224,192,250727,128,0,251818:0:0:0:0:
480,192,250863,128,0,251545:0:0:0:0:
32,192,251000,128,0,251818:0:0:0:0:
352,192,251272,128,0,252091:0:0:0:0:
288,192,251545,128,0,252636:0:0:0:0:
416,192,251818,128,0,252636:0:0:0:0:
480,192,251954,128,0,253181:0:0:0:0:
160,192,252091,128,0,252909:0:0:0:0:
32,192,252363,128,0,253181:0:0:0:0:
224,192,252636,128,0,253318:0:0:0:0:
96,192,252909,128,0,253454:0:0:0:0:
352,192,253045,128,0,253727:0:0:0:0:
160,192,253181,128,0,253727:0:0:0:0:
416,192,253318,128,0,254136:0:0:0:0:
288,192,253454,128,0,254136:0:0:0:0:
32,192,253591,128,0,254545:0:0:0:0:
224,192,253727,128,0,255091:0:0:0:0:
96,192,254000,128,0,254818:0:0:0:0:
480,192,254136,128,0,254818:0:0:0:0:
160,192,254272,128,0,255363:0:0:0:0:
352,192,254545,128,0,255227:0:0:0:0:
288,192,254818,128,0,255636:0:0:0:0:
416,192,255091,128,0,255909:0:0:0:0:
480,192,255227,128,0,255909:0:0:0:0:
32,192,255363,128,0,255909:0:0:0:0:
96,192,255636,128,0,256318:0:0:0:0:
352,192,255772,128,0,256591:0:0:0:0:
224,192,255909,128,0,256591:0:0:0:0:
160,192,256181,128,0,256727:0:0:0:0:
288,192,256318,128,0,256863:0:0:0:0:
32,192,256454,128,0,257000:0:0:0:0:
480,192,256591,128,0,257409:0:0:0:0:
416,192,256727,128,0,257409:0:0:0:0:
96,192,256863,128,0,257409:0:0:0:0:
224,192,257000,128,0,258363:0:0:0:0:
160,192,257272,128,0,258363:0:0:0:0:
352,192,257409,128,0,258091:0:0:0:0:
288,192,257545,128,0,258363:0:0:0:0:
32,192,257818,128,0,258909:0:0:0:0:
96,192,258091,128,0,259454:0:0:0:0:
416,192,258363,128,0,258909:0:0:0:0:
480,192,258500,128,0,259181:0:0:0:0:
352,192,258636,128,0,259591:0:0:0:0:
288,192,258909,128,0,259727:0:0:0:0:
160,192,259181,128,0,260000:0:0:0:0:
224,192,259454,128,0,260000:0:0:0:0:
416,192,259591,128,0,260272:0:0:0:0:
480,192,259727,128,0,260272:0:0:0:0:
32,192,259863,128,0,260681:0:0:0:0:
352,192,260000,128,0,261363:0:0:0:0:
96,192,260136,128,0,261091:0:0:0:0:
288,192,260272,128,0,260818:0:0:0:0:
224,192,260545,128,0,261636:0:0:0:0:
160,192,260681,128,0,261363:0:0:0:0:
480,192,260818,128,0,261909:0:0:0:0:
416,192,261091,1,0,0:0:0:0:
416,192,261363,128,0,263136:0:0:0:0:
288,192,261636,128,0,262727:0:0:0:0:
32,192,261772,128,0,262454:0:0:0:0:
160,192,261909,128,0,262727:0:0:0:0:
96,192,262181,128,0,263136:0:0:0:0:
224,192,262454,128,0,263272:0:0:0:0:
352,192,262727,128,0,263409:0:0:0:0:
480,192,263000,128,0,263545:0:0:0:0:
32,192,263136,128,0,263681:0:0:0:0:
160,192,263272,128,0,263954:0:0:0:0:
288,192,263409,128,0,263954:0:0:0:0:
96,192,263545,128,0,264091:0:0:0:0:
224,192,263681,128,0,264363:0:0:0:0:
352,192,263818,128,0,264363:0:0:0:0:
480,192,263954,128,0,264500:0:0:0:0:
416,192,264091,128,0,264636:0:0:0:0:
32,192,264227,128,0,264772:0:0:0:0:
288,192,264363,128,0,265045:0:0:0:0:
96,192,264500,128,0,265318:0:0:0:0:
160,192,264636,128,0,265045:0:0:0:0:
352,192,264772,128,0,265318:0:0:0:0:
224,192,264909,128,0,265454:0:0:0:0:
480,192,265045,128,0,265727:0:0:0:0:
416,192,265181,128,0,265727:0:0:0:0:
32,192,265318,128,0,265863:0:0:0:0:
160,192,265454,128,0,266000:0:0:0:0:
288,192,265591,128,0,266272:0:0:0:0:
352,192,265727,128,0,266272:0:0:0:0:
224,192,265863,128,0,266409:0:0:0:0:
96,192,266000,128,0,266409:0:0:0:0:
416,192,266136,128,0,266545:0:0:0:0:
480,192,266272,128,0,266545:0:0:0:0:
32,192,266409,128,0,266681:0:0:0:0:
160,192,266545,128,0,266818:0:0:0:0:
352,192,266681,128,0,266818:0:0:0:0:
224,192,266818,1,0,0:0:0:0:
288,192,266818,1,0,0:0:0:0:
