osu file format v14

[General]
AudioFilename: audio.mp3
AudioLeadIn: 2500
PreviewTime: 56272
Countdown: 0
SampleSet: None
StackLeniency: 0.7
Mode: 3
LetterboxInBreaks: 0
SpecialStyle: 0
WidescreenStoryboard: 1

[Editor]
DistanceSpacing: 0.8
BeatDivisor: 4
GridSize: 16
TimelineZoom: 2.5

[Metadata]
Title:Katayoku No Tori
TitleUnicode:片翼の鳥
Artist:Hommarju feat. mamiko
ArtistUnicode:Hommarju feat. mamiko
Creator:semyon422
Version:LN lv.2 7K 1st Twilight
Source:Exit Trance
Tags:Umineko No Naku Koro Ni Katayoku No Tori Gexigamma
BeatmapID:1738648
BeatmapSetID:829848

[Difficulty]
HPDrainRate:6
CircleSize:7
OverallDifficulty:7
ApproachRate:5
SliderMultiplier:1.4
SliderTickRate:1

[Events]
//Background and Video events
0,0,"background.jpg",0,0
//Break Periods
//Storyboard Layer 0 (Background)
//Storyboard Layer 1 (Fail)
//Storyboard Layer 2 (Pass)
//Storyboard Layer 3 (Foreground)
//Storyboard Sound Samples

[TimingPoints]
91,272.727272727273,3,2,0,20,1,0
57363,-100,3,2,0,20,0,1
88454,-100,3,2,0,20,0,0
221000,-100,3,2,0,20,0,1
266818,-100,3,2,0,20,0,0

[HitObjects]
36,192,91,128,0,1454:0:0:0:0:
475,192,91,128,0,1181:0:0:0:0:
329,192,500,128,0,1727:0:0:0:0:
402,192,909,128,0,2136:0:0:0:0:
182,192,1181,128,0,2545:0:0:0:0:
256,192,1454,128,0,2545:0:0:0:0:
109,192,1727,128,0,2818:0:0:0:0:
475,192,2136,128,0,3091:0:0:0:0:
36,192,2545,128,0,3363:0:0:0:0:
329,192,2818,128,0,3772:0:0:0:0:
402,192,3091,128,0,4181:0:0:0:0:
256,192,3363,128,0,4727:0:0:0:0:
182,192,3363,128,0,4454:0:0:0:0:
109,192,3772,128,0,5000:0:0:0:0:
475,192,4181,128,0,5272:0:0:0:0:
36,192,4454,128,0,5272:0:0:0:0:
329,192,4727,128,0,5818:0:0:0:0:
402,192,5000,128,0,5818:0:0:0:0:
182,192,5272,128,0,7045:0:0:0:0:
256,192,5545,128,0,7045:0:0:0:0:
109,192,5818,128,0,6363:0:0:0:0:
36,192,6636,128,0,8000:0:0:0:0:
475,192,6636,128,0,7727:0:0:0:0:
402,192,7045,128,0,8272:0:0:0:0:
329,192,7454,128,0,8681:0:0:0:0:
256,192,7727,128,0,8681:0:0:0:0:
182,192,8000,128,0,9091:0:0:0:0:
109,192,8272,128,0,9363:0:0:0:0:
475,192,8681,128,0,9636:0:0:0:0:
36,192,9091,128,0,9909:0:0:0:0:
402,192,9363,128,0,10318:0:0:0:0:
256,192,9636,128,0,10727:0:0:0:0:
329,192,9909,128,0,11000:0:0:0:0:
182,192,9909,128,0,11000:0:0:0:0:
109,192,10318,128,0,11272:0:0:0:0:
475,192,10727,128,0,11545:0:0:0:0:
36,192,11000,128,0,11818:0:0:0:0:
402,192,11272,128,0,12363:0:0:0:0:
329,192,11545,128,0,12363:0:0:0:0:
256,192,11545,128,0,12091:0:0:0:0:
182,192,11818,128,0,13181:0:0:0:0:
109,192,12091,128,0,14000:0:0:0:0:
475,192,12363,128,0,12909:0:0:0:0:
36,192,13181,128,0,14000:0:0:0:0:
256,192,13181,128,0,16454:0:0:0:0:
329,192,14000,128,0,14818:0:0:0:0:
402,192,14818,128,0,16454:0:0:0:0:
109,192,16454,128,0,17272:0:0:0:0:
182,192,16454,128,0,18091:0:0:0:0:
475,192,17272,128,0,18091:0:0:0:0:
256,192,18091,128,0,19727:0:0:0:0:
182,192,19727,128,0,22181:0:0:0:0:
36,192,19727,128,0,20545:0:0:0:0:
329,192,20545,128,0,21363:0:0:0:0:
109,192,21363,128,0,22181:0:0:0:0:
402,192,22181,128,0,23000:0:0:0:0:
475,192,23000,128,0,23818:0:0:0:0:
256,192,23000,128,0,25454:0:0:0:0:
36,192,23818,128,0,24636:0:0:0:0:
182,192,24636,128,0,25454:0:0:0:0:
329,192,25454,128,0,26272:0:0:0:0:
402,192,25727,128,0,26545:0:0:0:0:
475,192,26000,128,0,26818:0:0:0:0:
256,192,26272,128,0,27091:0:0:0:0:
109,192,26272,128,0,27363:0:0:0:0:
36,192,26545,128,0,27636:0:0:0:0:
182,192,26818,128,0,27909:0:0:0:0:
329,192,27091,128,0,28181:0:0:0:0:
402,192,27363,128,0,28181:0:0:0:0:
475,192,27636,128,0,28727:0:0:0:0:
256,192,27909,128,0,28727:0:0:0:0:
109,192,28181,128,0,29000:0:0:0:0:
36,192,28454,128,0,29272:0:0:0:0:
182,192,28727,128,0,29818:0:0:0:0:
402,192,29000,128,0,29818:0:0:0:0:
329,192,29272,128,0,30091:0:0:0:0:
475,192,29545,128,0,30636:0:0:0:0:
256,192,29545,128,0,30636:0:0:0:0:
109,192,29818,128,0,30636:0:0:0:0:
36,192,30091,128,0,31181:0:0:0:0:
402,192,30363,128,0,32000:0:0:0:0:
329,192,30636,128,0,31727:0:0:0:0:
182,192,30909,128,0,31727:0:0:0:0:
109,192,31181,128,0,32000:0:0:0:0:
256,192,31454,128,0,32272:0:0:0:0:
475,192,31727,128,0,32545:0:0:0:0:
36,192,32000,128,0,32818:0:0:0:0:
182,192,32272,128,0,33091:0:0:0:0:
329,192,32545,128,0,33363:0:0:0:0:
109,192,32818,128,0,33636:0:0:0:0:
256,192,32818,128,0,34181:0:0:0:0:
475,192,33091,128,0,33909:0:0:0:0:
402,192,33363,128,0,34181:0:0:0:0:
36,192,33636,128,0,34454:0:0:0:0:
182,192,33909,128,0,35000:0:0:0:0:
329,192,34181,128,0,35000:0:0:0:0:
109,192,34454,128,0,35545:0:0:0:0:
475,192,34727,128,0,35545:0:0:0:0:
402,192,35000,128,0,35818:0:0:0:0:
36,192,35272,128,0,36363:0:0:0:0:
256,192,35545,128,0,36363:0:0:0:0:
329,192,35818,128,0,36909:0:0:0:0:
182,192,36091,128,0,36909:0:0:0:0:
475,192,36091,128,0,37181:0:0:0:0:
109,192,36363,128,0,37727:0:0:0:0:
402,192,36636,128,0,37454:0:0:0:0:
256,192,36909,128,0,38545:0:0:0:0:
36,192,37181,128,0,37727:0:0:0:0:
182,192,37454,128,0,39363:0:0:0:0:
329,192,37727,128,0,38545:0:0:0:0:
402,192,38545,128,0,39363:0:0:0:0:
475,192,39363,1,0,0:0:0:0:
36,192,39363,1,0,0:0:0:0:
475,192,39772,128,0,41818:0:0:0:0:
36,192,39772,128,0,41818:0:0:0:0:
109,192,40181,128,0,41000:0:0:0:0:
256,192,40181,128,0,41000:0:0:0:0:
182,192,40454,1,0,0:0:0:0:
329,192,40454,128,0,42636:0:0:0:0:
182,192,41000,128,0,41818:0:0:0:0:
402,192,41818,128,0,42636:0:0:0:0:
256,192,42636,1,0,0:0:0:0:
109,192,42636,1,0,0:0:0:0:
256,192,43045,128,0,45091:0:0:0:0:
109,192,43045,128,0,45091:0:0:0:0:
329,192,43454,128,0,44272:0:0:0:0:
475,192,43454,128,0,44272:0:0:0:0:
402,192,43727,128,0,45091:0:0:0:0:
36,192,43727,128,0,45091:0:0:0:0:
182,192,44272,128,0,45091:0:0:0:0:
475,192,45091,128,0,45909:0:0:0:0:
329,192,45909,128,0,48363:0:0:0:0:
36,192,45909,128,0,46727:0:0:0:0:
402,192,46727,128,0,47545:0:0:0:0:
256,192,47545,128,0,48363:0:0:0:0:
109,192,48363,128,0,49181:0:0:0:0:
475,192,49181,128,0,51636:0:0:0:0:
182,192,51636,128,0,52454:0:0:0:0:
329,192,52454,128,0,55727:0:0:0:0:
36,192,57363,1,0,0:0:0:0:
329,192,57363,128,0,58454:0:0:0:0:
36,192,58454,128,0,60636:0:0:0:0:
109,192,58727,128,0,59545:0:0:0:0:
256,192,59000,128,0,60091:0:0:0:0:
402,192,59272,128,0,60363:0:0:0:0:
475,192,59545,128,0,60091:0:0:0:0:
182,192,60091,128,0,60909:0:0:0:0:
109,192,60363,128,0,62000:0:0:0:0:
256,192,60636,128,0,62000:0:0:0:0:
402,192,60909,128,0,62272:0:0:0:0:
329,192,61181,128,0,61727:0:0:0:0:
182,192,62000,128,0,63909:0:0:0:0:
475,192,62272,128,0,63091:0:0:0:0:
256,192,63091,128,0,63500:0:0:0:0:
402,192,63909,128,0,64727:0:0:0:0:
36,192,63909,128,0,65000:0:0:0:0:
109,192,64181,128,0,65272:0:0:0:0:
182,192,64454,128,0,65545:0:0:0:0:
329,192,64727,128,0,65818:0:0:0:0:
475,192,65000,128,0,66091:0:0:0:0:
256,192,65272,128,0,66363:0:0:0:0:
402,192,65545,128,0,66636:0:0:0:0:
36,192,65818,128,0,66909:0:0:0:0:
109,192,66091,128,0,66909:0:0:0:0:
182,192,66363,128,0,68000:0:0:0:0:
329,192,66636,128,0,68000:0:0:0:0:
475,192,66909,128,0,68000:0:0:0:0:
256,192,67181,128,0,67727:0:0:0:0:
402,192,67727,128,0,69636:0:0:0:0:
109,192,68000,128,0,68954:0:0:0:0:
36,192,69363,128,0,70181:0:0:0:0:
475,192,69636,128,0,70454:0:0:0:0:
329,192,69909,128,0,71818:0:0:0:0:
182,192,70181,128,0,72091:0:0:0:0:
402,192,70454,128,0,71545:0:0:0:0:
256,192,71545,128,0,72636:0:0:0:0:
36,192,71818,128,0,72636:0:0:0:0:
475,192,72091,128,0,73727:0:0:0:0:
109,192,72363,128,0,73454:0:0:0:0:
329,192,72636,128,0,73181:0:0:0:0:
182,192,73181,128,0,74272:0:0:0:0:
36,192,73454,128,0,75091:0:0:0:0:
256,192,73727,128,0,75363:0:0:0:0:
402,192,74000,128,0,76181:0:0:0:0:
109,192,74272,128,0,74818:0:0:0:0:
329,192,75091,128,0,77000:0:0:0:0:
475,192,75363,128,0,76181:0:0:0:0:
182,192,76181,128,0,76727:0:0:0:0:
36,192,76727,128,0,77000:0:0:0:0:
256,192,77000,128,0,78363:0:0:0:0:
109,192,77000,128,0,77545:0:0:0:0:
402,192,77818,128,0,78636:0:0:0:0:
475,192,78091,128,0,79181:0:0:0:0:
329,192,78363,128,0,79454:0:0:0:0:
182,192,78636,128,0,79454:0:0:0:0:
256,192,78909,128,0,80272:0:0:0:0:
36,192,79181,128,0,80818:0:0:0:0:
402,192,79454,128,0,80000:0:0:0:0:
109,192,80000,128,0,82727:0:0:0:0:
182,192,80272,128,0,80818:0:0:0:0:
475,192,80818,128,0,83545:0:0:0:0:
329,192,81091,128,0,82318:0:0:0:0:
256,192,82727,128,0,83545:0:0:0:0:
36,192,83545,128,0,88454:0:0:0:0:
402,192,83818,128,0,85181:0:0:0:0:
109,192,84363,128,0,85181:0:0:0:0:
475,192,84636,128,0,85591:0:0:0:0:
329,192,84909,128,0,86272:0:0:0:0:
182,192,85181,128,0,86272:0:0:0:0:
256,192,85591,128,0,86545:0:0:0:0:
109,192,86000,128,0,86818:0:0:0:0:
402,192,86272,128,0,87091:0:0:0:0:
475,192,86545,128,0,87363:0:0:0:0:
182,192,86818,128,0,87636:0:0:0:0:
329,192,87091,128,0,88454:0:0:0:0:
256,192,87363,128,0,88181:0:0:0:0:
109,192,87636,128,0,91727:0:0:0:0:
402,192,87909,128,0,91727:0:0:0:0:
475,192,88181,128,0,92000:0:0:0:0:
182,192,88454,1,0,0:0:0:0:
182,192,90091,1,0,0:0:0:0:
256,192,90091,128,0,91181:0:0:0:0:
182,192,91727,128,0,95000:0:0:0:0:
36,192,92000,128,0,93091:0:0:0:0:
329,192,92272,128,0,93363:0:0:0:0:
402,192,92545,128,0,96636:0:0:0:0:
109,192,93091,128,0,96977:0:0:0:0:
475,192,93363,128,0,95000:0:0:0:0:
36,192,95000,128,0,96363:0:0:0:0:
329,192,96636,128,0,97454:0:0:0:0:
256,192,96977,1,0,0:0:0:0:
256,192,97454,128,0,99909:0:0:0:0:
402,192,98272,128,0,99909:0:0:0:0:
109,192,98545,128,0,99091:0:0:0:0:
182,192,98818,128,0,101545:0:0:0:0:
475,192,99091,128,0,99636:0:0:0:0:
329,192,99909,128,0,101545:0:0:0:0:
109,192,101545,128,0,102363:0:0:0:0:
36,192,102363,128,0,103181:0:0:0:0:
402,192,103181,128,0,104000:0:0:0:0:
182,192,103181,128,0,104272:0:0:0:0:
475,192,103454,128,0,104545:0:0:0:0:
256,192,103727,128,0,104818:0:0:0:0:
329,192,104000,128,0,105091:0:0:0:0:
109,192,104272,128,0,105363:0:0:0:0:
402,192,104545,128,0,105636:0:0:0:0:
36,192,104818,128,0,105636:0:0:0:0:
182,192,105091,128,0,106181:0:0:0:0:
475,192,105363,128,0,106454:0:0:0:0:
256,192,105636,128,0,106727:0:0:0:0:
329,192,105909,128,0,107000:0:0:0:0:
109,192,106181,128,0,107000:0:0:0:0:
36,192,106454,128,0,107545:0:0:0:0:
402,192,106727,128,0,107818:0:0:0:0:
182,192,107000,128,0,108091:0:0:0:0:
475,192,107272,128,0,108091:0:0:0:0:
256,192,107545,128,0,108636:0:0:0:0:
109,192,107818,128,0,108909:0:0:0:0:
329,192,108091,128,0,108909:0:0:0:0:
36,192,108363,128,0,109454:0:0:0:0:
402,192,108636,128,0,109454:0:0:0:0:
475,192,108909,128,0,110272:0:0:0:0:
182,192,109181,128,0,110272:0:0:0:0:
256,192,109454,128,0,110545:0:0:0:0:
109,192,109727,128,0,110272:0:0:0:0:
329,192,109727,128,0,110818:0:0:0:0:
402,192,110272,128,0,111772:0:0:0:0:
36,192,110545,128,0,111363:0:0:0:0:
182,192,110818,128,0,112727:0:0:0:0:
475,192,111091,128,0,112727:0:0:0:0:
256,192,111363,128,0,112181:0:0:0:0:
329,192,111772,128,0,113000:0:0:0:0:
109,192,112181,128,0,113818:0:0:0:0:
36,192,112727,128,0,113818:0:0:0:0:
256,192,113000,128,0,114363:0:0:0:0:
402,192,113545,128,0,114636:0:0:0:0:
329,192,113818,128,0,115454:0:0:0:0:
475,192,114091,128,0,115454:0:0:0:0:
182,192,114363,128,0,115181:0:0:0:0:
36,192,114636,128,0,116681:0:0:0:0:
109,192,115181,128,0,117909:0:0:0:0:
256,192,115454,128,0,117091:0:0:0:0:
182,192,116272,128,0,118727:0:0:0:0:
402,192,116681,128,0,118318:0:0:0:0:
475,192,117091,128,0,118727:0:0:0:0:
329,192,117909,128,0,119000:0:0:0:0:
36,192,118318,128,0,120091:0:0:0:0:
256,192,118727,128,0,119545:0:0:0:0:
402,192,119000,128,0,120363:0:0:0:0:
109,192,119272,128,0,120363:0:0:0:0:
475,192,119545,128,0,120909:0:0:0:0:
329,192,120091,128,0,122000:0:0:0:0:
182,192,120363,128,0,122000:0:0:0:0:
256,192,120909,128,0,122818:0:0:0:0:
109,192,121181,128,0,122000:0:0:0:0:
36,192,122000,128,0,122818:0:0:0:0:
475,192,122818,1,0,0:0:0:0:
402,192,122818,1,0,0:0:0:0:
475,192,123227,128,0,125272:0:0:0:0:
402,192,123227,128,0,125272:0:0:0:0:
182,192,123636,128,0,124454:0:0:0:0:
329,192,123636,128,0,124454:0:0:0:0:
256,192,123909,1,0,0:0:0:0:
109,192,123909,128,0,126091:0:0:0:0:
256,192,124454,128,0,125272:0:0:0:0:
36,192,125272,128,0,126091:0:0:0:0:
329,192,126091,1,0,0:0:0:0:
182,192,126091,1,0,0:0:0:0:
182,192,126500,128,0,127727:0:0:0:0:
329,192,126500,128,0,128545:0:0:0:0:
109,192,126909,128,0,127727:0:0:0:0:
402,192,126909,128,0,127727:0:0:0:0:
36,192,127181,128,0,129363:0:0:0:0:
475,192,127181,128,0,128545:0:0:0:0:
256,192,127727,128,0,128545:0:0:0:0:
109,192,128545,128,0,129363:0:0:0:0:
475,192,129363,128,0,130727:0:0:0:0:
402,192,129363,128,0,130454:0:0:0:0:
182,192,130181,128,0,132091:0:0:0:0:
329,192,130454,128,0,132091:0:0:0:0:
36,192,130727,128,0,132091:0:0:0:0:
402,192,131000,128,0,132636:0:0:0:0:
475,192,131818,128,0,133454:0:0:0:0:
256,192,132091,128,0,133863:0:0:0:0:
109,192,132363,128,0,133454:0:0:0:0:
36,192,132636,128,0,133863:0:0:0:0:
329,192,133045,128,0,135091:0:0:0:0:
182,192,133454,128,0,135636:0:0:0:0:
402,192,133863,128,0,135636:0:0:0:0:
109,192,134272,128,0,135909:0:0:0:0:
36,192,135091,128,0,135636:0:0:0:0:
475,192,135636,128,0,139181:0:0:0:0:
256,192,135909,128,0,137545:0:0:0:0:
329,192,138636,128,0,139181:0:0:0:0:
402,192,139181,128,0,144909:0:0:0:0:
182,192,139181,128,0,142454:0:0:0:0:
109,192,140818,128,0,145727:0:0:0:0:
36,192,142454,128,0,147363:0:0:0:0:
475,192,144091,128,0,148181:0:0:0:0:
182,192,144909,128,0,149000:0:0:0:0:
329,192,145727,128,0,149818:0:0:0:0:
256,192,147363,128,0,149818:0:0:0:0:
402,192,148181,128,0,150636:0:0:0:0:
109,192,149000,128,0,151454:0:0:0:0:
36,192,149818,128,0,155545:0:0:0:0:
475,192,150636,128,0,155545:0:0:0:0:
182,192,151454,128,0,158000:0:0:0:0:
256,192,152272,128,0,155545:0:0:0:0:
402,192,152272,128,0,155545:0:0:0:0:
329,192,153909,128,0,158000:0:0:0:0:
109,192,155545,128,0,159636:0:0:0:0:
402,192,157181,128,0,160454:0:0:0:0:
256,192,158000,128,0,162091:0:0:0:0:
475,192,158818,128,0,162091:0:0:0:0:
36,192,159636,128,0,162091:0:0:0:0:
329,192,160454,128,0,162909:0:0:0:0:
182,192,161272,128,0,163727:0:0:0:0:
109,192,162091,128,0,164545:0:0:0:0:
402,192,162909,128,0,165363:0:0:0:0:
36,192,163727,128,0,165363:0:0:0:0:
475,192,164545,128,0,165363:0:0:0:0:
182,192,165363,128,0,167000:0:0:0:0:
329,192,165363,128,0,167000:0:0:0:0:
256,192,166181,128,0,167818:0:0:0:0:
109,192,167000,128,0,168636:0:0:0:0:
36,192,167000,128,0,168636:0:0:0:0:
402,192,167818,128,0,169454:0:0:0:0:
475,192,168636,128,0,170272:0:0:0:0:
182,192,168636,128,0,170272:0:0:0:0:
256,192,169454,128,0,172727:0:0:0:0:
36,192,170272,128,0,173545:0:0:0:0:
329,192,170272,128,0,172727:0:0:0:0:
402,192,171091,128,0,173545:0:0:0:0:
182,192,171909,128,0,175181:0:0:0:0:
109,192,172727,128,0,175181:0:0:0:0:
475,192,173545,128,0,176000:0:0:0:0:
329,192,174363,128,0,176818:0:0:0:0:
256,192,175181,128,0,177636:0:0:0:0:
402,192,176000,128,0,179272:0:0:0:0:
109,192,176818,128,0,179272:0:0:0:0:
475,192,177636,128,0,180091:0:0:0:0:
182,192,178454,128,0,180909:0:0:0:0:
329,192,178454,128,0,181727:0:0:0:0:
36,192,179272,128,0,183363:0:0:0:0:
256,192,180091,128,0,183363:0:0:0:0:
109,192,180909,128,0,183363:0:0:0:0:
402,192,181727,128,0,184181:0:0:0:0:
475,192,182545,128,0,185818:0:0:0:0:
182,192,183363,128,0,186636:0:0:0:0:
329,192,184181,128,0,187454:0:0:0:0:
109,192,185000,128,0,187454:0:0:0:0:
402,192,185818,128,0,189091:0:0:0:0:
256,192,186636,128,0,189091:0:0:0:0:
36,192,187454,128,0,189909:0:0:0:0:
475,192,188272,128,0,190727:0:0:0:0:
109,192,189091,128,0,191545:0:0:0:0:
182,192,189909,128,0,191818:0:0:0:0:
329,192,190727,128,0,191545:0:0:0:0:
402,192,191545,128,0,192363:0:0:0:0:
256,192,191545,128,0,192636:0:0:0:0:
36,192,191818,128,0,192909:0:0:0:0:
475,192,192091,128,0,193181:0:0:0:0:
109,192,192363,128,0,193454:0:0:0:0:
182,192,192636,128,0,193727:0:0:0:0:
402,192,192909,128,0,194272:0:0:0:0:
329,192,193181,128,0,194000:0:0:0:0:
256,192,193454,128,0,194272:0:0:0:0:
36,192,193727,128,0,194545:0:0:0:0:
475,192,194000,128,0,194818:0:0:0:0:
109,192,194272,128,0,195091:0:0:0:0:
182,192,194545,128,0,195363:0:0:0:0:
329,192,194818,128,0,195909:0:0:0:0:
256,192,194818,128,0,195636:0:0:0:0:
36,192,195091,128,0,196454:0:0:0:0:
402,192,195363,128,0,196454:0:0:0:0:
475,192,195636,128,0,196454:0:0:0:0:
109,192,195909,128,0,196727:0:0:0:0:
182,192,196181,128,0,197272:0:0:0:0:
256,192,196454,128,0,197545:0:0:0:0:
329,192,196727,128,0,197545:0:0:0:0:
475,192,197000,128,0,198091:0:0:0:0:
402,192,197272,128,0,198091:0:0:0:0:
109,192,197545,128,0,198363:0:0:0:0:
36,192,197818,128,0,198909:0:0:0:0:
329,192,198091,128,0,199181:0:0:0:0:
182,192,198091,128,0,198909:0:0:0:0:
256,192,198363,128,0,199454:0:0:0:0:
402,192,198636,128,0,199727:0:0:0:0:
475,192,198909,128,0,200000:0:0:0:0:
109,192,199181,128,0,200272:0:0:0:0:
182,192,199454,128,0,200272:0:0:0:0:
36,192,199727,128,0,200545:0:0:0:0:
329,192,200000,128,0,200818:0:0:0:0:
256,192,200272,128,0,201091:0:0:0:0:
402,192,200545,128,0,201363:0:0:0:0:
475,192,200818,128,0,201909:0:0:0:0:
182,192,201091,128,0,201909:0:0:0:0:
36,192,201363,128,0,202454:0:0:0:0:
109,192,201363,128,0,202181:0:0:0:0:
329,192,201636,128,0,202727:0:0:0:0:
256,192,201909,128,0,202727:0:0:0:0:
402,192,202181,128,0,203000:0:0:0:0:
182,192,202454,128,0,203818:0:0:0:0:
475,192,202727,128,0,204636:0:0:0:0:
109,192,203000,128,0,203818:0:0:0:0:
36,192,203818,128,0,204636:0:0:0:0:
256,192,204636,128,0,205454:0:0:0:0:
402,192,204636,128,0,205454:0:0:0:0:
329,192,204909,128,0,206000:0:0:0:0:
182,192,205181,128,0,206272:0:0:0:0:
475,192,205454,128,0,206545:0:0:0:0:
109,192,205727,128,0,206818:0:0:0:0:
256,192,206000,128,0,207091:0:0:0:0:
402,192,206272,128,0,207091:0:0:0:0:
36,192,206545,128,0,207636:0:0:0:0:
329,192,206818,128,0,207636:0:0:0:0:
182,192,207091,128,0,207909:0:0:0:0:
475,192,207363,128,0,208181:0:0:0:0:
109,192,207636,128,0,208727:0:0:0:0:
256,192,207909,128,0,209000:0:0:0:0:
402,192,207909,128,0,208727:0:0:0:0:
329,192,208181,128,0,209272:0:0:0:0:
36,192,208454,128,0,209272:0:0:0:0:
182,192,208727,128,0,209818:0:0:0:0:
475,192,209000,128,0,209818:0:0:0:0:
402,192,209272,128,0,210363:0:0:0:0:
109,192,209545,128,0,210363:0:0:0:0:
256,192,209818,128,0,210636:0:0:0:0:
36,192,210091,128,0,211181:0:0:0:0:
329,192,210363,128,0,211181:0:0:0:0:
475,192,210636,128,0,211454:0:0:0:0:
182,192,210909,128,0,211727:0:0:0:0:
109,192,211181,128,0,212545:0:0:0:0:
402,192,211181,128,0,212000:0:0:0:0:
256,192,211454,128,0,212272:0:0:0:0:
329,192,211727,128,0,213091:0:0:0:0:
36,192,212000,128,0,212818:0:0:0:0:
475,192,212272,128,0,213363:0:0:0:0:
182,192,212545,128,0,213363:0:0:0:0:
402,192,212818,128,0,213636:0:0:0:0:
256,192,213091,128,0,214181:0:0:0:0:
36,192,213363,128,0,214181:0:0:0:0:
109,192,213636,128,0,214181:0:0:0:0:
182,192,213909,128,0,215272:0:0:0:0:
329,192,214181,128,0,215272:0:0:0:0:
475,192,214454,128,0,215272:0:0:0:0:
402,192,214454,128,0,221000:0:0:0:0:
109,192,215272,128,0,216091:0:0:0:0:
36,192,215272,128,0,221000:0:0:0:0:
256,192,216091,128,0,217727:0:0:0:0:
329,192,216091,1,0,0:0:0:0:
182,192,217727,1,0,0:0:0:0:
329,192,217727,128,0,219363:0:0:0:0:
475,192,221000,128,0,222636:0:0:0:0:
182,192,221000,1,0,0:0:0:0:
182,192,222091,128,0,224272:0:0:0:0:
36,192,222363,128,0,223727:0:0:0:0:
402,192,222636,128,0,223727:0:0:0:0:
109,192,222909,128,0,224000:0:0:0:0:
256,192,223181,128,0,224545:0:0:0:0:
475,192,223727,128,0,224818:0:0:0:0:
329,192,224000,128,0,225636:0:0:0:0:
402,192,224272,128,0,225909:0:0:0:0:
36,192,224545,128,0,226727:0:0:0:0:
109,192,224818,1,0,0:0:0:0:
109,192,225636,128,0,228363:0:0:0:0:
256,192,225909,128,0,226727:0:0:0:0:
475,192,226727,128,0,227272:0:0:0:0:
182,192,227545,128,0,228363:0:0:0:0:
329,192,227818,128,0,228636:0:0:0:0:
402,192,228091,128,0,229181:0:0:0:0:
36,192,228363,128,0,229454:0:0:0:0:
256,192,228636,128,0,229727:0:0:0:0:
475,192,228909,128,0,230000:0:0:0:0:
182,192,229181,128,0,230272:0:0:0:0:
329,192,229454,128,0,230545:0:0:0:0:
109,192,229727,128,0,231363:0:0:0:0:
402,192,230000,128,0,231363:0:0:0:0:
36,192,230272,128,0,231363:0:0:0:0:
256,192,230545,128,0,233000:0:0:0:0:
475,192,230818,128,0,231363:0:0:0:0:
182,192,231363,128,0,233272:0:0:0:0:
329,192,231636,128,0,232591:0:0:0:0:
36,192,233000,128,0,233818:0:0:0:0:
402,192,233272,128,0,233818:0:0:0:0:
109,192,233545,128,0,235181:0:0:0:0:
182,192,233818,128,0,235454:0:0:0:0:
256,192,234091,128,0,235727:0:0:0:0:
475,192,234091,128,0,236272:0:0:0:0:
402,192,235181,128,0,236272:0:0:0:0:
36,192,235454,128,0,236272:0:0:0:0:
109,192,235727,128,0,237091:0:0:0:0:
182,192,236000,128,0,237363:0:0:0:0:
329,192,236272,128,0,237909:0:0:0:0:
256,192,236818,128,0,237909:0:0:0:0:
36,192,237091,128,0,238727:0:0:0:0:
402,192,237363,128,0,239000:0:0:0:0:
475,192,237636,128,0,239818:0:0:0:0:
109,192,237909,1,0,0:0:0:0:
109,192,238727,128,0,241454:0:0:0:0:
182,192,239000,128,0,239818:0:0:0:0:
256,192,239818,128,0,240363:0:0:0:0:
329,192,240363,128,0,240636:0:0:0:0:
36,192,240636,128,0,242272:0:0:0:0:
402,192,240636,128,0,242000:0:0:0:0:
475,192,241454,128,0,242545:0:0:0:0:
182,192,241727,128,0,242818:0:0:0:0:
329,192,242000,128,0,243909:0:0:0:0:
256,192,242272,128,0,243091:0:0:0:0:
109,192,242545,128,0,243909:0:0:0:0:
402,192,242818,128,0,243909:0:0:0:0:
36,192,243091,128,0,244454:0:0:0:0:
475,192,243636,128,0,244454:0:0:0:0:
182,192,243909,128,0,247181:0:0:0:0:
256,192,244454,128,0,247181:0:0:0:0:
402,192,244727,128,0,245954:0:0:0:0:
475,192,246363,128,0,247181:0:0:0:0:
36,192,247181,128,0,252091:0:0:0:0:
109,192,247181,128,0,249636:0:0:0:0:
329,192,248000,128,0,250454:0:0:0:0:
256,192,248818,128,0,250727:0:0:0:0:
182,192,249636,1,0,0:0:0:0:
182,192,250454,128,0,252091:0:0:0:0:
402,192,250727,128,0,251545:0:0:0:0:
109,192,251000,128,0,251818:0:0:0:0:
329,192,251272,128,0,252091:0:0:0:0:
256,192,251545,128,0,252363:0:0:0:0:
475,192,251818,128,0,252636:0:0:0:0:
402,192,252091,128,0,253181:0:0:0:0:
109,192,252363,128,0,253181:0:0:0:0:
329,192,252636,128,0,254545:0:0:0:0:
256,192,252909,128,0,255363:0:0:0:0:
475,192,253181,128,0,255363:0:0:0:0:
182,192,253454,128,0,257000:0:0:0:0:
36,192,254545,128,0,255363:0:0:0:0:
109,192,255363,128,0,256181:0:0:0:0:
402,192,256181,128,0,257000:0:0:0:0:
475,192,257000,128,0,257818:0:0:0:0:
329,192,257272,128,0,258636:0:0:0:0:
256,192,257545,128,0,258909:0:0:0:0:
36,192,257818,128,0,258636:0:0:0:0:
182,192,258636,128,0,259454:0:0:0:0:
475,192,258909,128,0,260000:0:0:0:0:
402,192,259181,128,0,260000:0:0:0:0:
329,192,259454,128,0,260272:0:0:0:0:
256,192,259727,128,0,260545:0:0:0:0:
109,192,260000,128,0,260818:0:0:0:0:
36,192,260272,128,0,261363:0:0:0:0:
182,192,260272,128,0,261091:0:0:0:0:
402,192,260545,128,0,261909:0:0:0:0:
475,192,260818,128,0,261636:0:0:0:0:
329,192,261091,128,0,261909:0:0:0:0:
256,192,261363,128,0,262181:0:0:0:0:
109,192,261636,128,0,262454:0:0:0:0:
182,192,261909,128,0,262727:0:0:0:0:
36,192,262181,128,0,263000:0:0:0:0:
475,192,262454,128,0,263272:0:0:0:0:
256,192,262727,128,0,263545:0:0:0:0:
109,192,263000,128,0,263818:0:0:0:0:
402,192,263272,128,0,264091:0:0:0:0:
329,192,263545,128,0,263818:0:0:0:0:
36,192,263818,128,0,264091:0:0:0:0:
475,192,264091,128,0,264363:0:0:0:0:
182,192,264363,128,0,264636:0:0:0:0:
109,192,264636,128,0,264909:0:0:0:0:
402,192,264909,128,0,265181:0:0:0:0:
329,192,265181,128,0,266818:0:0:0:0:
36,192,265454,128,0,266272:0:0:0:0:
256,192,265727,128,0,266272:0:0:0:0:
475,192,266000,128,0,266545:0:0:0:0:
182,192,266272,128,0,266818:0:0:0:0:
109,192,266545,128,0,266818:0:0:0:0:
256,192,266818,1,0,0:0:0:0:
402,192,266818,1,0,0:0:0:0:
