osu file format v14

[General]
AudioFilename: audio.mp3
AudioLeadIn: 2500
PreviewTime: 56272
Countdown: 0
SampleSet: None
StackLeniency: 0.7
Mode: 3
LetterboxInBreaks: 0
SpecialStyle: 0
WidescreenStoryboard: 1

[Editor]
DistanceSpacing: 0.8
BeatDivisor: 2
GridSize: 4
TimelineZoom: 0.8399998

[Metadata]
Title:Katayoku No Tori
TitleUnicode:片翼の鳥
Artist:Hommarju feat. mamiko
ArtistUnicode:Hommarju feat. mamiko
Creator:semyon422
Version:LN lv.2 10K 2nd Twilight
Source:Exit Trance
Tags:Umineko No Naku Koro Ni Katayoku No Tori Gexigamma
BeatmapID:1738573
BeatmapSetID:829848

[Difficulty]
HPDrainRate:7
CircleSize:10
OverallDifficulty:7
ApproachRate:5
SliderMultiplier:1.4
SliderTickRate:1

[Events]
//Background and Video events
0,0,"background.jpg",0,0
//Break Periods
//Storyboard Layer 0 (Background)
//Storyboard Layer 1 (Fail)
//Storyboard Layer 2 (Pass)
//Storyboard Layer 3 (Foreground)
//Storyboard Sound Samples

[TimingPoints]
91,272.727272727273,3,2,0,20,1,0
57363,-100,3,2,0,20,0,1
88454,-100,3,2,0,20,0,0
221000,-100,3,2,0,20,0,1
266818,-100,3,2,0,20,0,0

[HitObjects]
435,192,91,128,0,1454:0:0:0:0:
179,192,91,1,0,0:0:0:0:
179,192,363,128,0,2818:0:0:0:0:
332,192,500,128,0,2000:0:0:0:0:
76,192,500,1,0,0:0:0:0:
76,192,909,128,0,2818:0:0:0:0:
384,192,1181,128,0,2136:0:0:0:0:
281,192,1454,128,0,2545:0:0:0:0:
230,192,1727,128,0,2818:0:0:0:0:
486,192,1727,1,0,0:0:0:0:
486,192,2000,128,0,3772:0:0:0:0:
128,192,2136,1,0,0:0:0:0:
25,192,2136,128,0,3091:0:0:0:0:
128,192,2545,128,0,4454:0:0:0:0:
435,192,2818,128,0,3636:0:0:0:0:
332,192,3091,128,0,3772:0:0:0:0:
384,192,3363,128,0,4181:0:0:0:0:
281,192,3363,1,0,0:0:0:0:
281,192,3636,128,0,5818:0:0:0:0:
230,192,3772,128,0,4727:0:0:0:0:
25,192,3772,128,0,4727:0:0:0:0:
435,192,4181,128,0,5000:0:0:0:0:
332,192,4454,128,0,5272:0:0:0:0:
76,192,4727,128,0,5818:0:0:0:0:
179,192,5000,128,0,6091:0:0:0:0:
384,192,5000,128,0,6091:0:0:0:0:
25,192,5272,128,0,6363:0:0:0:0:
230,192,5545,128,0,6363:0:0:0:0:
486,192,5818,128,0,6500:0:0:0:0:
435,192,5818,128,0,6636:0:0:0:0:
332,192,6091,128,0,6909:0:0:0:0:
128,192,6363,128,0,7727:0:0:0:0:
76,192,6500,128,0,7454:0:0:0:0:
179,192,6636,128,0,7727:0:0:0:0:
384,192,6636,128,0,7454:0:0:0:0:
230,192,6909,128,0,8000:0:0:0:0:
25,192,7045,128,0,8000:0:0:0:0:
486,192,7045,128,0,8681:0:0:0:0:
435,192,7454,128,0,8545:0:0:0:0:
281,192,7727,128,0,8681:0:0:0:0:
332,192,8000,128,0,9363:0:0:0:0:
384,192,8272,128,0,9091:0:0:0:0:
76,192,8272,128,0,9091:0:0:0:0:
179,192,8545,128,0,9909:0:0:0:0:
25,192,8681,128,0,9636:0:0:0:0:
230,192,8681,128,0,9909:0:0:0:0:
128,192,9091,128,0,10181:0:0:0:0:
435,192,9363,128,0,11000:0:0:0:0:
281,192,9636,128,0,10727:0:0:0:0:
76,192,9909,128,0,10727:0:0:0:0:
384,192,9909,128,0,11000:0:0:0:0:
486,192,10181,128,0,11272:0:0:0:0:
25,192,10318,128,0,11545:0:0:0:0:
332,192,10318,128,0,11545:0:0:0:0:
230,192,10727,128,0,12091:0:0:0:0:
179,192,11000,128,0,12363:0:0:0:0:
128,192,11272,128,0,12091:0:0:0:0:
76,192,11545,128,0,13181:0:0:0:0:
281,192,11545,128,0,12363:0:0:0:0:
384,192,11818,128,0,14000:0:0:0:0:
486,192,12091,128,0,13181:0:0:0:0:
435,192,12363,128,0,13181:0:0:0:0:
332,192,12363,1,0,0:0:0:0:
25,192,12636,1,0,0:0:0:0:
332,192,12636,128,0,15636:0:0:0:0:
25,192,12909,1,0,0:0:0:0:
128,192,12909,128,0,15636:0:0:0:0:
281,192,13181,128,0,15636:0:0:0:0:
25,192,13181,128,0,14000:0:0:0:0:
230,192,14000,128,0,14818:0:0:0:0:
179,192,14818,128,0,15363:0:0:0:0:
435,192,15363,128,0,17272:0:0:0:0:
486,192,15636,128,0,16181:0:0:0:0:
76,192,16181,128,0,18091:0:0:0:0:
384,192,16454,128,0,17272:0:0:0:0:
281,192,17272,128,0,18091:0:0:0:0:
128,192,18091,128,0,18636:0:0:0:0:
332,192,18636,128,0,20000:0:0:0:0:
435,192,18909,128,0,19727:0:0:0:0:
25,192,19727,128,0,21363:0:0:0:0:
76,192,19727,128,0,21363:0:0:0:0:
179,192,20000,128,0,21091:0:0:0:0:
230,192,20272,128,0,21363:0:0:0:0:
486,192,20545,128,0,22181:0:0:0:0:
332,192,20818,128,0,21909:0:0:0:0:
384,192,21091,128,0,22181:0:0:0:0:
128,192,21363,128,0,22454:0:0:0:0:
281,192,21636,128,0,23000:0:0:0:0:
179,192,21909,128,0,23272:0:0:0:0:
435,192,22181,128,0,23545:0:0:0:0:
230,192,22454,128,0,23818:0:0:0:0:
25,192,22727,128,0,23818:0:0:0:0:
76,192,23000,128,0,24091:0:0:0:0:
332,192,23000,128,0,24363:0:0:0:0:
384,192,23272,128,0,24363:0:0:0:0:
128,192,23545,128,0,24636:0:0:0:0:
486,192,23818,128,0,24909:0:0:0:0:
281,192,24091,128,0,25181:0:0:0:0:
179,192,24363,128,0,25181:0:0:0:0:
25,192,24636,128,0,25454:0:0:0:0:
435,192,24636,128,0,25454:0:0:0:0:
230,192,24909,128,0,25727:0:0:0:0:
76,192,25181,128,0,26000:0:0:0:0:
384,192,25454,128,0,26272:0:0:0:0:
128,192,25454,128,0,26818:0:0:0:0:
332,192,25727,128,0,26545:0:0:0:0:
486,192,25727,128,0,26818:0:0:0:0:
281,192,26000,128,0,27091:0:0:0:0:
179,192,26000,128,0,27363:0:0:0:0:
25,192,26272,128,0,27636:0:0:0:0:
435,192,26272,128,0,29272:0:0:0:0:
230,192,26545,128,0,28181:0:0:0:0:
76,192,26818,128,0,27909:0:0:0:0:
384,192,27091,128,0,28727:0:0:0:0:
332,192,27363,128,0,28454:0:0:0:0:
486,192,27636,128,0,28727:0:0:0:0:
128,192,27909,128,0,28727:0:0:0:0:
281,192,28181,128,0,29272:0:0:0:0:
179,192,28454,128,0,29545:0:0:0:0:
76,192,28727,128,0,30091:0:0:0:0:
25,192,29000,128,0,30909:0:0:0:0:
332,192,29272,128,0,30363:0:0:0:0:
128,192,29545,128,0,32000:0:0:0:0:
230,192,29545,128,0,30636:0:0:0:0:
486,192,29818,128,0,30909:0:0:0:0:
384,192,30091,128,0,31181:0:0:0:0:
281,192,30363,128,0,31454:0:0:0:0:
179,192,30636,128,0,32000:0:0:0:0:
435,192,30909,128,0,32272:0:0:0:0:
332,192,31181,128,0,32272:0:0:0:0:
76,192,31454,128,0,32545:0:0:0:0:
230,192,31727,128,0,32545:0:0:0:0:
486,192,32000,128,0,32681:0:0:0:0:
384,192,32272,128,0,33091:0:0:0:0:
281,192,32409,128,0,33091:0:0:0:0:
25,192,32545,128,0,33091:0:0:0:0:
179,192,32681,128,0,33909:0:0:0:0:
435,192,32818,128,0,33909:0:0:0:0:
332,192,32818,128,0,33636:0:0:0:0:
230,192,33091,128,0,34727:0:0:0:0:
76,192,33363,128,0,34181:0:0:0:0:
128,192,33363,128,0,34454:0:0:0:0:
486,192,33636,128,0,35000:0:0:0:0:
25,192,33909,128,0,34727:0:0:0:0:
281,192,34181,128,0,35000:0:0:0:0:
384,192,34454,128,0,35272:0:0:0:0:
332,192,34454,128,0,35545:0:0:0:0:
435,192,34727,128,0,36091:0:0:0:0:
179,192,35000,128,0,36091:0:0:0:0:
76,192,35000,128,0,36091:0:0:0:0:
128,192,35272,128,0,36363:0:0:0:0:
25,192,35545,128,0,36636:0:0:0:0:
281,192,35818,128,0,36909:0:0:0:0:
486,192,36091,128,0,36909:0:0:0:0:
384,192,36091,128,0,36909:0:0:0:0:
230,192,36363,128,0,37454:0:0:0:0:
332,192,36636,128,0,38000:0:0:0:0:
179,192,36909,128,0,38000:0:0:0:0:
76,192,36909,128,0,37727:0:0:0:0:
435,192,37181,128,0,38272:0:0:0:0:
128,192,37454,128,0,38818:0:0:0:0:
25,192,37727,128,0,39091:0:0:0:0:
486,192,37727,128,0,38545:0:0:0:0:
384,192,37727,128,0,38545:0:0:0:0:
281,192,38000,128,0,39091:0:0:0:0:
230,192,38272,128,0,39363:0:0:0:0:
76,192,38545,128,0,39091:0:0:0:0:
179,192,38818,128,0,39772:0:0:0:0:
332,192,39091,128,0,40454:0:0:0:0:
486,192,39363,1,0,0:0:0:0:
435,192,39363,1,0,0:0:0:0:
486,192,39772,128,0,43045:0:0:0:0:
435,192,39772,128,0,42636:0:0:0:0:
128,192,40181,128,0,43045:0:0:0:0:
281,192,40181,128,0,42636:0:0:0:0:
230,192,40454,128,0,41818:0:0:0:0:
179,192,40454,128,0,42636:0:0:0:0:
25,192,41000,128,0,43045:0:0:0:0:
384,192,41818,128,0,43727:0:0:0:0:
332,192,42636,1,0,0:0:0:0:
230,192,42636,1,0,0:0:0:0:
332,192,43045,128,0,47272:0:0:0:0:
230,192,43045,1,0,0:0:0:0:
76,192,43454,128,0,45091:0:0:0:0:
230,192,43454,128,0,47272:0:0:0:0:
179,192,43727,128,0,46727:0:0:0:0:
281,192,43727,128,0,47000:0:0:0:0:
25,192,44272,128,0,46727:0:0:0:0:
435,192,45091,128,0,46727:0:0:0:0:
486,192,45909,128,0,46454:0:0:0:0:
128,192,45909,128,0,46454:0:0:0:0:
384,192,46727,128,0,48363:0:0:0:0:
76,192,47000,128,0,48909:0:0:0:0:
435,192,47272,128,0,49727:0:0:0:0:
25,192,47545,128,0,49591:0:0:0:0:
179,192,48363,128,0,49591:0:0:0:0:
128,192,48636,128,0,50000:0:0:0:0:
281,192,48909,128,0,50545:0:0:0:0:
384,192,49181,128,0,50545:0:0:0:0:
486,192,49591,128,0,50545:0:0:0:0:
230,192,49727,128,0,52181:0:0:0:0:
332,192,50000,128,0,52181:0:0:0:0:
76,192,50409,128,0,52454:0:0:0:0:
179,192,50545,128,0,56272:0:0:0:0:
25,192,50818,128,0,51363:0:0:0:0:
128,192,51636,128,0,52181:0:0:0:0:
435,192,52181,128,0,57091:0:0:0:0:
486,192,52454,128,0,55727:0:0:0:0:
384,192,56272,128,0,56545:0:0:0:0:
281,192,56545,128,0,56818:0:0:0:0:
332,192,56818,128,0,57091:0:0:0:0:
230,192,57091,128,0,57363:0:0:0:0:
179,192,57363,128,0,58727:0:0:0:0:
76,192,57363,128,0,58454:0:0:0:0:
25,192,57636,128,0,59000:0:0:0:0:
128,192,57909,128,0,59272:0:0:0:0:
486,192,58181,1,0,0:0:0:0:
435,192,58181,1,0,0:0:0:0:
486,192,58454,128,0,60636:0:0:0:0:
435,192,58454,128,0,60363:0:0:0:0:
281,192,58727,128,0,59818:0:0:0:0:
384,192,59000,128,0,59818:0:0:0:0:
230,192,59272,1,0,0:0:0:0:
332,192,59272,128,0,60091:0:0:0:0:
76,192,59545,128,0,60363:0:0:0:0:
230,192,59545,128,0,61727:0:0:0:0:
179,192,59818,128,0,60636:0:0:0:0:
25,192,60091,128,0,60909:0:0:0:0:
128,192,60363,128,0,61181:0:0:0:0:
384,192,60363,128,0,61454:0:0:0:0:
281,192,60636,128,0,61454:0:0:0:0:
332,192,60909,128,0,61727:0:0:0:0:
76,192,60909,1,0,0:0:0:0:
179,192,61181,128,0,62272:0:0:0:0:
76,192,61181,128,0,63091:0:0:0:0:
25,192,61454,128,0,62545:0:0:0:0:
128,192,61727,128,0,62545:0:0:0:0:
435,192,62000,128,0,63363:0:0:0:0:
281,192,62272,128,0,63363:0:0:0:0:
384,192,62272,128,0,63636:0:0:0:0:
332,192,62545,128,0,63363:0:0:0:0:
486,192,62818,128,0,63772:0:0:0:0:
179,192,63091,128,0,63909:0:0:0:0:
128,192,63363,128,0,64181:0:0:0:0:
25,192,63636,128,0,64727:0:0:0:0:
230,192,63772,128,0,64727:0:0:0:0:
281,192,63909,128,0,65000:0:0:0:0:
332,192,63909,128,0,65545:0:0:0:0:
435,192,64181,128,0,65272:0:0:0:0:
384,192,64454,128,0,65545:0:0:0:0:
486,192,64727,128,0,65818:0:0:0:0:
76,192,64727,128,0,66363:0:0:0:0:
179,192,65000,128,0,65818:0:0:0:0:
128,192,65272,1,0,0:0:0:0:
128,192,65545,128,0,67727:0:0:0:0:
230,192,65545,128,0,66363:0:0:0:0:
281,192,65818,128,0,66636:0:0:0:0:
25,192,66091,1,0,0:0:0:0:
25,192,66363,128,0,68272:0:0:0:0:
435,192,66363,128,0,67454:0:0:0:0:
179,192,66636,128,0,67454:0:0:0:0:
384,192,66636,128,0,67454:0:0:0:0:
486,192,66909,128,0,67727:0:0:0:0:
332,192,67181,128,0,68000:0:0:0:0:
230,192,67181,128,0,68000:0:0:0:0:
281,192,67454,128,0,68545:0:0:0:0:
76,192,67727,128,0,68545:0:0:0:0:
179,192,68000,128,0,69363:0:0:0:0:
384,192,68000,128,0,69091:0:0:0:0:
486,192,68272,128,0,69909:0:0:0:0:
435,192,68545,128,0,69363:0:0:0:0:
230,192,68818,128,0,69909:0:0:0:0:
332,192,68818,128,0,69909:0:0:0:0:
76,192,69091,1,0,0:0:0:0:
76,192,69363,1,0,0:0:0:0:
281,192,69363,128,0,70454:0:0:0:0:
128,192,69636,128,0,70454:0:0:0:0:
76,192,69636,128,0,71272:0:0:0:0:
25,192,69909,128,0,71272:0:0:0:0:
384,192,69909,128,0,71272:0:0:0:0:
435,192,70181,1,0,0:0:0:0:
435,192,70454,128,0,72363:0:0:0:0:
179,192,70454,128,0,71272:0:0:0:0:
230,192,70727,128,0,71545:0:0:0:0:
332,192,71000,128,0,71818:0:0:0:0:
486,192,71272,128,0,72091:0:0:0:0:
128,192,71272,1,0,0:0:0:0:
128,192,71545,128,0,73454:0:0:0:0:
281,192,71545,128,0,72363:0:0:0:0:
179,192,71818,128,0,72636:0:0:0:0:
230,192,72091,128,0,72909:0:0:0:0:
332,192,72363,128,0,73454:0:0:0:0:
25,192,72363,128,0,72909:0:0:0:0:
384,192,72636,128,0,73454:0:0:0:0:
486,192,72909,128,0,73727:0:0:0:0:
76,192,72909,128,0,74000:0:0:0:0:
179,192,73181,128,0,74818:0:0:0:0:
281,192,73181,128,0,74000:0:0:0:0:
25,192,73454,128,0,74818:0:0:0:0:
230,192,73727,128,0,74545:0:0:0:0:
435,192,74000,128,0,75091:0:0:0:0:
384,192,74000,128,0,75363:0:0:0:0:
332,192,74272,128,0,75091:0:0:0:0:
486,192,74272,128,0,75091:0:0:0:0:
281,192,74545,128,0,75909:0:0:0:0:
76,192,74818,128,0,75909:0:0:0:0:
128,192,75091,128,0,75909:0:0:0:0:
230,192,75363,128,0,76181:0:0:0:0:
332,192,75636,128,0,76727:0:0:0:0:
435,192,75909,128,0,77000:0:0:0:0:
486,192,75909,128,0,76727:0:0:0:0:
25,192,76181,128,0,77000:0:0:0:0:
179,192,76181,128,0,76863:0:0:0:0:
384,192,76454,128,0,77000:0:0:0:0:
128,192,76454,128,0,77545:0:0:0:0:
76,192,76727,128,0,77545:0:0:0:0:
230,192,76863,128,0,77818:0:0:0:0:
281,192,77000,128,0,78091:0:0:0:0:
486,192,77000,128,0,78363:0:0:0:0:
179,192,77272,128,0,78363:0:0:0:0:
332,192,77545,128,0,78636:0:0:0:0:
25,192,77818,128,0,78909:0:0:0:0:
384,192,77818,128,0,78636:0:0:0:0:
435,192,78091,128,0,78909:0:0:0:0:
76,192,78363,128,0,79727:0:0:0:0:
230,192,78636,128,0,79727:0:0:0:0:
128,192,78636,128,0,79454:0:0:0:0:
281,192,78909,128,0,79727:0:0:0:0:
179,192,79181,128,0,80272:0:0:0:0:
384,192,79454,128,0,80818:0:0:0:0:
486,192,79454,128,0,80272:0:0:0:0:
435,192,79727,128,0,80545:0:0:0:0:
332,192,79727,128,0,80818:0:0:0:0:
25,192,80000,128,0,81091:0:0:0:0:
281,192,80272,1,0,0:0:0:0:
128,192,80272,128,0,81363:0:0:0:0:
230,192,80545,128,0,82181:0:0:0:0:
281,192,80545,128,0,82591:0:0:0:0:
76,192,80818,128,0,81636:0:0:0:0:
486,192,81091,128,0,81909:0:0:0:0:
179,192,81091,128,0,82181:0:0:0:0:
435,192,81363,128,0,82318:0:0:0:0:
332,192,81636,128,0,82454:0:0:0:0:
384,192,81909,128,0,82727:0:0:0:0:
25,192,81909,128,0,82591:0:0:0:0:
76,192,82181,128,0,82863:0:0:0:0:
128,192,82318,128,0,82863:0:0:0:0:
486,192,82454,128,0,83272:0:0:0:0:
179,192,82591,128,0,83818:0:0:0:0:
435,192,82727,128,0,83545:0:0:0:0:
230,192,82863,128,0,84091:0:0:0:0:
332,192,83000,128,0,84091:0:0:0:0:
25,192,83136,128,0,84909:0:0:0:0:
384,192,83272,128,0,84636:0:0:0:0:
128,192,83545,128,0,88454:0:0:0:0:
76,192,83818,1,0,0:0:0:0:
76,192,84091,128,0,86000:0:0:0:0:
281,192,84363,128,0,85454:0:0:0:0:
486,192,84636,128,0,86000:0:0:0:0:
435,192,84909,128,0,85863:0:0:0:0:
332,192,85181,128,0,86000:0:0:0:0:
230,192,85454,128,0,86272:0:0:0:0:
179,192,85591,128,0,86272:0:0:0:0:
384,192,85863,128,0,86818:0:0:0:0:
281,192,86000,128,0,87363:0:0:0:0:
25,192,86272,128,0,87636:0:0:0:0:
435,192,86545,128,0,87909:0:0:0:0:
179,192,86818,128,0,87909:0:0:0:0:
332,192,87091,128,0,88454:0:0:0:0:
230,192,87363,128,0,90091:0:0:0:0:
486,192,87636,128,0,88454:0:0:0:0:
384,192,87909,128,0,90363:0:0:0:0:
76,192,88181,128,0,90363:0:0:0:0:
281,192,88454,128,0,90636:0:0:0:0:
25,192,90091,128,0,91181:0:0:0:0:
179,192,90091,1,0,0:0:0:0:
435,192,90363,128,0,91181:0:0:0:0:
179,192,90363,128,0,92272:0:0:0:0:
486,192,90636,128,0,91454:0:0:0:0:
76,192,90909,128,0,92000:0:0:0:0:
332,192,90909,128,0,91727:0:0:0:0:
230,192,91181,128,0,92000:0:0:0:0:
384,192,91454,128,0,92272:0:0:0:0:
281,192,91454,128,0,92272:0:0:0:0:
128,192,91727,128,0,92545:0:0:0:0:
25,192,92000,128,0,92818:0:0:0:0:
435,192,92000,128,0,92818:0:0:0:0:
486,192,92272,128,0,93363:0:0:0:0:
230,192,92545,128,0,93636:0:0:0:0:
332,192,92545,128,0,93363:0:0:0:0:
76,192,92818,128,0,93909:0:0:0:0:
384,192,93091,128,0,93909:0:0:0:0:
281,192,93091,128,0,93909:0:0:0:0:
25,192,93363,128,0,94454:0:0:0:0:
128,192,93363,1,0,0:0:0:0:
435,192,93636,128,0,94454:0:0:0:0:
128,192,93636,128,0,95545:0:0:0:0:
179,192,93909,128,0,95000:0:0:0:0:
332,192,94181,128,0,95272:0:0:0:0:
486,192,94181,128,0,95000:0:0:0:0:
230,192,94454,128,0,95272:0:0:0:0:
281,192,94727,128,0,95818:0:0:0:0:
384,192,94727,128,0,95545:0:0:0:0:
76,192,95000,128,0,96091:0:0:0:0:
25,192,95272,128,0,96091:0:0:0:0:
435,192,95272,128,0,96363:0:0:0:0:
486,192,95545,128,0,96500:0:0:0:0:
179,192,95818,128,0,96909:0:0:0:0:
230,192,95818,128,0,96636:0:0:0:0:
332,192,96091,128,0,96636:0:0:0:0:
384,192,96363,128,0,96909:0:0:0:0:
281,192,96500,128,0,97181:0:0:0:0:
76,192,96636,128,0,97454:0:0:0:0:
25,192,96636,128,0,97727:0:0:0:0:
435,192,96909,128,0,98000:0:0:0:0:
128,192,96909,128,0,97727:0:0:0:0:
486,192,97181,128,0,98818:0:0:0:0:
230,192,97454,128,0,98272:0:0:0:0:
332,192,97454,128,0,98272:0:0:0:0:
384,192,97727,128,0,98818:0:0:0:0:
179,192,98000,128,0,98818:0:0:0:0:
281,192,98000,128,0,99091:0:0:0:0:
76,192,98272,128,0,99091:0:0:0:0:
128,192,98545,128,0,99636:0:0:0:0:
25,192,98545,128,0,99772:0:0:0:0:
435,192,98818,128,0,99772:0:0:0:0:
332,192,99091,128,0,99909:0:0:0:0:
230,192,99091,128,0,100181:0:0:0:0:
179,192,99363,128,0,99909:0:0:0:0:
384,192,99636,128,0,100454:0:0:0:0:
76,192,99772,128,0,100454:0:0:0:0:
486,192,99909,128,0,100727:0:0:0:0:
281,192,99909,1,0,0:0:0:0:
128,192,100181,128,0,101000:0:0:0:0:
281,192,100181,128,0,101818:0:0:0:0:
435,192,100454,128,0,101272:0:0:0:0:
25,192,100727,128,0,101545:0:0:0:0:
179,192,100727,128,0,101545:0:0:0:0:
332,192,101000,128,0,101818:0:0:0:0:
230,192,101272,128,0,102091:0:0:0:0:
76,192,101272,128,0,102091:0:0:0:0:
486,192,101545,128,0,102363:0:0:0:0:
384,192,101545,128,0,102363:0:0:0:0:
435,192,101818,128,0,102636:0:0:0:0:
128,192,101818,128,0,102636:0:0:0:0:
179,192,102091,128,0,103454:0:0:0:0:
332,192,102363,128,0,103181:0:0:0:0:
25,192,102363,128,0,103181:0:0:0:0:
230,192,102636,128,0,103454:0:0:0:0:
384,192,102909,128,0,103727:0:0:0:0:
76,192,102909,128,0,103727:0:0:0:0:
435,192,103181,128,0,104272:0:0:0:0:
281,192,103454,128,0,104272:0:0:0:0:
128,192,103454,128,0,104272:0:0:0:0:
25,192,103727,128,0,104818:0:0:0:0:
486,192,104000,128,0,104818:0:0:0:0:
230,192,104000,128,0,105091:0:0:0:0:
384,192,104272,128,0,105363:0:0:0:0:
76,192,104545,128,0,105636:0:0:0:0:
179,192,104545,128,0,105363:0:0:0:0:
281,192,104818,128,0,106181:0:0:0:0:
128,192,105091,128,0,105909:0:0:0:0:
332,192,105091,128,0,105909:0:0:0:0:
435,192,105363,128,0,106454:0:0:0:0:
25,192,105636,128,0,106727:0:0:0:0:
486,192,105636,128,0,106454:0:0:0:0:
230,192,105909,128,0,106727:0:0:0:0:
179,192,106181,128,0,107000:0:0:0:0:
384,192,106181,128,0,107272:0:0:0:0:
128,192,106454,128,0,107272:0:0:0:0:
76,192,106454,1,0,0:0:0:0:
332,192,106727,128,0,107545:0:0:0:0:
76,192,106727,128,0,108636:0:0:0:0:
486,192,107000,128,0,108091:0:0:0:0:
281,192,107272,128,0,108091:0:0:0:0:
435,192,107272,128,0,108091:0:0:0:0:
230,192,107545,128,0,108363:0:0:0:0:
179,192,107818,128,0,108636:0:0:0:0:
25,192,107818,128,0,108636:0:0:0:0:
384,192,108091,128,0,108909:0:0:0:0:
128,192,108091,128,0,108909:0:0:0:0:
332,192,108363,128,0,109181:0:0:0:0:
435,192,108636,128,0,109454:0:0:0:0:
281,192,108909,128,0,110000:0:0:0:0:
486,192,108909,128,0,109727:0:0:0:0:
230,192,109181,128,0,110545:0:0:0:0:
179,192,109181,128,0,110272:0:0:0:0:
384,192,109454,128,0,110818:0:0:0:0:
25,192,109454,128,0,110272:0:0:0:0:
332,192,109727,128,0,111363:0:0:0:0:
128,192,109727,128,0,116272:0:0:0:0:
435,192,110000,128,0,111363:0:0:0:0:
76,192,110272,128,0,111091:0:0:0:0:
486,192,110545,128,0,112181:0:0:0:0:
281,192,110818,128,0,112181:0:0:0:0:
25,192,111091,128,0,112181:0:0:0:0:
179,192,111363,128,0,112727:0:0:0:0:
76,192,111636,128,0,113272:0:0:0:0:
230,192,111909,128,0,113272:0:0:0:0:
384,192,112181,128,0,113545:0:0:0:0:
435,192,112454,128,0,113272:0:0:0:0:
332,192,112727,128,0,114091:0:0:0:0:
25,192,113000,128,0,114363:0:0:0:0:
281,192,113272,128,0,114909:0:0:0:0:
486,192,113545,128,0,114909:0:0:0:0:
179,192,113818,128,0,114909:0:0:0:0:
435,192,114091,128,0,115454:0:0:0:0:
230,192,114363,128,0,115454:0:0:0:0:
384,192,114636,128,0,116000:0:0:0:0:
76,192,114909,128,0,115727:0:0:0:0:
332,192,115181,128,0,116272:0:0:0:0:
25,192,115454,128,0,116818:0:0:0:0:
179,192,115727,128,0,117091:0:0:0:0:
486,192,116000,128,0,116818:0:0:0:0:
281,192,116272,128,0,117363:0:0:0:0:
76,192,116272,128,0,117909:0:0:0:0:
230,192,116545,128,0,117636:0:0:0:0:
435,192,116818,128,0,118454:0:0:0:0:
384,192,117091,128,0,118181:0:0:0:0:
332,192,117363,128,0,118454:0:0:0:0:
486,192,117636,128,0,119272:0:0:0:0:
25,192,117909,128,0,119272:0:0:0:0:
179,192,118181,128,0,119818:0:0:0:0:
281,192,118454,128,0,119272:0:0:0:0:
230,192,118727,128,0,120363:0:0:0:0:
384,192,119000,128,0,120091:0:0:0:0:
128,192,119272,128,0,120091:0:0:0:0:
332,192,119545,128,0,120909:0:0:0:0:
76,192,119545,128,0,120909:0:0:0:0:
435,192,119818,128,0,120909:0:0:0:0:
281,192,120091,128,0,121454:0:0:0:0:
25,192,120363,128,0,121454:0:0:0:0:
486,192,120636,128,0,121727:0:0:0:0:
128,192,120909,128,0,122272:0:0:0:0:
384,192,121181,128,0,122272:0:0:0:0:
179,192,121454,128,0,122272:0:0:0:0:
230,192,121727,128,0,122818:0:0:0:0:
435,192,122000,128,0,122818:0:0:0:0:
76,192,122000,128,0,122818:0:0:0:0:
332,192,122272,128,0,123227:0:0:0:0:
25,192,122545,128,0,123636:0:0:0:0:
281,192,122818,128,0,123909:0:0:0:0:
486,192,122818,128,0,123909:0:0:0:0:
384,192,123227,128,0,124454:0:0:0:0:
179,192,123227,128,0,124181:0:0:0:0:
76,192,123636,128,0,124727:0:0:0:0:
128,192,123636,128,0,124454:0:0:0:0:
230,192,123909,128,0,125000:0:0:0:0:
332,192,123909,128,0,124727:0:0:0:0:
25,192,124181,128,0,125545:0:0:0:0:
281,192,124454,128,0,125545:0:0:0:0:
486,192,124454,128,0,125272:0:0:0:0:
435,192,124727,128,0,125818:0:0:0:0:
179,192,125000,128,0,125818:0:0:0:0:
384,192,125272,128,0,126091:0:0:0:0:
128,192,125272,128,0,126500:0:0:0:0:
332,192,125545,128,0,126500:0:0:0:0:
76,192,125818,128,0,126909:0:0:0:0:
230,192,126091,128,0,127181:0:0:0:0:
486,192,126091,128,0,127181:0:0:0:0:
281,192,126500,128,0,128000:0:0:0:0:
179,192,126500,128,0,127727:0:0:0:0:
25,192,126909,128,0,127727:0:0:0:0:
435,192,126909,128,0,127727:0:0:0:0:
384,192,127181,128,0,128272:0:0:0:0:
332,192,127181,128,0,128545:0:0:0:0:
128,192,127454,128,0,128818:0:0:0:0:
76,192,127727,128,0,128545:0:0:0:0:
486,192,127727,128,0,128818:0:0:0:0:
230,192,128000,128,0,128818:0:0:0:0:
25,192,128272,128,0,129363:0:0:0:0:
435,192,128545,128,0,129636:0:0:0:0:
179,192,128545,1,0,0:0:0:0:
179,192,128818,128,0,131000:0:0:0:0:
281,192,129091,128,0,130181:0:0:0:0:
230,192,129363,128,0,130181:0:0:0:0:
76,192,129363,128,0,131000:0:0:0:0:
384,192,129363,128,0,130454:0:0:0:0:
486,192,129636,128,0,130454:0:0:0:0:
332,192,129909,128,0,131000:0:0:0:0:
128,192,130181,128,0,131272:0:0:0:0:
25,192,130454,128,0,131545:0:0:0:0:
435,192,130727,128,0,131818:0:0:0:0:
281,192,131000,128,0,131818:0:0:0:0:
230,192,131000,128,0,132500:0:0:0:0:
486,192,131272,128,0,132500:0:0:0:0:
384,192,131545,128,0,132363:0:0:0:0:
332,192,131818,128,0,132500:0:0:0:0:
128,192,132091,128,0,133181:0:0:0:0:
25,192,132363,128,0,133727:0:0:0:0:
281,192,132500,128,0,134000:0:0:0:0:
179,192,132636,128,0,133727:0:0:0:0:
435,192,132636,128,0,133727:0:0:0:0:
384,192,132909,128,0,134545:0:0:0:0:
332,192,133181,128,0,134545:0:0:0:0:
486,192,133454,128,0,134545:0:0:0:0:
76,192,133727,128,0,134545:0:0:0:0:
230,192,134000,128,0,135091:0:0:0:0:
128,192,134272,128,0,135363:0:0:0:0:
179,192,134545,128,0,135363:0:0:0:0:
435,192,134818,128,0,135500:0:0:0:0:
25,192,135091,128,0,135636:0:0:0:0:
76,192,135363,128,0,135772:0:0:0:0:
281,192,135363,128,0,135772:0:0:0:0:
486,192,135500,128,0,136181:0:0:0:0:
332,192,135500,128,0,136454:0:0:0:0:
230,192,135636,128,0,136181:0:0:0:0:
384,192,135636,128,0,136727:0:0:0:0:
128,192,135772,128,0,136454:0:0:0:0:
179,192,135772,128,0,137000:0:0:0:0:
435,192,135909,128,0,137272:0:0:0:0:
25,192,135909,128,0,137545:0:0:0:0:
281,192,136181,128,0,139181:0:0:0:0:
76,192,136454,128,0,137545:0:0:0:0:
230,192,136727,128,0,137545:0:0:0:0:
486,192,137000,128,0,139454:0:0:0:0:
128,192,137272,1,0,0:0:0:0:
332,192,137545,128,0,140000:0:0:0:0:
128,192,137545,1,0,0:0:0:0:
384,192,139181,128,0,140272:0:0:0:0:
128,192,139181,128,0,141636:0:0:0:0:
179,192,139454,128,0,140545:0:0:0:0:
435,192,139727,128,0,140818:0:0:0:0:
76,192,140000,128,0,141091:0:0:0:0:
486,192,140272,128,0,141363:0:0:0:0:
281,192,140545,128,0,141636:0:0:0:0:
230,192,140818,128,0,141909:0:0:0:0:
332,192,140818,128,0,142181:0:0:0:0:
25,192,141091,128,0,141909:0:0:0:0:
179,192,141363,128,0,141909:0:0:0:0:
435,192,141636,128,0,142727:0:0:0:0:
384,192,141909,128,0,143000:0:0:0:0:
76,192,142181,128,0,143272:0:0:0:0:
281,192,142454,128,0,143818:0:0:0:0:
486,192,142454,128,0,143545:0:0:0:0:
25,192,142727,128,0,144363:0:0:0:0:
230,192,143000,128,0,143545:0:0:0:0:
332,192,143272,128,0,144091:0:0:0:0:
435,192,143545,128,0,144636:0:0:0:0:
128,192,143818,128,0,144909:0:0:0:0:
76,192,144091,128,0,144909:0:0:0:0:
384,192,144091,128,0,145454:0:0:0:0:
486,192,144363,128,0,145181:0:0:0:0:
179,192,144636,128,0,145454:0:0:0:0:
281,192,144909,1,0,0:0:0:0:
332,192,144909,128,0,146272:0:0:0:0:
281,192,145181,128,0,147636:0:0:0:0:
435,192,145454,128,0,146272:0:0:0:0:
128,192,145727,128,0,146818:0:0:0:0:
25,192,145727,128,0,146545:0:0:0:0:
486,192,146000,128,0,147363:0:0:0:0:
179,192,146272,128,0,147363:0:0:0:0:
230,192,146545,128,0,147363:0:0:0:0:
384,192,146818,128,0,147909:0:0:0:0:
435,192,147091,128,0,148181:0:0:0:0:
25,192,147363,128,0,149000:0:0:0:0:
332,192,147363,128,0,148181:0:0:0:0:
128,192,147636,128,0,148454:0:0:0:0:
76,192,147909,128,0,148727:0:0:0:0:
230,192,148181,128,0,149000:0:0:0:0:
179,192,148181,128,0,149272:0:0:0:0:
486,192,148454,128,0,150091:0:0:0:0:
384,192,148727,128,0,149818:0:0:0:0:
128,192,149000,128,0,149545:0:0:0:0:
332,192,149000,128,0,149818:0:0:0:0:
435,192,149272,128,0,150091:0:0:0:0:
76,192,149545,128,0,150363:0:0:0:0:
230,192,149818,128,0,150636:0:0:0:0:
281,192,149818,128,0,150636:0:0:0:0:
179,192,150091,128,0,151181:0:0:0:0:
25,192,150363,128,0,151181:0:0:0:0:
384,192,150636,128,0,151454:0:0:0:0:
332,192,150636,128,0,151727:0:0:0:0:
435,192,150909,128,0,152000:0:0:0:0:
76,192,151181,128,0,152545:0:0:0:0:
281,192,151454,128,0,152545:0:0:0:0:
486,192,151454,128,0,152545:0:0:0:0:
25,192,151727,128,0,153091:0:0:0:0:
128,192,152000,128,0,153091:0:0:0:0:
179,192,152272,128,0,153091:0:0:0:0:
384,192,152272,128,0,153909:0:0:0:0:
332,192,152545,128,0,153363:0:0:0:0:
435,192,152818,128,0,153909:0:0:0:0:
230,192,153091,128,0,154727:0:0:0:0:
281,192,153363,128,0,154727:0:0:0:0:
486,192,153636,128,0,154727:0:0:0:0:
76,192,153909,128,0,154727:0:0:0:0:
128,192,153909,128,0,155545:0:0:0:0:
332,192,154181,128,0,155545:0:0:0:0:
25,192,154454,128,0,155000:0:0:0:0:
179,192,154727,128,0,155545:0:0:0:0:
435,192,155000,128,0,156091:0:0:0:0:
384,192,155272,128,0,156091:0:0:0:0:
76,192,155545,128,0,156909:0:0:0:0:
486,192,155545,128,0,156636:0:0:0:0:
281,192,155818,128,0,156909:0:0:0:0:
230,192,156091,128,0,156636:0:0:0:0:
179,192,156363,128,0,157727:0:0:0:0:
332,192,156636,128,0,157727:0:0:0:0:
384,192,156909,128,0,158272:0:0:0:0:
128,192,157181,128,0,158000:0:0:0:0:
435,192,157181,128,0,158000:0:0:0:0:
486,192,157454,128,0,158272:0:0:0:0:
281,192,157727,128,0,158818:0:0:0:0:
230,192,158000,128,0,158818:0:0:0:0:
25,192,158000,128,0,158545:0:0:0:0:
76,192,158272,128,0,159091:0:0:0:0:
332,192,158545,128,0,159636:0:0:0:0:
128,192,158818,128,0,159636:0:0:0:0:
179,192,158818,128,0,159363:0:0:0:0:
486,192,159091,128,0,159909:0:0:0:0:
384,192,159363,128,0,160454:0:0:0:0:
230,192,159636,128,0,161000:0:0:0:0:
281,192,159636,128,0,160454:0:0:0:0:
76,192,159909,128,0,161000:0:0:0:0:
25,192,160181,128,0,161818:0:0:0:0:
128,192,160454,128,0,161545:0:0:0:0:
332,192,160454,128,0,161272:0:0:0:0:
486,192,160727,128,0,161818:0:0:0:0:
435,192,161000,128,0,162363:0:0:0:0:
179,192,161272,128,0,162636:0:0:0:0:
281,192,161272,128,0,161818:0:0:0:0:
384,192,161545,128,0,163181:0:0:0:0:
76,192,161818,128,0,162909:0:0:0:0:
230,192,162091,128,0,163454:0:0:0:0:
332,192,162091,128,0,164272:0:0:0:0:
128,192,162363,128,0,164272:0:0:0:0:
486,192,162636,1,0,0:0:0:0:
486,192,162909,128,0,164000:0:0:0:0:
25,192,163181,128,0,164545:0:0:0:0:
435,192,163454,128,0,164272:0:0:0:0:
76,192,163727,128,0,165091:0:0:0:0:
179,192,164000,128,0,166181:0:0:0:0:
281,192,164272,128,0,166181:0:0:0:0:
384,192,164545,128,0,165363:0:0:0:0:
230,192,164818,128,0,167818:0:0:0:0:
435,192,165091,1,0,0:0:0:0:
435,192,165363,128,0,167000:0:0:0:0:
25,192,166181,128,0,171091:0:0:0:0:
128,192,167000,128,0,168636:0:0:0:0:
332,192,167818,128,0,171091:0:0:0:0:
76,192,168636,128,0,170272:0:0:0:0:
281,192,169454,128,0,173545:0:0:0:0:
179,192,170272,128,0,173545:0:0:0:0:
384,192,171091,128,0,176000:0:0:0:0:
230,192,171909,1,0,0:0:0:0:
230,192,172727,128,0,178454:0:0:0:0:
486,192,173545,128,0,177636:0:0:0:0:
332,192,174363,128,0,178727:0:0:0:0:
25,192,175181,1,0,0:0:0:0:
25,192,176000,128,0,179545:0:0:0:0:
281,192,176818,1,0,0:0:0:0:
281,192,177636,128,0,180909:0:0:0:0:
435,192,178454,128,0,179545:0:0:0:0:
128,192,178727,128,0,179818:0:0:0:0:
76,192,179000,128,0,180091:0:0:0:0:
384,192,179272,128,0,180636:0:0:0:0:
486,192,179545,128,0,180909:0:0:0:0:
179,192,179818,128,0,181181:0:0:0:0:
332,192,180091,128,0,181181:0:0:0:0:
230,192,180363,128,0,181727:0:0:0:0:
435,192,180636,128,0,182000:0:0:0:0:
128,192,180909,128,0,181727:0:0:0:0:
76,192,181181,128,0,182545:0:0:0:0:
25,192,181454,128,0,182818:0:0:0:0:
384,192,181727,128,0,183363:0:0:0:0:
486,192,182000,128,0,183363:0:0:0:0:
332,192,182272,128,0,183909:0:0:0:0:
179,192,182545,128,0,183091:0:0:0:0:
230,192,182818,128,0,183909:0:0:0:0:
435,192,183091,128,0,184454:0:0:0:0:
281,192,183363,128,0,183909:0:0:0:0:
76,192,183636,128,0,185272:0:0:0:0:
128,192,183909,128,0,185000:0:0:0:0:
25,192,184181,128,0,185000:0:0:0:0:
486,192,184454,128,0,185545:0:0:0:0:
384,192,184727,128,0,186091:0:0:0:0:
230,192,185000,128,0,186363:0:0:0:0:
332,192,185272,128,0,186636:0:0:0:0:
179,192,185545,128,0,186636:0:0:0:0:
435,192,185818,128,0,186091:0:0:0:0:
128,192,186091,128,0,186363:0:0:0:0:
281,192,186363,128,0,186636:0:0:0:0:
486,192,186636,128,0,188000:0:0:0:0:
76,192,186909,128,0,188000:0:0:0:0:
384,192,187181,128,0,188545:0:0:0:0:
179,192,187454,128,0,189363:0:0:0:0:
230,192,187727,128,0,188818:0:0:0:0:
332,192,188000,128,0,189363:0:0:0:0:
25,192,188272,128,0,188818:0:0:0:0:
435,192,188545,128,0,189909:0:0:0:0:
281,192,188818,128,0,190181:0:0:0:0:
76,192,189091,128,0,190727:0:0:0:0:
486,192,189363,128,0,190454:0:0:0:0:
384,192,189636,128,0,190727:0:0:0:0:
230,192,189909,128,0,190727:0:0:0:0:
128,192,190181,128,0,191545:0:0:0:0:
332,192,190454,128,0,191545:0:0:0:0:
25,192,190727,128,0,191545:0:0:0:0:
179,192,191000,128,0,192091:0:0:0:0:
435,192,191272,128,0,192636:0:0:0:0:
281,192,191545,128,0,192909:0:0:0:0:
486,192,191545,128,0,193454:0:0:0:0:
384,192,191818,1,0,0:0:0:0:
384,192,192091,1,0,0:0:0:0:
76,192,192091,1,0,0:0:0:0:
384,192,192363,128,0,194818:0:0:0:0:
76,192,192363,128,0,194545:0:0:0:0:
128,192,192636,1,0,0:0:0:0:
332,192,192636,128,0,193727:0:0:0:0:
128,192,192909,128,0,195363:0:0:0:0:
230,192,193181,128,0,194545:0:0:0:0:
179,192,193181,1,0,0:0:0:0:
179,192,193454,1,0,0:0:0:0:
179,192,193727,128,0,195909:0:0:0:0:
435,192,194000,128,0,195091:0:0:0:0:
281,192,194272,128,0,195363:0:0:0:0:
25,192,194545,1,0,0:0:0:0:
25,192,194818,1,0,0:0:0:0:
332,192,194818,128,0,195909:0:0:0:0:
25,192,195091,128,0,197272:0:0:0:0:
486,192,195363,1,0,0:0:0:0:
230,192,195636,128,0,196454:0:0:0:0:
486,192,195636,128,0,198636:0:0:0:0:
435,192,195909,128,0,197000:0:0:0:0:
281,192,196181,128,0,197818:0:0:0:0:
76,192,196454,128,0,197000:0:0:0:0:
332,192,197000,128,0,198091:0:0:0:0:
384,192,197272,128,0,198091:0:0:0:0:
230,192,197818,128,0,198636:0:0:0:0:
435,192,197954,128,0,199181:0:0:0:0:
128,192,198091,128,0,198909:0:0:0:0:
179,192,198363,1,0,0:0:0:0:
179,192,198636,1,0,0:0:0:0:
281,192,198636,1,0,0:0:0:0:
179,192,198909,128,0,201363:0:0:0:0:
281,192,198909,128,0,201363:0:0:0:0:
332,192,199181,128,0,200545:0:0:0:0:
25,192,199181,1,0,0:0:0:0:
25,192,199454,128,0,201909:0:0:0:0:
128,192,199727,128,0,201091:0:0:0:0:
230,192,199727,1,0,0:0:0:0:
230,192,200000,1,0,0:0:0:0:
230,192,200272,128,0,202454:0:0:0:0:
435,192,200545,128,0,201909:0:0:0:0:
384,192,200818,128,0,201909:0:0:0:0:
76,192,201091,1,0,0:0:0:0:
486,192,201363,128,0,202454:0:0:0:0:
76,192,201363,1,0,0:0:0:0:
76,192,201636,128,0,203545:0:0:0:0:
332,192,201909,1,0,0:0:0:0:
332,192,202181,1,0,0:0:0:0:
128,192,202181,128,0,203545:0:0:0:0:
332,192,202454,128,0,204636:0:0:0:0:
384,192,202727,1,0,0:0:0:0:
435,192,203000,128,0,203272:0:0:0:0:
384,192,203000,128,0,205181:0:0:0:0:
486,192,203272,128,0,203545:0:0:0:0:
281,192,203545,128,0,203818:0:0:0:0:
179,192,203818,128,0,204091:0:0:0:0:
25,192,204091,128,0,204363:0:0:0:0:
230,192,204363,128,0,204636:0:0:0:0:
128,192,204636,128,0,205454:0:0:0:0:
435,192,204636,128,0,205727:0:0:0:0:
486,192,204909,128,0,206272:0:0:0:0:
281,192,205181,128,0,206818:0:0:0:0:
76,192,205454,128,0,206545:0:0:0:0:
179,192,205727,128,0,206818:0:0:0:0:
25,192,206000,128,0,207091:0:0:0:0:
230,192,206272,128,0,207909:0:0:0:0:
128,192,206272,128,0,207363:0:0:0:0:
435,192,206545,128,0,207909:0:0:0:0:
332,192,206818,128,0,207909:0:0:0:0:
384,192,207091,128,0,208181:0:0:0:0:
76,192,207363,128,0,208727:0:0:0:0:
486,192,207636,128,0,208727:0:0:0:0:
25,192,207909,128,0,209272:0:0:0:0:
179,192,207909,128,0,209272:0:0:0:0:
128,192,208181,128,0,209272:0:0:0:0:
281,192,208454,128,0,209818:0:0:0:0:
332,192,208727,128,0,210363:0:0:0:0:
384,192,209000,128,0,210363:0:0:0:0:
435,192,209272,128,0,210363:0:0:0:0:
230,192,209545,128,0,210363:0:0:0:0:
486,192,209545,128,0,211181:0:0:0:0:
76,192,209818,128,0,211181:0:0:0:0:
128,192,210091,128,0,211181:0:0:0:0:
25,192,210363,128,0,210636:0:0:0:0:
179,192,210636,128,0,210909:0:0:0:0:
281,192,210909,128,0,211181:0:0:0:0:
230,192,211181,128,0,212272:0:0:0:0:
435,192,211181,128,0,212545:0:0:0:0:
384,192,211454,128,0,213091:0:0:0:0:
332,192,211727,128,0,212818:0:0:0:0:
128,192,212000,128,0,213636:0:0:0:0:
76,192,212272,128,0,213363:0:0:0:0:
25,192,212545,128,0,213636:0:0:0:0:
281,192,212818,128,0,214181:0:0:0:0:
486,192,212818,128,0,213636:0:0:0:0:
230,192,213091,128,0,214727:0:0:0:0:
179,192,213363,128,0,214181:0:0:0:0:
332,192,213636,128,0,214727:0:0:0:0:
435,192,213909,128,0,215000:0:0:0:0:
76,192,214181,128,0,215545:0:0:0:0:
384,192,214454,128,0,215272:0:0:0:0:
486,192,214454,128,0,216091:0:0:0:0:
25,192,214727,128,0,215818:0:0:0:0:
179,192,215000,128,0,216091:0:0:0:0:
128,192,215272,128,0,216363:0:0:0:0:
281,192,215545,128,0,216500:0:0:0:0:
332,192,215818,128,0,216636:0:0:0:0:
384,192,216091,128,0,216909:0:0:0:0:
435,192,216091,128,0,216772:0:0:0:0:
230,192,216227,128,0,216772:0:0:0:0:
25,192,216363,128,0,217181:0:0:0:0:
76,192,216500,128,0,217181:0:0:0:0:
179,192,216636,128,0,217318:0:0:0:0:
486,192,216772,128,0,217591:0:0:0:0:
128,192,216909,128,0,217795:0:0:0:0:
281,192,217045,128,0,217591:0:0:0:0:
332,192,217181,128,0,220181:0:0:0:0:
230,192,217318,128,0,220181:0:0:0:0:
435,192,217454,128,0,220181:0:0:0:0:
384,192,217591,128,0,220454:0:0:0:0:
76,192,217795,128,0,219363:0:0:0:0:
25,192,219909,128,0,220181:0:0:0:0:
179,192,220181,128,0,220454:0:0:0:0:
281,192,220454,128,0,220727:0:0:0:0:
486,192,220727,128,0,221000:0:0:0:0:
128,192,221000,128,0,222091:0:0:0:0:
435,192,221000,128,0,222636:0:0:0:0:
384,192,221272,128,0,222363:0:0:0:0:
230,192,221545,128,0,222909:0:0:0:0:
332,192,221818,1,0,0:0:0:0:
25,192,221818,1,0,0:0:0:0:
332,192,222091,128,0,224000:0:0:0:0:
25,192,222091,128,0,224000:0:0:0:0:
281,192,222363,128,0,223454:0:0:0:0:
179,192,222636,128,0,224000:0:0:0:0:
76,192,222909,128,0,223727:0:0:0:0:
128,192,222909,1,0,0:0:0:0:
128,192,223181,128,0,225091:0:0:0:0:
486,192,223181,128,0,224000:0:0:0:0:
384,192,223454,1,0,0:0:0:0:
384,192,223727,128,0,225909:0:0:0:0:
435,192,224000,128,0,224818:0:0:0:0:
230,192,224000,1,0,0:0:0:0:
230,192,224272,128,0,226454:0:0:0:0:
76,192,224545,128,0,225363:0:0:0:0:
281,192,224545,1,0,0:0:0:0:
486,192,224818,128,0,225636:0:0:0:0:
281,192,224818,128,0,226727:0:0:0:0:
179,192,225091,128,0,225909:0:0:0:0:
435,192,225363,128,0,226454:0:0:0:0:
25,192,225636,128,0,226454:0:0:0:0:
332,192,225909,128,0,226727:0:0:0:0:
76,192,225909,128,0,227000:0:0:0:0:
486,192,226181,128,0,227000:0:0:0:0:
179,192,226454,128,0,227409:0:0:0:0:
128,192,226727,128,0,227818:0:0:0:0:
25,192,227000,128,0,228091:0:0:0:0:
435,192,227272,128,0,227818:0:0:0:0:
332,192,227409,128,0,228636:0:0:0:0:
486,192,227545,128,0,228909:0:0:0:0:
384,192,227545,128,0,228636:0:0:0:0:
76,192,227818,128,0,229181:0:0:0:0:
179,192,228091,128,0,229181:0:0:0:0:
281,192,228363,128,0,229727:0:0:0:0:
230,192,228363,128,0,229454:0:0:0:0:
435,192,228636,128,0,229727:0:0:0:0:
128,192,228909,1,0,0:0:0:0:
128,192,229181,128,0,230818:0:0:0:0:
25,192,229181,128,0,230272:0:0:0:0:
384,192,229454,128,0,230272:0:0:0:0:
332,192,229727,1,0,0:0:0:0:
332,192,230000,128,0,231909:0:0:0:0:
179,192,230000,128,0,231091:0:0:0:0:
230,192,230272,128,0,231091:0:0:0:0:
486,192,230272,128,0,231091:0:0:0:0:
76,192,230545,128,0,231363:0:0:0:0:
435,192,230818,128,0,231636:0:0:0:0:
281,192,230818,128,0,231909:0:0:0:0:
384,192,231091,128,0,232454:0:0:0:0:
25,192,231363,128,0,232181:0:0:0:0:
230,192,231636,128,0,232454:0:0:0:0:
486,192,231636,128,0,232727:0:0:0:0:
76,192,231909,128,0,233000:0:0:0:0:
179,192,232181,128,0,233545:0:0:0:0:
435,192,232454,128,0,233545:0:0:0:0:
128,192,232454,128,0,233818:0:0:0:0:
281,192,232727,1,0,0:0:0:0:
25,192,233000,128,0,234363:0:0:0:0:
281,192,233000,1,0,0:0:0:0:
281,192,233272,128,0,235181:0:0:0:0:
230,192,233272,128,0,234363:0:0:0:0:
332,192,233545,128,0,234363:0:0:0:0:
384,192,233545,128,0,234363:0:0:0:0:
486,192,233818,1,0,0:0:0:0:
486,192,234091,128,0,236000:0:0:0:0:
76,192,234091,128,0,235181:0:0:0:0:
435,192,234363,128,0,235454:0:0:0:0:
179,192,234636,128,0,235454:0:0:0:0:
128,192,234909,128,0,235727:0:0:0:0:
332,192,234909,1,0,0:0:0:0:
384,192,235181,128,0,236000:0:0:0:0:
332,192,235181,128,0,237363:0:0:0:0:
230,192,235454,128,0,236272:0:0:0:0:
25,192,235727,128,0,236545:0:0:0:0:
76,192,236000,128,0,236818:0:0:0:0:
179,192,236000,128,0,236818:0:0:0:0:
435,192,236272,128,0,237636:0:0:0:0:
128,192,236545,128,0,237363:0:0:0:0:
384,192,236545,128,0,237363:0:0:0:0:
281,192,236818,128,0,237636:0:0:0:0:
230,192,236818,128,0,237636:0:0:0:0:
25,192,237091,128,0,237909:0:0:0:0:
76,192,237363,128,0,238454:0:0:0:0:
179,192,237636,128,0,238727:0:0:0:0:
486,192,237636,128,0,238727:0:0:0:0:
128,192,237909,128,0,239545:0:0:0:0:
384,192,237909,128,0,239272:0:0:0:0:
281,192,238181,128,0,239272:0:0:0:0:
230,192,238454,128,0,239272:0:0:0:0:
25,192,238727,128,0,239545:0:0:0:0:
435,192,239000,128,0,239818:0:0:0:0:
332,192,239272,128,0,240091:0:0:0:0:
179,192,239545,128,0,240500:0:0:0:0:
76,192,239545,128,0,240363:0:0:0:0:
486,192,239818,128,0,240500:0:0:0:0:
230,192,239818,128,0,240636:0:0:0:0:
25,192,240091,128,0,241181:0:0:0:0:
281,192,240091,128,0,241181:0:0:0:0:
384,192,240363,128,0,240909:0:0:0:0:
435,192,240500,128,0,241727:0:0:0:0:
128,192,240636,128,0,241454:0:0:0:0:
332,192,240636,128,0,241454:0:0:0:0:
76,192,240909,128,0,242000:0:0:0:0:
486,192,241181,128,0,242272:0:0:0:0:
179,192,241454,128,0,242545:0:0:0:0:
384,192,241454,128,0,242545:0:0:0:0:
230,192,241727,128,0,243091:0:0:0:0:
128,192,242000,128,0,242818:0:0:0:0:
281,192,242272,128,0,243091:0:0:0:0:
332,192,242272,128,0,243636:0:0:0:0:
25,192,242545,128,0,243363:0:0:0:0:
435,192,242818,128,0,243636:0:0:0:0:
486,192,243091,128,0,244181:0:0:0:0:
76,192,243091,128,0,243909:0:0:0:0:
128,192,243363,128,0,244454:0:0:0:0:
179,192,243363,128,0,244454:0:0:0:0:
384,192,243636,128,0,244454:0:0:0:0:
281,192,243909,128,0,245000:0:0:0:0:
25,192,243909,1,0,0:0:0:0:
25,192,244181,128,0,246091:0:0:0:0:
435,192,244181,128,0,245000:0:0:0:0:
230,192,244454,128,0,245545:0:0:0:0:
332,192,244727,128,0,245545:0:0:0:0:
76,192,244727,128,0,245954:0:0:0:0:
486,192,245000,128,0,245954:0:0:0:0:
384,192,245272,128,0,246091:0:0:0:0:
179,192,245545,128,0,246363:0:0:0:0:
128,192,245545,128,0,246227:0:0:0:0:
435,192,245818,128,0,246500:0:0:0:0:
281,192,245954,128,0,246636:0:0:0:0:
332,192,246091,128,0,247181:0:0:0:0:
230,192,246227,128,0,246909:0:0:0:0:
486,192,246363,128,0,247181:0:0:0:0:
76,192,246500,128,0,247181:0:0:0:0:
384,192,246636,128,0,247591:0:0:0:0:
128,192,246772,128,0,248000:0:0:0:0:
179,192,246909,128,0,247181:0:0:0:0:
25,192,247181,128,0,248000:0:0:0:0:
435,192,247454,128,0,248545:0:0:0:0:
281,192,247591,128,0,248409:0:0:0:0:
230,192,247727,128,0,248545:0:0:0:0:
76,192,248000,128,0,248818:0:0:0:0:
486,192,248272,128,0,249091:0:0:0:0:
332,192,248409,128,0,249227:0:0:0:0:
384,192,248545,128,0,249772:0:0:0:0:
25,192,248681,128,0,249636:0:0:0:0:
281,192,248818,128,0,249909:0:0:0:0:
128,192,249091,128,0,249772:0:0:0:0:
230,192,249227,128,0,249909:0:0:0:0:
179,192,249363,128,0,250181:0:0:0:0:
435,192,249636,128,0,250318:0:0:0:0:
76,192,249772,128,0,250727:0:0:0:0:
486,192,249909,128,0,251000:0:0:0:0:
332,192,250045,128,0,250727:0:0:0:0:
25,192,250181,128,0,251000:0:0:0:0:
128,192,250318,128,0,251818:0:0:0:0:
230,192,250454,128,0,251272:0:0:0:0:
281,192,250727,128,0,251818:0:0:0:0:
384,192,250863,128,0,251818:0:0:0:0:
179,192,251000,128,0,252091:0:0:0:0:
435,192,251272,128,0,252363:0:0:0:0:
332,192,251545,128,0,252909:0:0:0:0:
76,192,251818,128,0,252909:0:0:0:0:
230,192,251954,128,0,253181:0:0:0:0:
25,192,252091,128,0,253181:0:0:0:0:
384,192,252363,128,0,253318:0:0:0:0:
486,192,252636,128,0,253454:0:0:0:0:
281,192,252909,128,0,253727:0:0:0:0:
179,192,253045,128,0,253727:0:0:0:0:
128,192,253181,128,0,254136:0:0:0:0:
435,192,253318,128,0,254136:0:0:0:0:
76,192,253454,128,0,254818:0:0:0:0:
332,192,253591,128,0,255091:0:0:0:0:
25,192,253727,128,0,254545:0:0:0:0:
384,192,254000,128,0,255091:0:0:0:0:
230,192,254136,128,0,255091:0:0:0:0:
486,192,254272,128,0,255636:0:0:0:0:
179,192,254545,128,0,255636:0:0:0:0:
281,192,254818,128,0,255909:0:0:0:0:
435,192,255091,128,0,255909:0:0:0:0:
128,192,255227,128,0,256181:0:0:0:0:
25,192,255363,128,0,256318:0:0:0:0:
230,192,255636,128,0,256727:0:0:0:0:
384,192,255772,128,0,256591:0:0:0:0:
76,192,255909,128,0,256591:0:0:0:0:
332,192,256181,128,0,256863:0:0:0:0:
179,192,256318,128,0,257000:0:0:0:0:
486,192,256454,128,0,257409:0:0:0:0:
435,192,256591,128,0,257545:0:0:0:0:
281,192,256727,128,0,258091:0:0:0:0:
128,192,256863,128,0,257545:0:0:0:0:
25,192,257000,128,0,258500:0:0:0:0:
76,192,257272,128,0,258363:0:0:0:0:
384,192,257409,128,0,258363:0:0:0:0:
332,192,257545,128,0,258636:0:0:0:0:
179,192,257818,128,0,259454:0:0:0:0:
230,192,258091,128,0,258909:0:0:0:0:
128,192,258363,128,0,259591:0:0:0:0:
486,192,258500,128,0,259454:0:0:0:0:
435,192,258636,128,0,259591:0:0:0:0:
384,192,258909,128,0,260000:0:0:0:0:
76,192,259181,128,0,260000:0:0:0:0:
281,192,259454,128,0,260136:0:0:0:0:
230,192,259591,128,0,260681:0:0:0:0:
332,192,259727,128,0,260545:0:0:0:0:
25,192,259863,128,0,260681:0:0:0:0:
486,192,260000,128,0,261363:0:0:0:0:
435,192,260136,128,0,261363:0:0:0:0:
179,192,260272,128,0,261363:0:0:0:0:
128,192,260545,128,0,261363:0:0:0:0:
76,192,260681,128,0,262181:0:0:0:0:
384,192,260818,128,0,262181:0:0:0:0:
281,192,261091,1,0,0:0:0:0:
281,192,261363,128,0,263409:0:0:0:0:
332,192,261636,128,0,262454:0:0:0:0:
25,192,261772,128,0,262454:0:0:0:0:
230,192,261909,128,0,263272:0:0:0:0:
128,192,262181,128,0,263136:0:0:0:0:
179,192,262454,128,0,263272:0:0:0:0:
435,192,262727,128,0,263545:0:0:0:0:
486,192,263000,128,0,263545:0:0:0:0:
25,192,263136,128,0,263818:0:0:0:0:
332,192,263272,128,0,263818:0:0:0:0:
384,192,263409,128,0,264091:0:0:0:0:
76,192,263545,128,0,264227:0:0:0:0:
128,192,263681,128,0,264500:0:0:0:0:
179,192,263818,128,0,264500:0:0:0:0:
230,192,263954,128,0,264636:0:0:0:0:
486,192,264091,128,0,264772:0:0:0:0:
435,192,264227,128,0,264909:0:0:0:0:
332,192,264363,128,0,265045:0:0:0:0:
25,192,264500,128,0,265318:0:0:0:0:
281,192,264636,128,0,265454:0:0:0:0:
384,192,264772,128,0,265318:0:0:0:0:
76,192,264909,128,0,265591:0:0:0:0:
179,192,265045,128,0,265727:0:0:0:0:
230,192,265181,128,0,266000:0:0:0:0:
128,192,265318,128,0,266000:0:0:0:0:
486,192,265454,128,0,266136:0:0:0:0:
435,192,265591,128,0,266272:0:0:0:0:
332,192,265727,128,0,266272:0:0:0:0:
384,192,265863,128,0,266409:0:0:0:0:
25,192,266000,128,0,266409:0:0:0:0:
76,192,266136,128,0,266545:0:0:0:0:
281,192,266272,128,0,266545:0:0:0:0:
179,192,266409,128,0,266681:0:0:0:0:
128,192,266545,128,0,266818:0:0:0:0:
486,192,266681,128,0,266818:0:0:0:0:
230,192,266818,1,0,0:0:0:0:
435,192,266818,1,0,0:0:0:0:
