osu file format v14

[General]
AudioFilename: Katayoku No Tori - Beatrice.mp3
AudioLeadIn: 2500
PreviewTime: 56272
Countdown: 0
SampleSet: Soft
StackLeniency: 0.7
Mode: 3
LetterboxInBreaks: 0
SpecialStyle: 0
WidescreenStoryboard: 1

[Editor]
DistanceSpacing: 0.8
BeatDivisor: 4
GridSize: 4
TimelineZoom: 2

[Metadata]
Title:Katayoku No Tori
TitleUnicode:片翼の鳥
Artist:Hommarju feat. mamiko
ArtistUnicode:Hommarju feat. mamiko
Creator:Awang411
Version:7th Twilight
Source:Exit Trance
Tags:Umineko No Naku Koro Ni Katayoku No Tori Gexigamma
BeatmapID:550388
BeatmapSetID:237512

[Difficulty]
HPDrainRate:7
CircleSize:4
OverallDifficulty:7
ApproachRate:5
SliderMultiplier:1.4
SliderTickRate:1

[Events]
//Background and Video events
0,0,"katayoku no tori - bg.jpg",0,0
//Break Periods
//Storyboard Layer 0 (Background)
//Storyboard Layer 1 (Fail)
//Storyboard Layer 2 (Pass)
//Storyboard Layer 3 (Foreground)
//Storyboard Sound Samples

[TimingPoints]
91,272.727272727273,3,2,0,20,1,0
57363,-100,3,2,0,20,0,1
88454,-100,3,2,0,20,0,0
221000,-100,3,2,0,20,0,1
266818,-100,3,2,0,20,0,0

[HitObjects]
64,192,91,5,0,0:0:0:0:
448,192,91,1,0,0:0:0:0:
320,192,159,1,0,0:0:0:0:
192,192,227,1,0,0:0:0:0:
64,192,295,1,0,0:0:0:0:
448,192,363,1,0,0:0:0:0:
320,192,431,1,0,0:0:0:0:
192,192,500,1,0,0:0:0:0:
64,192,568,1,0,0:0:0:0:
448,192,636,1,0,0:0:0:0:
320,192,704,1,0,0:0:0:0:
192,192,772,1,0,0:0:0:0:
64,192,841,1,0,0:0:0:0:
448,192,909,1,0,0:0:0:0:
192,192,977,1,0,0:0:0:0:
320,192,1045,1,0,0:0:0:0:
64,192,1113,1,0,0:0:0:0:
448,192,1181,1,0,0:0:0:0:
192,192,1250,1,0,0:0:0:0:
320,192,1318,1,0,0:0:0:0:
64,192,1386,1,0,0:0:0:0:
448,192,1454,1,0,0:0:0:0:
192,192,1522,1,0,0:0:0:0:
320,192,1591,1,0,0:0:0:0:
64,192,1659,1,0,0:0:0:0:
192,192,1727,1,0,0:0:0:0:
320,192,1795,1,0,0:0:0:0:
448,192,1863,1,0,0:0:0:0:
320,192,1931,1,0,0:0:0:0:
64,192,2000,1,0,0:0:0:0:
192,192,2068,1,0,0:0:0:0:
320,192,2136,1,0,0:0:0:0:
192,192,2204,1,0,0:0:0:0:
448,192,2272,1,0,0:0:0:0:
320,192,2341,1,0,0:0:0:0:
192,192,2409,1,0,0:0:0:0:
64,192,2477,1,0,0:0:0:0:
192,192,2545,1,0,0:0:0:0:
448,192,2613,1,0,0:0:0:0:
320,192,2681,1,0,0:0:0:0:
64,192,2750,1,0,0:0:0:0:
192,192,2818,1,0,0:0:0:0:
448,192,2886,1,0,0:0:0:0:
320,192,2954,1,0,0:0:0:0:
64,192,3022,1,0,0:0:0:0:
192,192,3091,1,0,0:0:0:0:
448,192,3159,1,0,0:0:0:0:
320,192,3227,1,0,0:0:0:0:
64,192,3295,1,0,0:0:0:0:
192,192,3363,1,0,0:0:0:0:
448,192,3363,1,0,0:0:0:0:
320,192,3431,1,0,0:0:0:0:
192,192,3500,1,0,0:0:0:0:
64,192,3568,1,0,0:0:0:0:
320,192,3636,1,0,0:0:0:0:
192,192,3704,1,0,0:0:0:0:
320,192,3772,1,0,0:0:0:0:
448,192,3841,1,0,0:0:0:0:
192,192,3909,1,0,0:0:0:0:
320,192,3977,1,0,0:0:0:0:
192,192,4045,1,0,0:0:0:0:
64,192,4113,1,0,0:0:0:0:
448,192,4181,1,0,0:0:0:0:
320,192,4250,1,0,0:0:0:0:
192,192,4318,1,0,0:0:0:0:
320,192,4386,1,0,0:0:0:0:
64,192,4454,1,0,0:0:0:0:
192,192,4522,1,0,0:0:0:0:
320,192,4591,1,0,0:0:0:0:
192,192,4659,1,0,0:0:0:0:
448,192,4727,1,0,0:0:0:0:
320,192,4795,1,0,0:0:0:0:
192,192,4863,1,0,0:0:0:0:
320,192,4931,1,0,0:0:0:0:
64,192,5000,1,0,0:0:0:0:
192,192,5068,1,0,0:0:0:0:
320,192,5136,1,0,0:0:0:0:
448,192,5204,1,0,0:0:0:0:
320,192,5272,1,0,0:0:0:0:
192,192,5341,1,0,0:0:0:0:
64,192,5409,1,0,0:0:0:0:
192,192,5477,1,0,0:0:0:0:
320,192,5545,1,0,0:0:0:0:
448,192,5613,1,0,0:0:0:0:
320,192,5681,1,0,0:0:0:0:
192,192,5750,1,0,0:0:0:0:
448,192,5818,1,0,0:0:0:0:
320,192,5886,1,0,0:0:0:0:
192,192,5954,1,0,0:0:0:0:
320,192,6022,1,0,0:0:0:0:
192,192,6091,1,0,0:0:0:0:
64,192,6159,1,0,0:0:0:0:
192,192,6227,1,0,0:0:0:0:
320,192,6295,1,0,0:0:0:0:
192,192,6363,1,0,0:0:0:0:
320,192,6431,1,0,0:0:0:0:
448,192,6500,1,0,0:0:0:0:
320,192,6568,1,0,0:0:0:0:
64,192,6636,1,0,0:0:0:0:
448,192,6636,1,0,0:0:0:0:
192,192,6704,1,0,0:0:0:0:
64,192,6772,1,0,0:0:0:0:
320,192,6841,1,0,0:0:0:0:
192,192,6909,1,0,0:0:0:0:
448,192,6977,1,0,0:0:0:0:
320,192,7045,1,0,0:0:0:0:
448,192,7113,1,0,0:0:0:0:
192,192,7181,1,0,0:0:0:0:
320,192,7250,1,0,0:0:0:0:
64,192,7318,1,0,0:0:0:0:
192,192,7386,1,0,0:0:0:0:
320,192,7454,1,0,0:0:0:0:
448,192,7522,1,0,0:0:0:0:
192,192,7591,1,0,0:0:0:0:
320,192,7659,1,0,0:0:0:0:
64,192,7727,1,0,0:0:0:0:
192,192,7795,1,0,0:0:0:0:
64,192,7863,1,0,0:0:0:0:
320,192,7931,1,0,0:0:0:0:
192,192,8000,1,0,0:0:0:0:
448,192,8068,1,0,0:0:0:0:
320,192,8136,1,0,0:0:0:0:
448,192,8204,1,0,0:0:0:0:
64,192,8272,1,0,0:0:0:0:
320,192,8341,1,0,0:0:0:0:
192,192,8409,1,0,0:0:0:0:
448,192,8477,1,0,0:0:0:0:
320,192,8545,1,0,0:0:0:0:
448,192,8613,1,0,0:0:0:0:
192,192,8681,1,0,0:0:0:0:
320,192,8750,1,0,0:0:0:0:
64,192,8818,1,0,0:0:0:0:
192,192,8886,1,0,0:0:0:0:
64,192,8954,1,0,0:0:0:0:
320,192,9022,1,0,0:0:0:0:
192,192,9091,1,0,0:0:0:0:
448,192,9159,1,0,0:0:0:0:
64,192,9227,1,0,0:0:0:0:
320,192,9295,1,0,0:0:0:0:
192,192,9363,1,0,0:0:0:0:
448,192,9431,1,0,0:0:0:0:
64,192,9500,1,0,0:0:0:0:
320,192,9568,1,0,0:0:0:0:
192,192,9636,1,0,0:0:0:0:
448,192,9704,1,0,0:0:0:0:
64,192,9772,1,0,0:0:0:0:
320,192,9841,1,0,0:0:0:0:
448,192,9909,1,0,0:0:0:0:
192,192,9909,1,0,0:0:0:0:
320,192,9977,1,0,0:0:0:0:
192,192,10045,1,0,0:0:0:0:
64,192,10113,1,0,0:0:0:0:
448,192,10181,1,0,0:0:0:0:
320,192,10250,1,0,0:0:0:0:
192,192,10318,1,0,0:0:0:0:
64,192,10386,1,0,0:0:0:0:
448,192,10454,1,0,0:0:0:0:
320,192,10522,1,0,0:0:0:0:
192,192,10591,1,0,0:0:0:0:
64,192,10659,1,0,0:0:0:0:
448,192,10727,1,0,0:0:0:0:
320,192,10795,1,0,0:0:0:0:
64,192,10863,1,0,0:0:0:0:
192,192,10931,1,0,0:0:0:0:
448,192,11000,1,0,0:0:0:0:
320,192,11068,1,0,0:0:0:0:
64,192,11136,1,0,0:0:0:0:
192,192,11204,1,0,0:0:0:0:
448,192,11272,1,0,0:0:0:0:
320,192,11341,1,0,0:0:0:0:
64,192,11409,1,0,0:0:0:0:
192,192,11477,1,0,0:0:0:0:
448,192,11545,1,0,0:0:0:0:
320,192,11545,1,0,0:0:0:0:
64,192,11613,1,0,0:0:0:0:
320,192,11681,1,0,0:0:0:0:
192,192,11750,1,0,0:0:0:0:
448,192,11818,1,0,0:0:0:0:
64,192,11886,1,0,0:0:0:0:
320,192,11954,1,0,0:0:0:0:
192,192,12022,1,0,0:0:0:0:
448,192,12091,1,0,0:0:0:0:
64,192,12159,1,0,0:0:0:0:
320,192,12227,1,0,0:0:0:0:
192,192,12295,1,0,0:0:0:0:
64,192,12363,1,0,0:0:0:0:
320,192,12363,1,0,0:0:0:0:
192,192,12431,1,0,0:0:0:0:
320,192,12500,1,0,0:0:0:0:
448,192,12568,1,0,0:0:0:0:
64,192,12636,1,0,0:0:0:0:
320,192,12636,1,0,0:0:0:0:
192,192,12704,1,0,0:0:0:0:
320,192,12772,1,0,0:0:0:0:
448,192,12841,1,0,0:0:0:0:
64,192,12909,1,0,0:0:0:0:
320,192,12909,1,0,0:0:0:0:
192,192,12977,1,0,0:0:0:0:
320,192,13045,1,0,0:0:0:0:
448,192,13113,1,0,0:0:0:0:
320,192,13181,128,0,13727:0:0:0:0:
448,192,13727,128,0,14000:0:0:0:0:
320,192,14000,128,0,14272:0:0:0:0:
192,192,14272,128,0,14545:0:0:0:0:
64,192,14545,128,0,14818:0:0:0:0:
320,192,14818,128,0,15227:0:0:0:0:
448,192,15227,128,0,15363:0:0:0:0:
64,192,15363,128,0,15636:0:0:0:0:
192,192,15636,128,0,15909:0:0:0:0:
64,192,16181,128,0,16318:0:0:0:0:
192,192,16318,128,0,16454:0:0:0:0:
320,192,16454,128,0,16863:0:0:0:0:
64,192,16863,128,0,17000:0:0:0:0:
192,192,17000,128,0,17272:0:0:0:0:
320,192,17272,128,0,17545:0:0:0:0:
448,192,17545,128,0,17818:0:0:0:0:
320,192,17818,128,0,18091:0:0:0:0:
192,192,18091,128,0,18636:0:0:0:0:
64,192,18636,128,0,18909:0:0:0:0:
320,192,18909,128,0,19318:0:0:0:0:
320,192,19727,128,0,20136:0:0:0:0:
64,192,19727,1,0,0:0:0:0:
448,192,19727,1,0,0:0:0:0:
192,192,19863,1,0,0:0:0:0:
448,192,20000,1,0,0:0:0:0:
64,192,20136,128,0,20272:0:0:0:0:
192,192,20272,128,0,20545:0:0:0:0:
448,192,20409,1,0,0:0:0:0:
320,192,20545,128,0,21091:0:0:0:0:
64,192,20681,1,0,0:0:0:0:
192,192,20818,1,0,0:0:0:0:
448,192,20954,1,0,0:0:0:0:
192,192,21091,1,0,0:0:0:0:
64,192,21227,1,0,0:0:0:0:
192,192,21363,128,0,21772:0:0:0:0:
320,192,21500,1,0,0:0:0:0:
448,192,21636,1,0,0:0:0:0:
320,192,21772,128,0,21909:0:0:0:0:
448,192,21909,128,0,22181:0:0:0:0:
64,192,22045,1,0,0:0:0:0:
320,192,22181,128,0,22454:0:0:0:0:
64,192,22318,1,0,0:0:0:0:
192,192,22454,128,0,22727:0:0:0:0:
448,192,22591,1,0,0:0:0:0:
64,192,22727,128,0,23000:0:0:0:0:
320,192,22863,1,0,0:0:0:0:
448,192,23000,128,0,23545:0:0:0:0:
192,192,23000,1,0,0:0:0:0:
320,192,23136,1,0,0:0:0:0:
64,192,23272,1,0,0:0:0:0:
192,192,23409,1,0,0:0:0:0:
320,192,23545,128,0,23818:0:0:0:0:
192,192,23681,1,0,0:0:0:0:
64,192,23818,128,0,24091:0:0:0:0:
448,192,23954,1,0,0:0:0:0:
192,192,24091,128,0,25181:0:0:0:0:
320,192,24227,1,0,0:0:0:0:
64,192,24363,1,0,0:0:0:0:
320,192,24500,1,0,0:0:0:0:
448,192,24636,1,0,0:0:0:0:
64,192,24636,1,0,0:0:0:0:
320,192,24772,1,0,0:0:0:0:
448,192,24909,1,0,0:0:0:0:
320,192,25045,1,0,0:0:0:0:
64,192,25181,1,0,0:0:0:0:
320,192,25318,1,0,0:0:0:0:
448,192,25454,1,0,0:0:0:0:
64,192,25454,1,0,0:0:0:0:
320,192,25591,1,0,0:0:0:0:
448,192,25727,1,0,0:0:0:0:
64,192,25727,1,0,0:0:0:0:
192,192,25863,1,0,0:0:0:0:
320,192,26000,128,0,26204:0:0:0:0:
64,192,26000,1,0,0:0:0:0:
192,192,26136,1,0,0:0:0:0:
320,192,26272,128,0,26818:0:0:0:0:
448,192,26272,1,0,0:0:0:0:
64,192,26272,1,0,0:0:0:0:
192,192,26409,1,0,0:0:0:0:
448,192,26545,1,0,0:0:0:0:
64,192,26545,1,0,0:0:0:0:
192,192,26681,1,0,0:0:0:0:
448,192,26818,128,0,27091:0:0:0:0:
64,192,26818,1,0,0:0:0:0:
192,192,26954,1,0,0:0:0:0:
320,192,27091,128,0,27363:0:0:0:0:
64,192,27091,1,0,0:0:0:0:
448,192,27227,1,0,0:0:0:0:
192,192,27363,128,0,27636:0:0:0:0:
64,192,27363,1,0,0:0:0:0:
448,192,27500,1,0,0:0:0:0:
64,192,27636,128,0,27909:0:0:0:0:
320,192,27636,1,0,0:0:0:0:
448,192,27772,1,0,0:0:0:0:
320,192,27909,128,0,28318:0:0:0:0:
192,192,27909,1,0,0:0:0:0:
448,192,28045,1,0,0:0:0:0:
64,192,28181,1,0,0:0:0:0:
192,192,28181,1,0,0:0:0:0:
448,192,28318,128,0,28454:0:0:0:0:
64,192,28454,128,0,28727:0:0:0:0:
192,192,28454,1,0,0:0:0:0:
320,192,28591,1,0,0:0:0:0:
192,192,28727,128,0,29000:0:0:0:0:
448,192,28727,1,0,0:0:0:0:
320,192,28863,1,0,0:0:0:0:
448,192,29000,1,0,0:0:0:0:
64,192,29000,1,0,0:0:0:0:
192,192,29136,1,0,0:0:0:0:
64,192,29272,128,0,29409:0:0:0:0:
320,192,29272,1,0,0:0:0:0:
192,192,29409,128,0,29545:0:0:0:0:
320,192,29545,128,0,29954:0:0:0:0:
448,192,29545,1,0,0:0:0:0:
64,192,29545,1,0,0:0:0:0:
192,192,29681,1,0,0:0:0:0:
448,192,29818,1,0,0:0:0:0:
64,192,29818,1,0,0:0:0:0:
64,192,29954,128,0,30091:0:0:0:0:
192,192,30091,128,0,30363:0:0:0:0:
320,192,30091,1,0,0:0:0:0:
448,192,30227,1,0,0:0:0:0:
320,192,30363,128,0,30636:0:0:0:0:
64,192,30363,1,0,0:0:0:0:
192,192,30500,1,0,0:0:0:0:
448,192,30636,128,0,30909:0:0:0:0:
64,192,30636,1,0,0:0:0:0:
192,192,30772,1,0,0:0:0:0:
320,192,30909,128,0,31181:0:0:0:0:
64,192,30909,1,0,0:0:0:0:
448,192,31045,1,0,0:0:0:0:
192,192,31181,128,0,31727:0:0:0:0:
64,192,31181,1,0,0:0:0:0:
448,192,31318,1,0,0:0:0:0:
320,192,31454,1,0,0:0:0:0:
64,192,31454,1,0,0:0:0:0:
448,192,31591,1,0,0:0:0:0:
64,192,31727,128,0,32000:0:0:0:0:
320,192,31727,1,0,0:0:0:0:
448,192,31863,1,0,0:0:0:0:
320,192,32000,128,0,32409:0:0:0:0:
192,192,32000,1,0,0:0:0:0:
448,192,32136,1,0,0:0:0:0:
64,192,32272,1,0,0:0:0:0:
192,192,32272,1,0,0:0:0:0:
448,192,32409,1,0,0:0:0:0:
192,192,32409,1,0,0:0:0:0:
64,192,32545,1,0,0:0:0:0:
192,192,32545,1,0,0:0:0:0:
448,192,32681,1,0,0:0:0:0:
320,192,32681,1,0,0:0:0:0:
64,192,32750,1,0,0:0:0:0:
320,192,32818,128,0,33227:0:0:0:0:
448,192,32818,1,0,0:0:0:0:
64,192,32954,1,0,0:0:0:0:
192,192,33091,1,0,0:0:0:0:
448,192,33091,1,0,0:0:0:0:
64,192,33227,128,0,33363:0:0:0:0:
192,192,33363,128,0,33636:0:0:0:0:
448,192,33363,1,0,0:0:0:0:
64,192,33500,1,0,0:0:0:0:
320,192,33636,128,0,34181:0:0:0:0:
448,192,33636,1,0,0:0:0:0:
64,192,33772,1,0,0:0:0:0:
192,192,33909,1,0,0:0:0:0:
448,192,33909,1,0,0:0:0:0:
64,192,34045,1,0,0:0:0:0:
192,192,34181,1,0,0:0:0:0:
448,192,34181,1,0,0:0:0:0:
64,192,34318,1,0,0:0:0:0:
320,192,34454,128,0,34863:0:0:0:0:
448,192,34454,1,0,0:0:0:0:
64,192,34591,1,0,0:0:0:0:
192,192,34727,1,0,0:0:0:0:
448,192,34727,1,0,0:0:0:0:
192,192,34863,128,0,35000:0:0:0:0:
320,192,35000,128,0,35272:0:0:0:0:
64,192,35000,1,0,0:0:0:0:
192,192,35136,1,0,0:0:0:0:
64,192,35272,1,0,0:0:0:0:
448,192,35272,128,0,35545:0:0:0:0:
320,192,35409,1,0,0:0:0:0:
64,192,35545,128,0,35818:0:0:0:0:
192,192,35545,1,0,0:0:0:0:
320,192,35681,1,0,0:0:0:0:
192,192,35818,128,0,36091:0:0:0:0:
448,192,35818,1,0,0:0:0:0:
320,192,35954,1,0,0:0:0:0:
448,192,36091,128,0,36636:0:0:0:0:
320,192,36091,1,0,0:0:0:0:
64,192,36091,1,0,0:0:0:0:
192,192,36227,1,0,0:0:0:0:
320,192,36363,1,0,0:0:0:0:
64,192,36363,1,0,0:0:0:0:
192,192,36500,1,0,0:0:0:0:
320,192,36636,128,0,36909:0:0:0:0:
192,192,36636,1,0,0:0:0:0:
64,192,36772,1,0,0:0:0:0:
64,192,36909,128,0,37454:0:0:0:0:
192,192,36909,1,0,0:0:0:0:
448,192,36909,1,0,0:0:0:0:
320,192,37045,1,0,0:0:0:0:
320,192,37181,1,0,0:0:0:0:
192,192,37181,1,0,0:0:0:0:
448,192,37318,1,0,0:0:0:0:
192,192,37454,128,0,37659:0:0:0:0:
320,192,37454,1,0,0:0:0:0:
448,192,37591,1,0,0:0:0:0:
192,192,37727,128,0,38545:0:0:0:0:
64,192,37727,1,0,0:0:0:0:
448,192,37727,1,0,0:0:0:0:
64,192,37863,1,0,0:0:0:0:
448,192,37863,1,0,0:0:0:0:
320,192,37931,1,0,0:0:0:0:
64,192,38000,1,0,0:0:0:0:
448,192,38000,1,0,0:0:0:0:
320,192,38136,1,0,0:0:0:0:
64,192,38272,1,0,0:0:0:0:
448,192,38272,1,0,0:0:0:0:
320,192,38409,1,0,0:0:0:0:
320,192,38545,128,0,39363:0:0:0:0:
64,192,38545,1,0,0:0:0:0:
448,192,38545,1,0,0:0:0:0:
192,192,38681,1,0,0:0:0:0:
64,192,38818,1,0,0:0:0:0:
448,192,38818,1,0,0:0:0:0:
192,192,38954,1,0,0:0:0:0:
64,192,39091,1,0,0:0:0:0:
448,192,39091,1,0,0:0:0:0:
192,192,39363,1,0,0:0:0:0:
64,192,39363,1,0,0:0:0:0:
448,192,39363,1,0,0:0:0:0:
64,192,39772,1,0,0:0:0:0:
192,192,39772,1,0,0:0:0:0:
448,192,39772,1,0,0:0:0:0:
64,192,40181,1,0,0:0:0:0:
320,192,40181,1,0,0:0:0:0:
448,192,40181,1,0,0:0:0:0:
192,192,40454,1,0,0:0:0:0:
64,192,40454,1,0,0:0:0:0:
448,192,40454,1,0,0:0:0:0:
320,192,40727,128,0,41000:0:0:0:0:
448,192,41000,128,0,41272:0:0:0:0:
64,192,41000,1,0,0:0:0:0:
320,192,41272,128,0,41545:0:0:0:0:
192,192,41545,128,0,41818:0:0:0:0:
320,192,41818,128,0,42091:0:0:0:0:
448,192,41818,1,0,0:0:0:0:
192,192,42091,128,0,42363:0:0:0:0:
64,192,42363,128,0,42636:0:0:0:0:
192,192,42636,1,0,0:0:0:0:
320,192,42636,1,0,0:0:0:0:
448,192,42636,1,0,0:0:0:0:
192,192,43045,1,0,0:0:0:0:
320,192,43045,1,0,0:0:0:0:
448,192,43045,1,0,0:0:0:0:
64,192,43454,1,0,0:0:0:0:
320,192,43454,1,0,0:0:0:0:
192,192,43454,1,0,0:0:0:0:
192,192,43727,1,0,0:0:0:0:
320,192,43727,1,0,0:0:0:0:
448,192,43727,1,0,0:0:0:0:
320,192,44000,128,0,44204:0:0:0:0:
320,192,44272,128,0,44545:0:0:0:0:
64,192,44272,1,0,0:0:0:0:
64,192,44545,128,0,44818:0:0:0:0:
448,192,44818,128,0,45091:0:0:0:0:
320,192,45091,128,0,45363:0:0:0:0:
192,192,45091,1,0,0:0:0:0:
192,192,45363,128,0,45636:0:0:0:0:
64,192,45636,128,0,45909:0:0:0:0:
192,192,45909,1,0,0:0:0:0:
320,192,45909,1,0,0:0:0:0:
448,192,45909,128,0,46454:0:0:0:0:
320,192,46727,128,0,47000:0:0:0:0:
192,192,47000,128,0,47272:0:0:0:0:
64,192,47272,128,0,47545:0:0:0:0:
320,192,47545,128,0,47954:0:0:0:0:
448,192,48363,128,0,48636:0:0:0:0:
320,192,48636,128,0,48909:0:0:0:0:
192,192,48909,128,0,49181:0:0:0:0:
320,192,49181,128,0,49591:0:0:0:0:
448,192,49591,128,0,49727:0:0:0:0:
64,192,49727,128,0,50000:0:0:0:0:
192,192,50000,128,0,50409:0:0:0:0:
448,192,50409,128,0,50545:0:0:0:0:
64,192,50545,128,0,50818:0:0:0:0:
320,192,50818,128,0,51227:0:0:0:0:
320,192,51636,128,0,52181:0:0:0:0:
448,192,52181,128,0,52386:0:0:0:0:
448,192,52454,128,0,55727:0:0:0:0:
64,192,56272,128,0,56545:0:0:0:0:
320,192,56545,128,0,56818:0:0:0:0:
192,192,56818,128,0,57091:0:0:0:0:
320,192,57091,128,0,57363:0:0:0:0:
64,192,57363,1,0,0:0:0:0:
448,192,57363,1,0,0:0:0:0:
192,192,57431,1,0,0:0:0:0:
320,192,57500,1,0,0:0:0:0:
448,192,57568,1,0,0:0:0:0:
64,192,57636,1,0,0:0:0:0:
192,192,57704,1,0,0:0:0:0:
320,192,57772,1,0,0:0:0:0:
448,192,57841,1,0,0:0:0:0:
64,192,57909,1,0,0:0:0:0:
192,192,57977,1,0,0:0:0:0:
320,192,58045,1,0,0:0:0:0:
448,192,58113,1,0,0:0:0:0:
192,192,58181,1,0,0:0:0:0:
320,192,58250,1,0,0:0:0:0:
64,192,58318,1,0,0:0:0:0:
448,192,58386,1,0,0:0:0:0:
192,192,58454,1,0,0:0:0:0:
320,192,58522,1,0,0:0:0:0:
64,192,58591,1,0,0:0:0:0:
448,192,58659,1,0,0:0:0:0:
192,192,58727,1,0,0:0:0:0:
320,192,58795,1,0,0:0:0:0:
64,192,58863,1,0,0:0:0:0:
448,192,58931,1,0,0:0:0:0:
64,192,59000,1,0,0:0:0:0:
320,192,59068,1,0,0:0:0:0:
192,192,59136,1,0,0:0:0:0:
448,192,59204,1,0,0:0:0:0:
64,192,59272,1,0,0:0:0:0:
320,192,59341,1,0,0:0:0:0:
192,192,59409,1,0,0:0:0:0:
448,192,59477,1,0,0:0:0:0:
64,192,59545,1,0,0:0:0:0:
320,192,59613,1,0,0:0:0:0:
192,192,59681,1,0,0:0:0:0:
448,192,59750,1,0,0:0:0:0:
320,192,59818,1,0,0:0:0:0:
64,192,59886,1,0,0:0:0:0:
448,192,59954,1,0,0:0:0:0:
192,192,60022,1,0,0:0:0:0:
320,192,60091,1,0,0:0:0:0:
64,192,60159,1,0,0:0:0:0:
448,192,60227,1,0,0:0:0:0:
192,192,60295,1,0,0:0:0:0:
320,192,60363,1,0,0:0:0:0:
64,192,60431,1,0,0:0:0:0:
448,192,60500,1,0,0:0:0:0:
192,192,60568,1,0,0:0:0:0:
448,192,60636,1,0,0:0:0:0:
64,192,60636,1,0,0:0:0:0:
320,192,60704,1,0,0:0:0:0:
192,192,60772,1,0,0:0:0:0:
64,192,60841,1,0,0:0:0:0:
448,192,60909,1,0,0:0:0:0:
320,192,60977,1,0,0:0:0:0:
192,192,61045,1,0,0:0:0:0:
64,192,61113,1,0,0:0:0:0:
448,192,61181,1,0,0:0:0:0:
320,192,61250,1,0,0:0:0:0:
192,192,61318,1,0,0:0:0:0:
64,192,61386,1,0,0:0:0:0:
320,192,61454,1,0,0:0:0:0:
192,192,61522,1,0,0:0:0:0:
448,192,61591,1,0,0:0:0:0:
64,192,61659,1,0,0:0:0:0:
320,192,61727,1,0,0:0:0:0:
192,192,61795,1,0,0:0:0:0:
448,192,61863,1,0,0:0:0:0:
64,192,61931,1,0,0:0:0:0:
320,192,62000,1,0,0:0:0:0:
192,192,62068,1,0,0:0:0:0:
320,192,62136,1,0,0:0:0:0:
64,192,62204,1,0,0:0:0:0:
448,192,62272,1,0,0:0:0:0:
192,192,62341,1,0,0:0:0:0:
320,192,62409,1,0,0:0:0:0:
64,192,62477,1,0,0:0:0:0:
448,192,62545,1,0,0:0:0:0:
192,192,62613,1,0,0:0:0:0:
320,192,62681,1,0,0:0:0:0:
64,192,62750,1,0,0:0:0:0:
448,192,62818,1,0,0:0:0:0:
192,192,62886,1,0,0:0:0:0:
320,192,62954,1,0,0:0:0:0:
64,192,63022,1,0,0:0:0:0:
192,192,63091,1,0,0:0:0:0:
448,192,63159,1,0,0:0:0:0:
64,192,63227,1,0,0:0:0:0:
320,192,63295,1,0,0:0:0:0:
192,192,63363,1,0,0:0:0:0:
448,192,63431,1,0,0:0:0:0:
64,192,63500,1,0,0:0:0:0:
320,192,63568,1,0,0:0:0:0:
192,192,63636,1,0,0:0:0:0:
448,192,63704,1,0,0:0:0:0:
64,192,63772,1,0,0:0:0:0:
320,192,63841,1,0,0:0:0:0:
448,192,63909,1,0,0:0:0:0:
64,192,63909,1,0,0:0:0:0:
320,192,63977,1,0,0:0:0:0:
192,192,64045,1,0,0:0:0:0:
320,192,64113,1,0,0:0:0:0:
64,192,64181,1,0,0:0:0:0:
192,192,64250,1,0,0:0:0:0:
320,192,64318,1,0,0:0:0:0:
192,192,64386,1,0,0:0:0:0:
448,192,64454,1,0,0:0:0:0:
320,192,64522,1,0,0:0:0:0:
192,192,64591,1,0,0:0:0:0:
320,192,64659,1,0,0:0:0:0:
192,192,64727,1,0,0:0:0:0:
320,192,64795,1,0,0:0:0:0:
192,192,64863,1,0,0:0:0:0:
64,192,64931,1,0,0:0:0:0:
320,192,65000,1,0,0:0:0:0:
192,192,65068,1,0,0:0:0:0:
320,192,65136,1,0,0:0:0:0:
448,192,65204,1,0,0:0:0:0:
192,192,65272,1,0,0:0:0:0:
320,192,65341,1,0,0:0:0:0:
192,192,65409,1,0,0:0:0:0:
64,192,65477,1,0,0:0:0:0:
192,192,65545,1,0,0:0:0:0:
320,192,65613,1,0,0:0:0:0:
448,192,65681,1,0,0:0:0:0:
320,192,65750,1,0,0:0:0:0:
192,192,65818,1,0,0:0:0:0:
64,192,65886,1,0,0:0:0:0:
192,192,65954,1,0,0:0:0:0:
320,192,66022,1,0,0:0:0:0:
448,192,66091,1,0,0:0:0:0:
320,192,66159,1,0,0:0:0:0:
192,192,66227,1,0,0:0:0:0:
64,192,66295,1,0,0:0:0:0:
320,192,66363,1,0,0:0:0:0:
448,192,66431,1,0,0:0:0:0:
320,192,66500,1,0,0:0:0:0:
192,192,66568,1,0,0:0:0:0:
64,192,66636,1,0,0:0:0:0:
192,192,66704,1,0,0:0:0:0:
320,192,66772,1,0,0:0:0:0:
448,192,66841,1,0,0:0:0:0:
320,192,66909,1,0,0:0:0:0:
192,192,66977,1,0,0:0:0:0:
64,192,67045,1,0,0:0:0:0:
192,192,67113,1,0,0:0:0:0:
320,192,67181,1,0,0:0:0:0:
448,192,67181,1,0,0:0:0:0:
192,192,67250,1,0,0:0:0:0:
64,192,67318,1,0,0:0:0:0:
448,192,67386,1,0,0:0:0:0:
320,192,67454,1,0,0:0:0:0:
192,192,67522,1,0,0:0:0:0:
64,192,67591,1,0,0:0:0:0:
448,192,67659,1,0,0:0:0:0:
320,192,67727,1,0,0:0:0:0:
192,192,67795,1,0,0:0:0:0:
64,192,67863,1,0,0:0:0:0:
192,192,67931,1,0,0:0:0:0:
64,192,68000,1,0,0:0:0:0:
192,192,68068,1,0,0:0:0:0:
320,192,68136,1,0,0:0:0:0:
448,192,68204,1,0,0:0:0:0:
64,192,68272,1,0,0:0:0:0:
192,192,68341,1,0,0:0:0:0:
320,192,68409,1,0,0:0:0:0:
448,192,68477,1,0,0:0:0:0:
64,192,68545,1,0,0:0:0:0:
192,192,68613,1,0,0:0:0:0:
320,192,68681,1,0,0:0:0:0:
448,192,68750,1,0,0:0:0:0:
192,192,68818,1,0,0:0:0:0:
320,192,68886,1,0,0:0:0:0:
64,192,68954,1,0,0:0:0:0:
192,192,69022,1,0,0:0:0:0:
320,192,69091,1,0,0:0:0:0:
448,192,69159,1,0,0:0:0:0:
192,192,69227,1,0,0:0:0:0:
320,192,69295,1,0,0:0:0:0:
64,192,69363,1,0,0:0:0:0:
192,192,69431,1,0,0:0:0:0:
320,192,69500,1,0,0:0:0:0:
448,192,69568,1,0,0:0:0:0:
320,192,69636,1,0,0:0:0:0:
192,192,69704,1,0,0:0:0:0:
448,192,69772,1,0,0:0:0:0:
320,192,69841,1,0,0:0:0:0:
192,192,69909,1,0,0:0:0:0:
64,192,69977,1,0,0:0:0:0:
320,192,70045,1,0,0:0:0:0:
192,192,70113,1,0,0:0:0:0:
448,192,70181,1,0,0:0:0:0:
320,192,70250,1,0,0:0:0:0:
192,192,70318,1,0,0:0:0:0:
64,192,70386,1,0,0:0:0:0:
320,192,70454,1,0,0:0:0:0:
192,192,70454,1,0,0:0:0:0:
448,192,70522,1,0,0:0:0:0:
320,192,70591,1,0,0:0:0:0:
192,192,70659,1,0,0:0:0:0:
320,192,70727,1,0,0:0:0:0:
192,192,70795,1,0,0:0:0:0:
64,192,70863,1,0,0:0:0:0:
192,192,70931,1,0,0:0:0:0:
64,192,71000,1,0,0:0:0:0:
192,192,71068,1,0,0:0:0:0:
320,192,71136,1,0,0:0:0:0:
448,192,71204,1,0,0:0:0:0:
192,192,71272,1,0,0:0:0:0:
64,192,71341,1,0,0:0:0:0:
192,192,71409,1,0,0:0:0:0:
320,192,71477,1,0,0:0:0:0:
192,192,71545,1,0,0:0:0:0:
320,192,71613,1,0,0:0:0:0:
448,192,71681,1,0,0:0:0:0:
320,192,71750,1,0,0:0:0:0:
448,192,71818,1,0,0:0:0:0:
320,192,71886,1,0,0:0:0:0:
192,192,71954,1,0,0:0:0:0:
64,192,72022,1,0,0:0:0:0:
448,192,72091,1,0,0:0:0:0:
320,192,72159,1,0,0:0:0:0:
192,192,72227,1,0,0:0:0:0:
64,192,72295,1,0,0:0:0:0:
192,192,72363,1,0,0:0:0:0:
64,192,72431,1,0,0:0:0:0:
192,192,72500,1,0,0:0:0:0:
320,192,72568,1,0,0:0:0:0:
448,192,72636,1,0,0:0:0:0:
320,192,72704,1,0,0:0:0:0:
448,192,72772,1,0,0:0:0:0:
320,192,72841,1,0,0:0:0:0:
64,192,72909,1,0,0:0:0:0:
192,192,72977,1,0,0:0:0:0:
320,192,73045,1,0,0:0:0:0:
448,192,73113,1,0,0:0:0:0:
320,192,73181,1,0,0:0:0:0:
448,192,73250,1,0,0:0:0:0:
320,192,73318,1,0,0:0:0:0:
192,192,73386,1,0,0:0:0:0:
64,192,73454,1,0,0:0:0:0:
192,192,73522,1,0,0:0:0:0:
64,192,73591,1,0,0:0:0:0:
192,192,73659,1,0,0:0:0:0:
448,192,73727,1,0,0:0:0:0:
64,192,73795,1,0,0:0:0:0:
192,192,73863,1,0,0:0:0:0:
320,192,73931,1,0,0:0:0:0:
64,192,74000,1,0,0:0:0:0:
448,192,74068,1,0,0:0:0:0:
320,192,74136,1,0,0:0:0:0:
192,192,74204,1,0,0:0:0:0:
448,192,74272,1,0,0:0:0:0:
64,192,74341,1,0,0:0:0:0:
192,192,74409,1,0,0:0:0:0:
320,192,74477,1,0,0:0:0:0:
64,192,74545,1,0,0:0:0:0:
448,192,74613,1,0,0:0:0:0:
320,192,74681,1,0,0:0:0:0:
192,192,74750,1,0,0:0:0:0:
64,192,74818,1,0,0:0:0:0:
448,192,74886,1,0,0:0:0:0:
320,192,74954,1,0,0:0:0:0:
192,192,75022,1,0,0:0:0:0:
64,192,75091,1,0,0:0:0:0:
448,192,75159,1,0,0:0:0:0:
320,192,75227,1,0,0:0:0:0:
192,192,75295,1,0,0:0:0:0:
64,192,75363,1,0,0:0:0:0:
192,192,75431,1,0,0:0:0:0:
320,192,75500,1,0,0:0:0:0:
448,192,75568,1,0,0:0:0:0:
64,192,75636,1,0,0:0:0:0:
192,192,75704,1,0,0:0:0:0:
320,192,75772,1,0,0:0:0:0:
448,192,75841,1,0,0:0:0:0:
64,192,75909,1,0,0:0:0:0:
192,192,75977,1,0,0:0:0:0:
320,192,76045,1,0,0:0:0:0:
448,192,76113,1,0,0:0:0:0:
320,192,76181,1,0,0:0:0:0:
192,192,76250,1,0,0:0:0:0:
448,192,76318,1,0,0:0:0:0:
64,192,76386,1,0,0:0:0:0:
320,192,76454,1,0,0:0:0:0:
192,192,76522,1,0,0:0:0:0:
448,192,76591,1,0,0:0:0:0:
64,192,76659,1,0,0:0:0:0:
320,192,76727,1,0,0:0:0:0:
192,192,76795,1,0,0:0:0:0:
448,192,76863,1,0,0:0:0:0:
64,192,76931,1,0,0:0:0:0:
448,192,77000,1,0,0:0:0:0:
192,192,77000,1,0,0:0:0:0:
320,192,77068,1,0,0:0:0:0:
192,192,77136,1,0,0:0:0:0:
64,192,77204,1,0,0:0:0:0:
448,192,77272,1,0,0:0:0:0:
320,192,77341,1,0,0:0:0:0:
192,192,77409,1,0,0:0:0:0:
64,192,77477,1,0,0:0:0:0:
448,192,77545,1,0,0:0:0:0:
320,192,77613,1,0,0:0:0:0:
192,192,77681,1,0,0:0:0:0:
64,192,77750,1,0,0:0:0:0:
448,192,77818,1,0,0:0:0:0:
192,192,77818,1,0,0:0:0:0:
320,192,77886,1,0,0:0:0:0:
192,192,77954,1,0,0:0:0:0:
64,192,78022,1,0,0:0:0:0:
192,192,78091,1,0,0:0:0:0:
320,192,78159,1,0,0:0:0:0:
448,192,78227,1,0,0:0:0:0:
320,192,78295,1,0,0:0:0:0:
192,192,78363,1,0,0:0:0:0:
64,192,78431,1,0,0:0:0:0:
192,192,78500,1,0,0:0:0:0:
320,192,78568,1,0,0:0:0:0:
64,192,78636,1,0,0:0:0:0:
448,192,78636,1,0,0:0:0:0:
192,192,78704,1,0,0:0:0:0:
320,192,78772,1,0,0:0:0:0:
448,192,78841,1,0,0:0:0:0:
320,192,78909,1,0,0:0:0:0:
192,192,78977,1,0,0:0:0:0:
64,192,79045,1,0,0:0:0:0:
192,192,79113,1,0,0:0:0:0:
320,192,79181,1,0,0:0:0:0:
448,192,79250,1,0,0:0:0:0:
320,192,79318,1,0,0:0:0:0:
192,192,79386,1,0,0:0:0:0:
64,192,79454,1,0,0:0:0:0:
320,192,79454,1,0,0:0:0:0:
448,192,79522,1,0,0:0:0:0:
192,192,79591,1,0,0:0:0:0:
320,192,79659,1,0,0:0:0:0:
64,192,79727,1,0,0:0:0:0:
192,192,79795,1,0,0:0:0:0:
320,192,79863,1,0,0:0:0:0:
448,192,79931,1,0,0:0:0:0:
192,192,80000,1,0,0:0:0:0:
320,192,80068,1,0,0:0:0:0:
64,192,80136,1,0,0:0:0:0:
192,192,80204,1,0,0:0:0:0:
320,192,80272,1,0,0:0:0:0:
64,192,80272,1,0,0:0:0:0:
448,192,80341,1,0,0:0:0:0:
192,192,80409,1,0,0:0:0:0:
320,192,80477,1,0,0:0:0:0:
192,192,80545,1,0,0:0:0:0:
64,192,80613,1,0,0:0:0:0:
320,192,80681,1,0,0:0:0:0:
192,192,80750,1,0,0:0:0:0:
320,192,80818,1,0,0:0:0:0:
448,192,80886,1,0,0:0:0:0:
192,192,80954,1,0,0:0:0:0:
320,192,81022,1,0,0:0:0:0:
192,192,81091,1,0,0:0:0:0:
448,192,81091,1,0,0:0:0:0:
64,192,81159,1,0,0:0:0:0:
320,192,81227,1,0,0:0:0:0:
192,192,81295,1,0,0:0:0:0:
320,192,81363,1,0,0:0:0:0:
448,192,81431,1,0,0:0:0:0:
192,192,81500,1,0,0:0:0:0:
320,192,81568,1,0,0:0:0:0:
192,192,81636,1,0,0:0:0:0:
64,192,81704,1,0,0:0:0:0:
320,192,81772,1,0,0:0:0:0:
192,192,81841,1,0,0:0:0:0:
448,192,81909,1,0,0:0:0:0:
320,192,81909,1,0,0:0:0:0:
64,192,81977,1,0,0:0:0:0:
192,192,82045,1,0,0:0:0:0:
320,192,82113,1,0,0:0:0:0:
448,192,82181,1,0,0:0:0:0:
320,192,82250,1,0,0:0:0:0:
192,192,82318,1,0,0:0:0:0:
64,192,82386,1,0,0:0:0:0:
192,192,82454,1,0,0:0:0:0:
320,192,82522,1,0,0:0:0:0:
448,192,82591,1,0,0:0:0:0:
320,192,82659,1,0,0:0:0:0:
64,192,82727,1,0,0:0:0:0:
448,192,82727,1,0,0:0:0:0:
192,192,82795,1,0,0:0:0:0:
448,192,82863,1,0,0:0:0:0:
320,192,82931,1,0,0:0:0:0:
64,192,83000,1,0,0:0:0:0:
192,192,83068,1,0,0:0:0:0:
448,192,83136,1,0,0:0:0:0:
320,192,83204,1,0,0:0:0:0:
64,192,83272,1,0,0:0:0:0:
192,192,83341,1,0,0:0:0:0:
448,192,83409,1,0,0:0:0:0:
320,192,83477,1,0,0:0:0:0:
64,192,83545,1,0,0:0:0:0:
192,192,83613,1,0,0:0:0:0:
320,192,83681,1,0,0:0:0:0:
448,192,83750,1,0,0:0:0:0:
320,192,83818,1,0,0:0:0:0:
64,192,83818,1,0,0:0:0:0:
192,192,83886,1,0,0:0:0:0:
64,192,83954,1,0,0:0:0:0:
192,192,84022,1,0,0:0:0:0:
320,192,84091,1,0,0:0:0:0:
448,192,84159,1,0,0:0:0:0:
320,192,84227,1,0,0:0:0:0:
192,192,84295,1,0,0:0:0:0:
64,192,84363,1,0,0:0:0:0:
320,192,84363,1,0,0:0:0:0:
192,192,84431,1,0,0:0:0:0:
320,192,84500,1,0,0:0:0:0:
448,192,84568,1,0,0:0:0:0:
64,192,84636,1,0,0:0:0:0:
192,192,84704,1,0,0:0:0:0:
320,192,84772,1,0,0:0:0:0:
448,192,84841,1,0,0:0:0:0:
64,192,84909,1,0,0:0:0:0:
192,192,84977,1,0,0:0:0:0:
320,192,85045,1,0,0:0:0:0:
448,192,85113,1,0,0:0:0:0:
64,192,85181,1,0,0:0:0:0:
192,192,85181,1,0,0:0:0:0:
448,192,85250,1,0,0:0:0:0:
320,192,85318,1,0,0:0:0:0:
64,192,85386,1,0,0:0:0:0:
320,192,85454,1,0,0:0:0:0:
448,192,85522,1,0,0:0:0:0:
192,192,85591,1,0,0:0:0:0:
64,192,85659,1,0,0:0:0:0:
320,192,85727,1,0,0:0:0:0:
192,192,85795,1,0,0:0:0:0:
64,192,85863,1,0,0:0:0:0:
448,192,85931,1,0,0:0:0:0:
320,192,86000,1,0,0:0:0:0:
192,192,86000,1,0,0:0:0:0:
64,192,86068,1,0,0:0:0:0:
192,192,86136,1,0,0:0:0:0:
320,192,86204,1,0,0:0:0:0:
448,192,86272,1,0,0:0:0:0:
192,192,86341,1,0,0:0:0:0:
320,192,86409,1,0,0:0:0:0:
64,192,86477,1,0,0:0:0:0:
192,192,86545,1,0,0:0:0:0:
448,192,86613,1,0,0:0:0:0:
320,192,86681,1,0,0:0:0:0:
192,192,86750,1,0,0:0:0:0:
64,192,86818,1,0,0:0:0:0:
448,192,86818,1,0,0:0:0:0:
192,192,86886,1,0,0:0:0:0:
320,192,86954,1,0,0:0:0:0:
192,192,87022,1,0,0:0:0:0:
448,192,87091,1,0,0:0:0:0:
320,192,87159,1,0,0:0:0:0:
192,192,87227,1,0,0:0:0:0:
320,192,87295,1,0,0:0:0:0:
192,192,87363,1,0,0:0:0:0:
320,192,87431,1,0,0:0:0:0:
192,192,87500,1,0,0:0:0:0:
64,192,87568,1,0,0:0:0:0:
320,192,87636,1,0,0:0:0:0:
448,192,87636,1,0,0:0:0:0:
192,192,87704,1,0,0:0:0:0:
320,192,87772,1,0,0:0:0:0:
448,192,87841,1,0,0:0:0:0:
64,192,87909,1,0,0:0:0:0:
192,192,87977,1,0,0:0:0:0:
320,192,88045,1,0,0:0:0:0:
448,192,88113,1,0,0:0:0:0:
320,192,88181,1,0,0:0:0:0:
192,192,88250,1,0,0:0:0:0:
64,192,88318,1,0,0:0:0:0:
192,192,88386,1,0,0:0:0:0:
64,192,88454,1,0,0:0:0:0:
448,192,88454,1,0,0:0:0:0:
320,192,88727,128,0,89000:0:0:0:0:
448,192,89000,128,0,89272:0:0:0:0:
320,192,89272,128,0,89545:0:0:0:0:
192,192,89545,128,0,89818:0:0:0:0:
64,192,89818,128,0,90091:0:0:0:0:
192,192,90091,1,0,0:0:0:0:
448,192,90091,1,0,0:0:0:0:
320,192,90159,1,0,0:0:0:0:
192,192,90227,1,0,0:0:0:0:
64,192,90295,1,0,0:0:0:0:
448,192,90363,1,0,0:0:0:0:
320,192,90431,1,0,0:0:0:0:
192,192,90500,1,0,0:0:0:0:
64,192,90568,1,0,0:0:0:0:
448,192,90636,1,0,0:0:0:0:
320,192,90704,1,0,0:0:0:0:
192,192,90772,1,0,0:0:0:0:
64,192,90841,1,0,0:0:0:0:
448,192,90909,1,0,0:0:0:0:
320,192,90977,1,0,0:0:0:0:
64,192,91045,1,0,0:0:0:0:
192,192,91113,1,0,0:0:0:0:
448,192,91181,1,0,0:0:0:0:
320,192,91250,1,0,0:0:0:0:
64,192,91318,1,0,0:0:0:0:
192,192,91386,1,0,0:0:0:0:
448,192,91454,1,0,0:0:0:0:
320,192,91522,1,0,0:0:0:0:
64,192,91591,1,0,0:0:0:0:
192,192,91659,1,0,0:0:0:0:
448,192,91727,1,0,0:0:0:0:
64,192,91795,1,0,0:0:0:0:
320,192,91863,1,0,0:0:0:0:
192,192,91931,1,0,0:0:0:0:
448,192,92000,1,0,0:0:0:0:
64,192,92068,1,0,0:0:0:0:
320,192,92136,1,0,0:0:0:0:
192,192,92204,1,0,0:0:0:0:
448,192,92272,1,0,0:0:0:0:
64,192,92341,1,0,0:0:0:0:
320,192,92409,1,0,0:0:0:0:
192,192,92477,1,0,0:0:0:0:
448,192,92545,1,0,0:0:0:0:
64,192,92613,1,0,0:0:0:0:
192,192,92681,1,0,0:0:0:0:
320,192,92750,1,0,0:0:0:0:
448,192,92818,1,0,0:0:0:0:
64,192,92886,1,0,0:0:0:0:
192,192,92954,1,0,0:0:0:0:
320,192,93022,1,0,0:0:0:0:
448,192,93091,1,0,0:0:0:0:
64,192,93159,1,0,0:0:0:0:
192,192,93227,1,0,0:0:0:0:
320,192,93295,1,0,0:0:0:0:
448,192,93363,1,0,0:0:0:0:
64,192,93363,1,0,0:0:0:0:
320,192,93431,1,0,0:0:0:0:
192,192,93500,1,0,0:0:0:0:
64,192,93568,1,0,0:0:0:0:
192,192,93636,1,0,0:0:0:0:
320,192,93704,1,0,0:0:0:0:
448,192,93772,1,0,0:0:0:0:
320,192,93841,1,0,0:0:0:0:
192,192,93909,1,0,0:0:0:0:
64,192,93977,1,0,0:0:0:0:
192,192,94045,1,0,0:0:0:0:
320,192,94113,1,0,0:0:0:0:
448,192,94181,1,0,0:0:0:0:
320,192,94250,1,0,0:0:0:0:
192,192,94318,1,0,0:0:0:0:
320,192,94386,1,0,0:0:0:0:
192,192,94454,1,0,0:0:0:0:
64,192,94522,1,0,0:0:0:0:
192,192,94591,1,0,0:0:0:0:
320,192,94659,1,0,0:0:0:0:
192,192,94727,1,0,0:0:0:0:
320,192,94795,1,0,0:0:0:0:
448,192,94863,1,0,0:0:0:0:
320,192,94931,1,0,0:0:0:0:
192,192,95000,1,0,0:0:0:0:
64,192,95068,1,0,0:0:0:0:
320,192,95136,1,0,0:0:0:0:
192,192,95204,1,0,0:0:0:0:
448,192,95272,1,0,0:0:0:0:
320,192,95341,1,0,0:0:0:0:
448,192,95409,1,0,0:0:0:0:
192,192,95477,1,0,0:0:0:0:
320,192,95545,1,0,0:0:0:0:
64,192,95613,1,0,0:0:0:0:
192,192,95681,1,0,0:0:0:0:
64,192,95750,1,0,0:0:0:0:
448,192,95818,1,0,0:0:0:0:
192,192,95886,1,0,0:0:0:0:
320,192,95954,1,0,0:0:0:0:
64,192,96022,1,0,0:0:0:0:
192,192,96091,1,0,0:0:0:0:
64,192,96159,1,0,0:0:0:0:
320,192,96227,1,0,0:0:0:0:
192,192,96295,1,0,0:0:0:0:
448,192,96363,1,0,0:0:0:0:
64,192,96363,1,0,0:0:0:0:
320,192,96431,1,0,0:0:0:0:
448,192,96500,1,0,0:0:0:0:
192,192,96568,1,0,0:0:0:0:
320,192,96636,1,0,0:0:0:0:
64,192,96636,1,0,0:0:0:0:
192,192,96704,1,0,0:0:0:0:
320,192,96772,1,0,0:0:0:0:
448,192,96841,1,0,0:0:0:0:
64,192,96909,1,0,0:0:0:0:
192,192,96977,1,0,0:0:0:0:
320,192,97045,1,0,0:0:0:0:
448,192,97113,1,0,0:0:0:0:
64,192,97181,1,0,0:0:0:0:
192,192,97250,1,0,0:0:0:0:
320,192,97318,1,0,0:0:0:0:
448,192,97386,1,0,0:0:0:0:
64,192,97454,1,0,0:0:0:0:
192,192,97522,1,0,0:0:0:0:
448,192,97591,1,0,0:0:0:0:
320,192,97659,1,0,0:0:0:0:
64,192,97727,1,0,0:0:0:0:
192,192,97795,1,0,0:0:0:0:
448,192,97863,1,0,0:0:0:0:
320,192,97931,1,0,0:0:0:0:
64,192,98000,1,0,0:0:0:0:
192,192,98068,1,0,0:0:0:0:
448,192,98136,1,0,0:0:0:0:
320,192,98204,1,0,0:0:0:0:
64,192,98272,1,0,0:0:0:0:
448,192,98341,1,0,0:0:0:0:
192,192,98409,1,0,0:0:0:0:
320,192,98477,1,0,0:0:0:0:
64,192,98545,1,0,0:0:0:0:
448,192,98613,1,0,0:0:0:0:
192,192,98681,1,0,0:0:0:0:
320,192,98750,1,0,0:0:0:0:
64,192,98818,1,0,0:0:0:0:
448,192,98886,1,0,0:0:0:0:
192,192,98954,1,0,0:0:0:0:
320,192,99022,1,0,0:0:0:0:
448,192,99091,1,0,0:0:0:0:
320,192,99159,1,0,0:0:0:0:
192,192,99227,1,0,0:0:0:0:
64,192,99295,1,0,0:0:0:0:
192,192,99363,1,0,0:0:0:0:
320,192,99431,1,0,0:0:0:0:
448,192,99500,1,0,0:0:0:0:
320,192,99568,1,0,0:0:0:0:
192,192,99636,1,0,0:0:0:0:
64,192,99704,1,0,0:0:0:0:
192,192,99772,1,0,0:0:0:0:
320,192,99841,1,0,0:0:0:0:
64,192,99909,1,0,0:0:0:0:
448,192,99909,1,0,0:0:0:0:
320,192,99977,1,0,0:0:0:0:
448,192,100045,1,0,0:0:0:0:
192,192,100113,1,0,0:0:0:0:
320,192,100181,1,0,0:0:0:0:
192,192,100250,1,0,0:0:0:0:
64,192,100318,1,0,0:0:0:0:
320,192,100386,1,0,0:0:0:0:
192,192,100454,1,0,0:0:0:0:
320,192,100522,1,0,0:0:0:0:
448,192,100591,1,0,0:0:0:0:
192,192,100659,1,0,0:0:0:0:
320,192,100727,1,0,0:0:0:0:
448,192,100795,1,0,0:0:0:0:
192,192,100863,1,0,0:0:0:0:
320,192,100931,1,0,0:0:0:0:
64,192,101000,1,0,0:0:0:0:
448,192,101068,1,0,0:0:0:0:
192,192,101136,1,0,0:0:0:0:
64,192,101204,1,0,0:0:0:0:
320,192,101272,1,0,0:0:0:0:
192,192,101341,1,0,0:0:0:0:
448,192,101409,1,0,0:0:0:0:
64,192,101477,1,0,0:0:0:0:
320,192,101545,1,0,0:0:0:0:
448,192,101613,1,0,0:0:0:0:
192,192,101681,1,0,0:0:0:0:
320,192,101750,1,0,0:0:0:0:
448,192,101818,1,0,0:0:0:0:
64,192,101886,1,0,0:0:0:0:
320,192,101954,1,0,0:0:0:0:
192,192,102022,1,0,0:0:0:0:
320,192,102091,1,0,0:0:0:0:
64,192,102159,1,0,0:0:0:0:
448,192,102227,1,0,0:0:0:0:
192,192,102295,1,0,0:0:0:0:
448,192,102363,1,0,0:0:0:0:
320,192,102431,1,0,0:0:0:0:
192,192,102500,1,0,0:0:0:0:
320,192,102568,1,0,0:0:0:0:
192,192,102636,1,0,0:0:0:0:
64,192,102704,1,0,0:0:0:0:
192,192,102772,1,0,0:0:0:0:
320,192,102841,1,0,0:0:0:0:
192,192,102909,1,0,0:0:0:0:
320,192,102977,1,0,0:0:0:0:
448,192,103045,1,0,0:0:0:0:
320,192,103113,1,0,0:0:0:0:
448,192,103181,1,0,0:0:0:0:
64,192,103181,1,0,0:0:0:0:
320,192,103250,1,0,0:0:0:0:
192,192,103318,1,0,0:0:0:0:
64,192,103386,1,0,0:0:0:0:
448,192,103454,1,0,0:0:0:0:
320,192,103522,1,0,0:0:0:0:
192,192,103591,1,0,0:0:0:0:
320,192,103659,1,0,0:0:0:0:
64,192,103727,1,0,0:0:0:0:
192,192,103795,1,0,0:0:0:0:
320,192,103863,1,0,0:0:0:0:
192,192,103931,1,0,0:0:0:0:
448,192,104000,1,0,0:0:0:0:
320,192,104068,1,0,0:0:0:0:
192,192,104136,1,0,0:0:0:0:
64,192,104204,1,0,0:0:0:0:
320,192,104272,1,0,0:0:0:0:
192,192,104341,1,0,0:0:0:0:
320,192,104409,1,0,0:0:0:0:
448,192,104477,1,0,0:0:0:0:
192,192,104545,1,0,0:0:0:0:
320,192,104613,1,0,0:0:0:0:
192,192,104681,1,0,0:0:0:0:
64,192,104750,1,0,0:0:0:0:
448,192,104818,1,0,0:0:0:0:
320,192,104886,1,0,0:0:0:0:
192,192,104954,1,0,0:0:0:0:
64,192,105022,1,0,0:0:0:0:
192,192,105091,1,0,0:0:0:0:
320,192,105159,1,0,0:0:0:0:
448,192,105227,1,0,0:0:0:0:
320,192,105295,1,0,0:0:0:0:
64,192,105363,1,0,0:0:0:0:
192,192,105431,1,0,0:0:0:0:
320,192,105500,1,0,0:0:0:0:
192,192,105568,1,0,0:0:0:0:
448,192,105636,1,0,0:0:0:0:
320,192,105704,1,0,0:0:0:0:
192,192,105772,1,0,0:0:0:0:
64,192,105841,1,0,0:0:0:0:
320,192,105909,1,0,0:0:0:0:
448,192,105977,1,0,0:0:0:0:
320,192,106045,1,0,0:0:0:0:
192,192,106113,1,0,0:0:0:0:
64,192,106181,1,0,0:0:0:0:
192,192,106250,1,0,0:0:0:0:
320,192,106318,1,0,0:0:0:0:
448,192,106386,1,0,0:0:0:0:
64,192,106454,1,0,0:0:0:0:
320,192,106454,1,0,0:0:0:0:
192,192,106522,1,0,0:0:0:0:
320,192,106591,1,0,0:0:0:0:
448,192,106659,1,0,0:0:0:0:
64,192,106727,1,0,0:0:0:0:
192,192,106795,1,0,0:0:0:0:
448,192,106863,1,0,0:0:0:0:
320,192,106931,1,0,0:0:0:0:
64,192,107000,1,0,0:0:0:0:
192,192,107068,1,0,0:0:0:0:
448,192,107136,1,0,0:0:0:0:
320,192,107204,1,0,0:0:0:0:
64,192,107272,1,0,0:0:0:0:
192,192,107341,1,0,0:0:0:0:
320,192,107409,1,0,0:0:0:0:
448,192,107477,1,0,0:0:0:0:
64,192,107545,1,0,0:0:0:0:
320,192,107613,1,0,0:0:0:0:
192,192,107681,1,0,0:0:0:0:
448,192,107750,1,0,0:0:0:0:
64,192,107818,1,0,0:0:0:0:
320,192,107886,1,0,0:0:0:0:
192,192,107954,1,0,0:0:0:0:
448,192,108022,1,0,0:0:0:0:
64,192,108091,1,0,0:0:0:0:
320,192,108091,1,0,0:0:0:0:
192,192,108159,1,0,0:0:0:0:
320,192,108227,1,0,0:0:0:0:
448,192,108295,1,0,0:0:0:0:
64,192,108363,1,0,0:0:0:0:
448,192,108431,1,0,0:0:0:0:
192,192,108500,1,0,0:0:0:0:
320,192,108568,1,0,0:0:0:0:
64,192,108636,1,0,0:0:0:0:
448,192,108704,1,0,0:0:0:0:
192,192,108772,1,0,0:0:0:0:
320,192,108841,1,0,0:0:0:0:
64,192,108909,1,0,0:0:0:0:
448,192,108909,1,0,0:0:0:0:
320,192,108977,1,0,0:0:0:0:
192,192,109045,1,0,0:0:0:0:
64,192,109113,1,0,0:0:0:0:
448,192,109181,1,0,0:0:0:0:
192,192,109181,1,0,0:0:0:0:
320,192,109250,1,0,0:0:0:0:
192,192,109318,1,0,0:0:0:0:
64,192,109386,1,0,0:0:0:0:
448,192,109454,1,0,0:0:0:0:
192,192,109454,1,0,0:0:0:0:
320,192,109522,1,0,0:0:0:0:
192,192,109591,1,0,0:0:0:0:
64,192,109659,1,0,0:0:0:0:
192,192,109727,1,0,0:0:0:0:
448,192,109727,1,0,0:0:0:0:
320,192,109795,1,0,0:0:0:0:
192,192,109863,1,0,0:0:0:0:
64,192,109931,1,0,0:0:0:0:
448,192,110000,1,0,0:0:0:0:
320,192,110068,1,0,0:0:0:0:
192,192,110136,1,0,0:0:0:0:
64,192,110204,1,0,0:0:0:0:
448,192,110272,1,0,0:0:0:0:
320,192,110341,1,0,0:0:0:0:
192,192,110409,1,0,0:0:0:0:
64,192,110477,1,0,0:0:0:0:
448,192,110545,1,0,0:0:0:0:
320,192,110613,1,0,0:0:0:0:
448,192,110681,1,0,0:0:0:0:
64,192,110750,1,0,0:0:0:0:
192,192,110818,1,0,0:0:0:0:
64,192,110886,1,0,0:0:0:0:
448,192,110954,1,0,0:0:0:0:
320,192,111022,1,0,0:0:0:0:
448,192,111091,1,0,0:0:0:0:
64,192,111159,1,0,0:0:0:0:
192,192,111227,1,0,0:0:0:0:
64,192,111295,1,0,0:0:0:0:
320,192,111363,1,0,0:0:0:0:
448,192,111431,1,0,0:0:0:0:
320,192,111500,1,0,0:0:0:0:
192,192,111568,1,0,0:0:0:0:
64,192,111636,1,0,0:0:0:0:
192,192,111704,1,0,0:0:0:0:
320,192,111772,1,0,0:0:0:0:
448,192,111841,1,0,0:0:0:0:
320,192,111909,1,0,0:0:0:0:
192,192,111977,1,0,0:0:0:0:
64,192,112045,1,0,0:0:0:0:
192,192,112113,1,0,0:0:0:0:
448,192,112181,1,0,0:0:0:0:
64,192,112250,1,0,0:0:0:0:
320,192,112318,1,0,0:0:0:0:
192,192,112386,1,0,0:0:0:0:
448,192,112454,1,0,0:0:0:0:
64,192,112522,1,0,0:0:0:0:
320,192,112591,1,0,0:0:0:0:
192,192,112659,1,0,0:0:0:0:
448,192,112727,1,0,0:0:0:0:
64,192,112795,1,0,0:0:0:0:
320,192,112863,1,0,0:0:0:0:
192,192,112931,1,0,0:0:0:0:
64,192,113000,1,0,0:0:0:0:
192,192,113068,1,0,0:0:0:0:
320,192,113136,1,0,0:0:0:0:
448,192,113204,1,0,0:0:0:0:
64,192,113272,1,0,0:0:0:0:
192,192,113341,1,0,0:0:0:0:
320,192,113409,1,0,0:0:0:0:
448,192,113477,1,0,0:0:0:0:
64,192,113545,1,0,0:0:0:0:
192,192,113613,1,0,0:0:0:0:
320,192,113681,1,0,0:0:0:0:
448,192,113750,1,0,0:0:0:0:
64,192,113818,1,0,0:0:0:0:
192,192,113886,1,0,0:0:0:0:
64,192,113954,1,0,0:0:0:0:
448,192,114022,1,0,0:0:0:0:
320,192,114091,1,0,0:0:0:0:
448,192,114159,1,0,0:0:0:0:
64,192,114227,1,0,0:0:0:0:
192,192,114295,1,0,0:0:0:0:
64,192,114363,1,0,0:0:0:0:
448,192,114431,1,0,0:0:0:0:
320,192,114500,1,0,0:0:0:0:
448,192,114568,1,0,0:0:0:0:
192,192,114636,1,0,0:0:0:0:
64,192,114704,1,0,0:0:0:0:
192,192,114772,1,0,0:0:0:0:
320,192,114841,1,0,0:0:0:0:
448,192,114909,1,0,0:0:0:0:
320,192,114977,1,0,0:0:0:0:
192,192,115045,1,0,0:0:0:0:
64,192,115113,1,0,0:0:0:0:
192,192,115181,1,0,0:0:0:0:
320,192,115250,1,0,0:0:0:0:
448,192,115318,1,0,0:0:0:0:
320,192,115386,1,0,0:0:0:0:
64,192,115454,1,0,0:0:0:0:
448,192,115522,1,0,0:0:0:0:
192,192,115591,1,0,0:0:0:0:
320,192,115659,1,0,0:0:0:0:
64,192,115727,1,0,0:0:0:0:
448,192,115795,1,0,0:0:0:0:
192,192,115863,1,0,0:0:0:0:
320,192,115931,1,0,0:0:0:0:
64,192,116000,1,0,0:0:0:0:
448,192,116068,1,0,0:0:0:0:
192,192,116136,1,0,0:0:0:0:
320,192,116204,1,0,0:0:0:0:
64,192,116272,1,0,0:0:0:0:
448,192,116272,1,0,0:0:0:0:
192,192,116341,1,0,0:0:0:0:
448,192,116409,1,0,0:0:0:0:
320,192,116477,1,0,0:0:0:0:
64,192,116545,1,0,0:0:0:0:
192,192,116613,1,0,0:0:0:0:
448,192,116681,1,0,0:0:0:0:
320,192,116750,1,0,0:0:0:0:
64,192,116818,1,0,0:0:0:0:
192,192,116886,1,0,0:0:0:0:
448,192,116954,1,0,0:0:0:0:
320,192,117022,1,0,0:0:0:0:
192,192,117091,1,0,0:0:0:0:
64,192,117159,1,0,0:0:0:0:
320,192,117227,1,0,0:0:0:0:
448,192,117295,1,0,0:0:0:0:
192,192,117363,1,0,0:0:0:0:
64,192,117431,1,0,0:0:0:0:
320,192,117500,1,0,0:0:0:0:
448,192,117568,1,0,0:0:0:0:
192,192,117636,1,0,0:0:0:0:
64,192,117704,1,0,0:0:0:0:
320,192,117772,1,0,0:0:0:0:
448,192,117841,1,0,0:0:0:0:
64,192,117909,1,0,0:0:0:0:
320,192,117977,1,0,0:0:0:0:
448,192,118045,1,0,0:0:0:0:
320,192,118113,1,0,0:0:0:0:
64,192,118181,1,0,0:0:0:0:
320,192,118250,1,0,0:0:0:0:
448,192,118318,1,0,0:0:0:0:
320,192,118386,1,0,0:0:0:0:
64,192,118454,1,0,0:0:0:0:
320,192,118522,1,0,0:0:0:0:
448,192,118591,1,0,0:0:0:0:
320,192,118659,1,0,0:0:0:0:
448,192,118727,1,0,0:0:0:0:
192,192,118795,1,0,0:0:0:0:
64,192,118863,1,0,0:0:0:0:
192,192,118931,1,0,0:0:0:0:
448,192,119000,1,0,0:0:0:0:
192,192,119068,1,0,0:0:0:0:
64,192,119136,1,0,0:0:0:0:
192,192,119204,1,0,0:0:0:0:
448,192,119272,1,0,0:0:0:0:
192,192,119341,1,0,0:0:0:0:
64,192,119409,1,0,0:0:0:0:
192,192,119477,1,0,0:0:0:0:
320,192,119545,1,0,0:0:0:0:
64,192,119545,1,0,0:0:0:0:
192,192,119613,1,0,0:0:0:0:
448,192,119681,1,0,0:0:0:0:
192,192,119750,1,0,0:0:0:0:
64,192,119818,1,0,0:0:0:0:
192,192,119886,1,0,0:0:0:0:
448,192,119954,1,0,0:0:0:0:
192,192,120022,1,0,0:0:0:0:
64,192,120091,1,0,0:0:0:0:
192,192,120159,1,0,0:0:0:0:
448,192,120227,1,0,0:0:0:0:
192,192,120295,1,0,0:0:0:0:
448,192,120363,1,0,0:0:0:0:
320,192,120431,1,0,0:0:0:0:
64,192,120500,1,0,0:0:0:0:
320,192,120568,1,0,0:0:0:0:
448,192,120636,1,0,0:0:0:0:
320,192,120704,1,0,0:0:0:0:
64,192,120772,1,0,0:0:0:0:
320,192,120841,1,0,0:0:0:0:
448,192,120909,1,0,0:0:0:0:
320,192,120977,1,0,0:0:0:0:
64,192,121045,1,0,0:0:0:0:
320,192,121113,1,0,0:0:0:0:
64,192,121181,1,0,0:0:0:0:
448,192,121181,1,0,0:0:0:0:
320,192,121250,1,0,0:0:0:0:
192,192,121318,1,0,0:0:0:0:
320,192,121386,1,0,0:0:0:0:
448,192,121454,1,0,0:0:0:0:
192,192,121522,1,0,0:0:0:0:
64,192,121591,1,0,0:0:0:0:
192,192,121659,1,0,0:0:0:0:
448,192,121727,1,0,0:0:0:0:
320,192,121795,1,0,0:0:0:0:
192,192,121863,1,0,0:0:0:0:
320,192,121931,1,0,0:0:0:0:
64,192,122000,1,0,0:0:0:0:
192,192,122068,1,0,0:0:0:0:
320,192,122136,1,0,0:0:0:0:
192,192,122204,1,0,0:0:0:0:
64,192,122272,1,0,0:0:0:0:
320,192,122341,1,0,0:0:0:0:
448,192,122409,1,0,0:0:0:0:
320,192,122477,1,0,0:0:0:0:
64,192,122545,1,0,0:0:0:0:
192,192,122613,1,0,0:0:0:0:
448,192,122681,1,0,0:0:0:0:
320,192,122750,1,0,0:0:0:0:
64,192,122818,1,0,0:0:0:0:
448,192,122818,1,0,0:0:0:0:
192,192,122818,1,0,0:0:0:0:
64,192,123227,1,0,0:0:0:0:
448,192,123227,1,0,0:0:0:0:
192,192,123227,1,0,0:0:0:0:
64,192,123636,1,0,0:0:0:0:
448,192,123636,1,0,0:0:0:0:
320,192,123636,1,0,0:0:0:0:
448,192,123909,1,0,0:0:0:0:
64,192,123909,1,0,0:0:0:0:
192,192,123909,1,0,0:0:0:0:
320,192,124181,128,0,124454:0:0:0:0:
192,192,124318,1,0,0:0:0:0:
448,192,124454,128,0,124727:0:0:0:0:
64,192,124454,1,0,0:0:0:0:
192,192,124591,1,0,0:0:0:0:
320,192,124727,128,0,125000:0:0:0:0:
64,192,124863,1,0,0:0:0:0:
192,192,125000,128,0,125272:0:0:0:0:
64,192,125136,1,0,0:0:0:0:
320,192,125272,128,0,125545:0:0:0:0:
448,192,125272,1,0,0:0:0:0:
64,192,125409,1,0,0:0:0:0:
192,192,125545,128,0,125818:0:0:0:0:
320,192,125681,1,0,0:0:0:0:
64,192,125818,128,0,126091:0:0:0:0:
320,192,125954,1,0,0:0:0:0:
448,192,126022,1,0,0:0:0:0:
192,192,126091,1,0,0:0:0:0:
320,192,126091,1,0,0:0:0:0:
192,192,126500,1,0,0:0:0:0:
320,192,126500,1,0,0:0:0:0:
448,192,126500,1,0,0:0:0:0:
64,192,126909,1,0,0:0:0:0:
192,192,126909,1,0,0:0:0:0:
320,192,126909,1,0,0:0:0:0:
192,192,127181,1,0,0:0:0:0:
320,192,127181,1,0,0:0:0:0:
448,192,127181,1,0,0:0:0:0:
320,192,127454,128,0,127659:0:0:0:0:
192,192,127591,1,0,0:0:0:0:
320,192,127727,128,0,128000:0:0:0:0:
64,192,127727,1,0,0:0:0:0:
448,192,127863,1,0,0:0:0:0:
64,192,128000,128,0,128272:0:0:0:0:
192,192,128136,1,0,0:0:0:0:
448,192,128272,128,0,128545:0:0:0:0:
320,192,128409,1,0,0:0:0:0:
320,192,128545,128,0,128818:0:0:0:0:
192,192,128545,1,0,0:0:0:0:
64,192,128681,1,0,0:0:0:0:
192,192,128818,128,0,129091:0:0:0:0:
448,192,128954,1,0,0:0:0:0:
64,192,129091,128,0,129363:0:0:0:0:
320,192,129091,1,0,0:0:0:0:
320,192,129227,1,0,0:0:0:0:
448,192,129227,1,0,0:0:0:0:
448,192,129363,128,0,129909:0:0:0:0:
320,192,129363,1,0,0:0:0:0:
192,192,129363,1,0,0:0:0:0:
64,192,129500,1,0,0:0:0:0:
192,192,129636,1,0,0:0:0:0:
320,192,129636,1,0,0:0:0:0:
64,192,129772,1,0,0:0:0:0:
192,192,129909,1,0,0:0:0:0:
320,192,129909,1,0,0:0:0:0:
64,192,130045,1,0,0:0:0:0:
320,192,130181,128,0,130454:0:0:0:0:
192,192,130181,1,0,0:0:0:0:
448,192,130318,1,0,0:0:0:0:
192,192,130454,128,0,130727:0:0:0:0:
64,192,130454,1,0,0:0:0:0:
448,192,130591,1,0,0:0:0:0:
64,192,130727,128,0,131000:0:0:0:0:
320,192,130727,1,0,0:0:0:0:
448,192,130863,1,0,0:0:0:0:
320,192,131000,128,0,131545:0:0:0:0:
192,192,131000,1,0,0:0:0:0:
448,192,131136,1,0,0:0:0:0:
192,192,131272,1,0,0:0:0:0:
64,192,131272,1,0,0:0:0:0:
448,192,131409,1,0,0:0:0:0:
192,192,131545,1,0,0:0:0:0:
64,192,131545,1,0,0:0:0:0:
320,192,131681,1,0,0:0:0:0:
448,192,131818,128,0,132091:0:0:0:0:
192,192,131818,1,0,0:0:0:0:
64,192,131954,1,0,0:0:0:0:
320,192,132091,128,0,132363:0:0:0:0:
192,192,132091,1,0,0:0:0:0:
64,192,132227,1,0,0:0:0:0:
192,192,132363,128,0,132636:0:0:0:0:
448,192,132363,1,0,0:0:0:0:
64,192,132500,1,0,0:0:0:0:
320,192,132500,1,0,0:0:0:0:
320,192,132636,128,0,133045:0:0:0:0:
448,192,132636,1,0,0:0:0:0:
64,192,132636,1,0,0:0:0:0:
448,192,132772,1,0,0:0:0:0:
64,192,132909,1,0,0:0:0:0:
192,192,132909,1,0,0:0:0:0:
448,192,133045,128,0,133181:0:0:0:0:
64,192,133181,128,0,133454:0:0:0:0:
192,192,133181,1,0,0:0:0:0:
448,192,133318,1,0,0:0:0:0:
192,192,133454,128,0,133863:0:0:0:0:
320,192,133454,1,0,0:0:0:0:
448,192,133591,1,0,0:0:0:0:
64,192,133727,1,0,0:0:0:0:
320,192,133727,1,0,0:0:0:0:
448,192,133863,128,0,134000:0:0:0:0:
64,192,134000,128,0,134272:0:0:0:0:
320,192,134000,1,0,0:0:0:0:
192,192,134136,1,0,0:0:0:0:
320,192,134272,128,0,134818:0:0:0:0:
448,192,134272,1,0,0:0:0:0:
192,192,134409,1,0,0:0:0:0:
64,192,134545,1,0,0:0:0:0:
448,192,134545,1,0,0:0:0:0:
192,192,134681,1,0,0:0:0:0:
64,192,134818,1,0,0:0:0:0:
448,192,134818,1,0,0:0:0:0:
192,192,134954,1,0,0:0:0:0:
320,192,135091,128,0,135636:0:0:0:0:
64,192,135091,1,0,0:0:0:0:
192,192,135227,1,0,0:0:0:0:
448,192,135363,1,0,0:0:0:0:
64,192,135363,1,0,0:0:0:0:
192,192,135500,1,0,0:0:0:0:
448,192,135500,1,0,0:0:0:0:
448,192,135636,128,0,135841:0:0:0:0:
64,192,135636,1,0,0:0:0:0:
64,192,135772,1,0,0:0:0:0:
320,192,135772,1,0,0:0:0:0:
448,192,135909,128,0,137545:0:0:0:0:
64,192,135909,1,0,0:0:0:0:
320,192,135909,1,0,0:0:0:0:
192,192,136045,1,0,0:0:0:0:
64,192,136181,1,0,0:0:0:0:
320,192,136181,1,0,0:0:0:0:
192,192,136318,1,0,0:0:0:0:
64,192,136454,1,0,0:0:0:0:
320,192,136454,1,0,0:0:0:0:
192,192,136591,1,0,0:0:0:0:
64,192,136727,1,0,0:0:0:0:
320,192,136727,1,0,0:0:0:0:
192,192,136863,1,0,0:0:0:0:
64,192,136931,1,0,0:0:0:0:
192,192,137000,1,0,0:0:0:0:
320,192,137000,1,0,0:0:0:0:
64,192,137136,1,0,0:0:0:0:
320,192,137204,1,0,0:0:0:0:
64,192,137272,1,0,0:0:0:0:
192,192,137272,1,0,0:0:0:0:
320,192,137409,1,0,0:0:0:0:
192,192,137477,1,0,0:0:0:0:
64,192,137545,1,0,0:0:0:0:
320,192,137545,1,0,0:0:0:0:
64,192,138091,128,0,138363:0:0:0:0:
320,192,138363,128,0,138636:0:0:0:0:
192,192,138636,128,0,138909:0:0:0:0:
320,192,138909,128,0,139181:0:0:0:0:
448,192,139181,128,0,140272:0:0:0:0:
192,192,139181,1,0,0:0:0:0:
64,192,139181,1,0,0:0:0:0:
192,192,139454,1,0,0:0:0:0:
320,192,139727,1,0,0:0:0:0:
192,192,140000,1,0,0:0:0:0:
64,192,140272,128,0,140545:0:0:0:0:
320,192,140272,1,0,0:0:0:0:
320,192,140545,128,0,140818:0:0:0:0:
192,192,140545,1,0,0:0:0:0:
192,192,140818,128,0,141091:0:0:0:0:
64,192,140818,1,0,0:0:0:0:
320,192,141091,128,0,141363:0:0:0:0:
448,192,141091,1,0,0:0:0:0:
448,192,141363,128,0,141909:0:0:0:0:
192,192,141363,1,0,0:0:0:0:
64,192,141636,1,0,0:0:0:0:
64,192,141909,128,0,142181:0:0:0:0:
192,192,141909,1,0,0:0:0:0:
320,192,142181,128,0,142454:0:0:0:0:
448,192,142181,1,0,0:0:0:0:
192,192,142454,128,0,142727:0:0:0:0:
64,192,142454,1,0,0:0:0:0:
320,192,142727,128,0,143000:0:0:0:0:
448,192,142727,1,0,0:0:0:0:
448,192,143000,128,0,143545:0:0:0:0:
192,192,143000,1,0,0:0:0:0:
64,192,143272,1,0,0:0:0:0:
192,192,143545,1,0,0:0:0:0:
448,192,143818,128,0,144091:0:0:0:0:
320,192,143818,1,0,0:0:0:0:
64,192,144091,128,0,144909:0:0:0:0:
192,192,144091,1,0,0:0:0:0:
320,192,144363,1,0,0:0:0:0:
448,192,144636,1,0,0:0:0:0:
320,192,144909,128,0,145454:0:0:0:0:
192,192,144909,1,0,0:0:0:0:
64,192,145181,1,0,0:0:0:0:
192,192,145454,1,0,0:0:0:0:
448,192,145727,128,0,146000:0:0:0:0:
320,192,145727,1,0,0:0:0:0:
320,192,146000,128,0,146272:0:0:0:0:
192,192,146000,1,0,0:0:0:0:
192,192,146272,128,0,146545:0:0:0:0:
64,192,146272,1,0,0:0:0:0:
448,192,146545,128,0,146818:0:0:0:0:
320,192,146545,1,0,0:0:0:0:
320,192,146818,128,0,147091:0:0:0:0:
192,192,146818,1,0,0:0:0:0:
192,192,147091,128,0,147363:0:0:0:0:
64,192,147091,1,0,0:0:0:0:
64,192,147363,128,0,147636:0:0:0:0:
448,192,147363,1,0,0:0:0:0:
448,192,147636,128,0,147909:0:0:0:0:
320,192,147636,1,0,0:0:0:0:
192,192,147909,128,0,148181:0:0:0:0:
64,192,147909,1,0,0:0:0:0:
448,192,148181,128,0,148454:0:0:0:0:
320,192,148181,1,0,0:0:0:0:
64,192,148454,128,0,148727:0:0:0:0:
192,192,148454,1,0,0:0:0:0:
192,192,148727,128,0,149000:0:0:0:0:
320,192,148727,1,0,0:0:0:0:
320,192,149000,128,0,149545:0:0:0:0:
448,192,149000,1,0,0:0:0:0:
64,192,149272,1,0,0:0:0:0:
64,192,149545,128,0,149818:0:0:0:0:
192,192,149545,1,0,0:0:0:0:
448,192,149818,128,0,150636:0:0:0:0:
320,192,149818,1,0,0:0:0:0:
192,192,150091,1,0,0:0:0:0:
64,192,150363,1,0,0:0:0:0:
192,192,150636,1,0,0:0:0:0:
320,192,150909,1,0,0:0:0:0:
320,192,151181,128,0,151386:0:0:0:0:
192,192,151181,1,0,0:0:0:0:
320,192,151454,128,0,151727:0:0:0:0:
64,192,151454,1,0,0:0:0:0:
64,192,151727,128,0,152000:0:0:0:0:
192,192,151727,1,0,0:0:0:0:
192,192,152000,128,0,152272:0:0:0:0:
320,192,152000,1,0,0:0:0:0:
448,192,152272,128,0,153363:0:0:0:0:
64,192,152272,1,0,0:0:0:0:
192,192,152545,1,0,0:0:0:0:
320,192,152818,1,0,0:0:0:0:
192,192,153091,1,0,0:0:0:0:
64,192,153363,128,0,153636:0:0:0:0:
320,192,153363,1,0,0:0:0:0:
320,192,153636,128,0,153909:0:0:0:0:
192,192,153636,1,0,0:0:0:0:
192,192,153909,128,0,154181:0:0:0:0:
64,192,153909,1,0,0:0:0:0:
320,192,154181,128,0,154454:0:0:0:0:
448,192,154181,1,0,0:0:0:0:
448,192,154454,128,0,155000:0:0:0:0:
64,192,154454,1,0,0:0:0:0:
192,192,154727,1,0,0:0:0:0:
64,192,155000,128,0,155272:0:0:0:0:
320,192,155000,1,0,0:0:0:0:
320,192,155272,128,0,155545:0:0:0:0:
192,192,155272,1,0,0:0:0:0:
192,192,155545,128,0,155818:0:0:0:0:
448,192,155545,1,0,0:0:0:0:
320,192,155818,128,0,156091:0:0:0:0:
64,192,155818,1,0,0:0:0:0:
448,192,156091,128,0,156636:0:0:0:0:
64,192,156091,1,0,0:0:0:0:
192,192,156363,1,0,0:0:0:0:
320,192,156636,1,0,0:0:0:0:
448,192,156909,128,0,157181:0:0:0:0:
192,192,156909,1,0,0:0:0:0:
64,192,157181,128,0,158000:0:0:0:0:
320,192,157181,1,0,0:0:0:0:
448,192,157454,1,0,0:0:0:0:
320,192,157727,1,0,0:0:0:0:
192,192,158000,128,0,158545:0:0:0:0:
448,192,158000,1,0,0:0:0:0:
320,192,158272,1,0,0:0:0:0:
320,192,158545,128,0,158818:0:0:0:0:
64,192,158545,1,0,0:0:0:0:
448,192,158818,128,0,159363:0:0:0:0:
192,192,158818,1,0,0:0:0:0:
320,192,159091,1,0,0:0:0:0:
192,192,159363,1,0,0:0:0:0:
320,192,159636,128,0,159909:0:0:0:0:
192,192,159636,1,0,0:0:0:0:
192,192,159909,128,0,160181:0:0:0:0:
64,192,159909,1,0,0:0:0:0:
64,192,160181,128,0,160454:0:0:0:0:
448,192,160181,1,0,0:0:0:0:
448,192,160454,128,0,160727:0:0:0:0:
320,192,160454,1,0,0:0:0:0:
320,192,160727,128,0,161000:0:0:0:0:
192,192,160727,1,0,0:0:0:0:
192,192,161000,128,0,161272:0:0:0:0:
64,192,161000,1,0,0:0:0:0:
64,192,161272,128,0,161818:0:0:0:0:
320,192,161272,1,0,0:0:0:0:
448,192,161545,1,0,0:0:0:0:
448,192,161818,128,0,162091:0:0:0:0:
320,192,161818,1,0,0:0:0:0:
320,192,162091,128,0,162295:0:0:0:0:
192,192,162091,1,0,0:0:0:0:
320,192,162363,128,0,162636:0:0:0:0:
64,192,162363,1,0,0:0:0:0:
192,192,162636,128,0,162841:0:0:0:0:
448,192,162636,1,0,0:0:0:0:
192,192,162909,128,0,164000:0:0:0:0:
320,192,162909,1,0,0:0:0:0:
64,192,163181,1,0,0:0:0:0:
320,192,163454,1,0,0:0:0:0:
448,192,163727,1,0,0:0:0:0:
320,192,164000,1,0,0:0:0:0:
64,192,164272,1,0,0:0:0:0:
448,192,164545,128,0,165363:0:0:0:0:
192,192,164545,1,0,0:0:0:0:
64,192,164818,1,0,0:0:0:0:
192,192,165091,1,0,0:0:0:0:
64,192,165363,128,0,167000:0:0:0:0:
320,192,165363,1,0,0:0:0:0:
192,192,167000,128,0,168636:0:0:0:0:
320,192,167000,1,0,0:0:0:0:
64,192,167818,1,0,0:0:0:0:
448,192,167818,1,0,0:0:0:0:
320,192,168636,128,0,170272:0:0:0:0:
448,192,168636,1,0,0:0:0:0:
64,192,169454,1,0,0:0:0:0:
192,192,169454,1,0,0:0:0:0:
448,192,170272,128,0,173545:0:0:0:0:
192,192,170272,1,0,0:0:0:0:
64,192,171091,1,0,0:0:0:0:
320,192,171091,1,0,0:0:0:0:
192,192,171909,1,0,0:0:0:0:
320,192,171909,1,0,0:0:0:0:
64,192,172727,1,0,0:0:0:0:
320,192,172727,1,0,0:0:0:0:
192,192,173545,1,0,0:0:0:0:
64,192,173545,1,0,0:0:0:0:
64,192,174363,1,0,0:0:0:0:
320,192,174363,1,0,0:0:0:0:
448,192,175181,1,0,0:0:0:0:
192,192,175181,1,0,0:0:0:0:
448,192,176000,1,0,0:0:0:0:
320,192,176000,1,0,0:0:0:0:
192,192,176818,1,0,0:0:0:0:
448,192,176818,1,0,0:0:0:0:
192,192,177636,1,0,0:0:0:0:
320,192,177636,1,0,0:0:0:0:
320,192,178454,1,0,0:0:0:0:
448,192,178454,1,0,0:0:0:0:
192,192,178727,1,0,0:0:0:0:
320,192,178727,1,0,0:0:0:0:
64,192,179000,1,0,0:0:0:0:
192,192,179000,1,0,0:0:0:0:
320,192,179272,1,0,0:0:0:0:
448,192,179272,1,0,0:0:0:0:
320,192,179545,1,0,0:0:0:0:
192,192,179545,1,0,0:0:0:0:
192,192,179818,1,0,0:0:0:0:
64,192,179818,1,0,0:0:0:0:
320,192,180091,1,0,0:0:0:0:
448,192,180091,1,0,0:0:0:0:
192,192,180363,1,0,0:0:0:0:
320,192,180363,1,0,0:0:0:0:
64,192,180636,1,0,0:0:0:0:
192,192,180636,1,0,0:0:0:0:
448,192,180909,128,0,181181:0:0:0:0:
320,192,180909,1,0,0:0:0:0:
320,192,181181,128,0,181454:0:0:0:0:
192,192,181181,1,0,0:0:0:0:
192,192,181454,128,0,181727:0:0:0:0:
64,192,181454,1,0,0:0:0:0:
64,192,181727,128,0,182272:0:0:0:0:
320,192,181727,1,0,0:0:0:0:
192,192,182000,1,0,0:0:0:0:
320,192,182000,1,0,0:0:0:0:
320,192,182272,1,0,0:0:0:0:
448,192,182272,1,0,0:0:0:0:
192,192,182545,128,0,182818:0:0:0:0:
320,192,182545,1,0,0:0:0:0:
64,192,182818,128,0,183091:0:0:0:0:
448,192,182818,1,0,0:0:0:0:
192,192,183091,128,0,183295:0:0:0:0:
320,192,183091,1,0,0:0:0:0:
192,192,183363,128,0,183909:0:0:0:0:
64,192,183363,1,0,0:0:0:0:
320,192,183636,1,0,0:0:0:0:
448,192,183636,1,0,0:0:0:0:
448,192,183909,128,0,184181:0:0:0:0:
64,192,183909,1,0,0:0:0:0:
320,192,184181,128,0,185000:0:0:0:0:
192,192,184181,1,0,0:0:0:0:
192,192,184454,1,0,0:0:0:0:
64,192,184454,1,0,0:0:0:0:
192,192,184727,1,0,0:0:0:0:
448,192,184727,1,0,0:0:0:0:
192,192,185000,1,0,0:0:0:0:
64,192,185000,1,0,0:0:0:0:
192,192,185272,1,0,0:0:0:0:
320,192,185272,1,0,0:0:0:0:
320,192,185545,1,0,0:0:0:0:
448,192,185545,1,0,0:0:0:0:
320,192,185818,128,0,186091:0:0:0:0:
448,192,185818,1,0,0:0:0:0:
448,192,186091,128,0,186363:0:0:0:0:
192,192,186091,1,0,0:0:0:0:
192,192,186363,128,0,186568:0:0:0:0:
64,192,186363,1,0,0:0:0:0:
192,192,186636,128,0,186909:0:0:0:0:
320,192,186636,1,0,0:0:0:0:
64,192,186909,128,0,187181:0:0:0:0:
448,192,186909,1,0,0:0:0:0:
448,192,187181,128,0,187454:0:0:0:0:
320,192,187181,1,0,0:0:0:0:
320,192,187454,128,0,187727:0:0:0:0:
192,192,187454,1,0,0:0:0:0:
192,192,187727,128,0,188000:0:0:0:0:
64,192,187727,1,0,0:0:0:0:
64,192,188000,128,0,188272:0:0:0:0:
320,192,188000,1,0,0:0:0:0:
320,192,188272,128,0,188818:0:0:0:0:
448,192,188272,1,0,0:0:0:0:
192,192,188545,1,0,0:0:0:0:
64,192,188545,1,0,0:0:0:0:
192,192,188818,1,0,0:0:0:0:
448,192,188818,1,0,0:0:0:0:
64,192,189091,128,0,189363:0:0:0:0:
192,192,189091,1,0,0:0:0:0:
448,192,189363,128,0,189636:0:0:0:0:
320,192,189363,1,0,0:0:0:0:
320,192,189636,128,0,189841:0:0:0:0:
192,192,189636,1,0,0:0:0:0:
320,192,189909,128,0,190454:0:0:0:0:
448,192,189909,1,0,0:0:0:0:
64,192,190181,1,0,0:0:0:0:
192,192,190181,1,0,0:0:0:0:
64,192,190454,128,0,190727:0:0:0:0:
448,192,190454,1,0,0:0:0:0:
192,192,190727,128,0,191545:0:0:0:0:
320,192,190727,1,0,0:0:0:0:
64,192,191545,1,0,0:0:0:0:
448,192,191545,1,0,0:0:0:0:
192,192,191613,1,0,0:0:0:0:
320,192,191681,1,0,0:0:0:0:
448,192,191750,1,0,0:0:0:0:
320,192,191818,1,0,0:0:0:0:
192,192,191886,1,0,0:0:0:0:
64,192,191954,1,0,0:0:0:0:
192,192,192022,1,0,0:0:0:0:
320,192,192091,1,0,0:0:0:0:
448,192,192159,1,0,0:0:0:0:
320,192,192227,1,0,0:0:0:0:
192,192,192295,1,0,0:0:0:0:
64,192,192363,1,0,0:0:0:0:
192,192,192431,1,0,0:0:0:0:
320,192,192500,1,0,0:0:0:0:
448,192,192568,1,0,0:0:0:0:
320,192,192636,1,0,0:0:0:0:
192,192,192704,1,0,0:0:0:0:
64,192,192772,1,0,0:0:0:0:
192,192,192841,1,0,0:0:0:0:
320,192,192909,1,0,0:0:0:0:
448,192,192977,1,0,0:0:0:0:
320,192,193045,1,0,0:0:0:0:
192,192,193113,1,0,0:0:0:0:
448,192,193181,1,0,0:0:0:0:
320,192,193250,1,0,0:0:0:0:
192,192,193318,1,0,0:0:0:0:
64,192,193386,1,0,0:0:0:0:
192,192,193454,1,0,0:0:0:0:
320,192,193522,1,0,0:0:0:0:
448,192,193591,1,0,0:0:0:0:
320,192,193659,1,0,0:0:0:0:
192,192,193727,1,0,0:0:0:0:
64,192,193795,1,0,0:0:0:0:
192,192,193863,1,0,0:0:0:0:
320,192,193931,1,0,0:0:0:0:
448,192,194000,1,0,0:0:0:0:
320,192,194068,1,0,0:0:0:0:
192,192,194136,1,0,0:0:0:0:
64,192,194204,1,0,0:0:0:0:
192,192,194272,1,0,0:0:0:0:
320,192,194341,1,0,0:0:0:0:
448,192,194409,1,0,0:0:0:0:
320,192,194477,1,0,0:0:0:0:
192,192,194545,1,0,0:0:0:0:
64,192,194613,1,0,0:0:0:0:
192,192,194681,1,0,0:0:0:0:
320,192,194750,1,0,0:0:0:0:
192,192,194818,1,0,0:0:0:0:
448,192,194818,1,0,0:0:0:0:
320,192,194886,1,0,0:0:0:0:
448,192,194954,1,0,0:0:0:0:
320,192,195022,1,0,0:0:0:0:
192,192,195091,1,0,0:0:0:0:
320,192,195159,1,0,0:0:0:0:
448,192,195227,1,0,0:0:0:0:
320,192,195295,1,0,0:0:0:0:
192,192,195363,1,0,0:0:0:0:
320,192,195431,1,0,0:0:0:0:
448,192,195500,1,0,0:0:0:0:
320,192,195568,1,0,0:0:0:0:
192,192,195636,1,0,0:0:0:0:
64,192,195704,1,0,0:0:0:0:
192,192,195772,1,0,0:0:0:0:
320,192,195841,1,0,0:0:0:0:
192,192,195909,1,0,0:0:0:0:
64,192,195977,1,0,0:0:0:0:
192,192,196045,1,0,0:0:0:0:
320,192,196113,1,0,0:0:0:0:
192,192,196181,1,0,0:0:0:0:
64,192,196250,1,0,0:0:0:0:
192,192,196318,1,0,0:0:0:0:
320,192,196386,1,0,0:0:0:0:
448,192,196454,1,0,0:0:0:0:
320,192,196522,1,0,0:0:0:0:
192,192,196591,1,0,0:0:0:0:
64,192,196659,1,0,0:0:0:0:
448,192,196727,1,0,0:0:0:0:
320,192,196795,1,0,0:0:0:0:
192,192,196863,1,0,0:0:0:0:
64,192,196931,1,0,0:0:0:0:
448,192,197000,1,0,0:0:0:0:
320,192,197068,1,0,0:0:0:0:
192,192,197136,1,0,0:0:0:0:
64,192,197204,1,0,0:0:0:0:
448,192,197272,1,0,0:0:0:0:
320,192,197341,1,0,0:0:0:0:
192,192,197409,1,0,0:0:0:0:
64,192,197477,1,0,0:0:0:0:
448,192,197545,1,0,0:0:0:0:
320,192,197613,1,0,0:0:0:0:
192,192,197681,1,0,0:0:0:0:
64,192,197750,1,0,0:0:0:0:
448,192,197818,1,0,0:0:0:0:
320,192,197886,1,0,0:0:0:0:
192,192,197954,1,0,0:0:0:0:
320,192,198022,1,0,0:0:0:0:
64,192,198091,1,0,0:0:0:0:
448,192,198091,1,0,0:0:0:0:
192,192,198159,1,0,0:0:0:0:
320,192,198227,1,0,0:0:0:0:
448,192,198295,1,0,0:0:0:0:
64,192,198363,1,0,0:0:0:0:
192,192,198431,1,0,0:0:0:0:
320,192,198500,1,0,0:0:0:0:
448,192,198568,1,0,0:0:0:0:
64,192,198636,1,0,0:0:0:0:
192,192,198704,1,0,0:0:0:0:
320,192,198772,1,0,0:0:0:0:
448,192,198841,1,0,0:0:0:0:
64,192,198909,1,0,0:0:0:0:
192,192,198977,1,0,0:0:0:0:
320,192,199045,1,0,0:0:0:0:
448,192,199113,1,0,0:0:0:0:
64,192,199181,1,0,0:0:0:0:
192,192,199250,1,0,0:0:0:0:
320,192,199318,1,0,0:0:0:0:
448,192,199386,1,0,0:0:0:0:
64,192,199454,1,0,0:0:0:0:
192,192,199522,1,0,0:0:0:0:
320,192,199591,1,0,0:0:0:0:
448,192,199659,1,0,0:0:0:0:
64,192,199727,1,0,0:0:0:0:
192,192,199795,1,0,0:0:0:0:
320,192,199863,1,0,0:0:0:0:
192,192,199931,1,0,0:0:0:0:
448,192,200000,1,0,0:0:0:0:
320,192,200068,1,0,0:0:0:0:
192,192,200136,1,0,0:0:0:0:
320,192,200204,1,0,0:0:0:0:
64,192,200272,1,0,0:0:0:0:
192,192,200341,1,0,0:0:0:0:
320,192,200409,1,0,0:0:0:0:
192,192,200477,1,0,0:0:0:0:
448,192,200545,1,0,0:0:0:0:
320,192,200613,1,0,0:0:0:0:
192,192,200681,1,0,0:0:0:0:
320,192,200750,1,0,0:0:0:0:
64,192,200818,1,0,0:0:0:0:
192,192,200886,1,0,0:0:0:0:
320,192,200954,1,0,0:0:0:0:
192,192,201022,1,0,0:0:0:0:
448,192,201091,1,0,0:0:0:0:
320,192,201159,1,0,0:0:0:0:
192,192,201227,1,0,0:0:0:0:
320,192,201295,1,0,0:0:0:0:
64,192,201363,1,0,0:0:0:0:
448,192,201363,1,0,0:0:0:0:
192,192,201431,1,0,0:0:0:0:
448,192,201500,1,0,0:0:0:0:
320,192,201568,1,0,0:0:0:0:
64,192,201636,1,0,0:0:0:0:
192,192,201704,1,0,0:0:0:0:
448,192,201772,1,0,0:0:0:0:
320,192,201841,1,0,0:0:0:0:
64,192,201909,1,0,0:0:0:0:
192,192,201977,1,0,0:0:0:0:
448,192,202045,1,0,0:0:0:0:
320,192,202113,1,0,0:0:0:0:
192,192,202181,1,0,0:0:0:0:
64,192,202250,1,0,0:0:0:0:
320,192,202318,1,0,0:0:0:0:
448,192,202386,1,0,0:0:0:0:
192,192,202454,1,0,0:0:0:0:
64,192,202522,1,0,0:0:0:0:
320,192,202591,1,0,0:0:0:0:
448,192,202659,1,0,0:0:0:0:
192,192,202727,1,0,0:0:0:0:
64,192,202795,1,0,0:0:0:0:
320,192,202863,1,0,0:0:0:0:
448,192,202931,1,0,0:0:0:0:
320,192,203000,1,0,0:0:0:0:
192,192,203068,1,0,0:0:0:0:
320,192,203136,1,0,0:0:0:0:
448,192,203204,1,0,0:0:0:0:
192,192,203272,1,0,0:0:0:0:
64,192,203341,1,0,0:0:0:0:
320,192,203409,1,0,0:0:0:0:
448,192,203477,1,0,0:0:0:0:
192,192,203545,1,0,0:0:0:0:
64,192,203613,1,0,0:0:0:0:
192,192,203681,1,0,0:0:0:0:
320,192,203750,1,0,0:0:0:0:
448,192,203818,1,0,0:0:0:0:
192,192,203886,1,0,0:0:0:0:
320,192,203954,1,0,0:0:0:0:
64,192,204022,1,0,0:0:0:0:
448,192,204091,1,0,0:0:0:0:
192,192,204159,1,0,0:0:0:0:
320,192,204227,1,0,0:0:0:0:
448,192,204295,1,0,0:0:0:0:
64,192,204363,1,0,0:0:0:0:
192,192,204431,1,0,0:0:0:0:
320,192,204500,1,0,0:0:0:0:
448,192,204568,1,0,0:0:0:0:
64,192,204636,1,0,0:0:0:0:
320,192,204636,1,0,0:0:0:0:
192,192,204704,1,0,0:0:0:0:
448,192,204772,1,0,0:0:0:0:
64,192,204841,1,0,0:0:0:0:
320,192,204909,1,0,0:0:0:0:
192,192,204977,1,0,0:0:0:0:
448,192,205045,1,0,0:0:0:0:
64,192,205113,1,0,0:0:0:0:
320,192,205181,1,0,0:0:0:0:
192,192,205250,1,0,0:0:0:0:
448,192,205318,1,0,0:0:0:0:
64,192,205386,1,0,0:0:0:0:
448,192,205454,1,0,0:0:0:0:
192,192,205522,1,0,0:0:0:0:
320,192,205591,1,0,0:0:0:0:
64,192,205659,1,0,0:0:0:0:
448,192,205727,1,0,0:0:0:0:
192,192,205795,1,0,0:0:0:0:
320,192,205863,1,0,0:0:0:0:
64,192,205931,1,0,0:0:0:0:
448,192,206000,1,0,0:0:0:0:
192,192,206068,1,0,0:0:0:0:
320,192,206136,1,0,0:0:0:0:
64,192,206204,1,0,0:0:0:0:
192,192,206272,1,0,0:0:0:0:
448,192,206341,1,0,0:0:0:0:
64,192,206409,1,0,0:0:0:0:
320,192,206477,1,0,0:0:0:0:
192,192,206545,1,0,0:0:0:0:
448,192,206613,1,0,0:0:0:0:
64,192,206681,1,0,0:0:0:0:
320,192,206750,1,0,0:0:0:0:
192,192,206818,1,0,0:0:0:0:
448,192,206886,1,0,0:0:0:0:
64,192,206954,1,0,0:0:0:0:
320,192,207022,1,0,0:0:0:0:
448,192,207091,1,0,0:0:0:0:
64,192,207159,1,0,0:0:0:0:
320,192,207227,1,0,0:0:0:0:
192,192,207295,1,0,0:0:0:0:
448,192,207363,1,0,0:0:0:0:
64,192,207431,1,0,0:0:0:0:
320,192,207500,1,0,0:0:0:0:
192,192,207568,1,0,0:0:0:0:
448,192,207636,1,0,0:0:0:0:
64,192,207704,1,0,0:0:0:0:
320,192,207772,1,0,0:0:0:0:
192,192,207841,1,0,0:0:0:0:
64,192,207909,1,0,0:0:0:0:
448,192,207909,1,0,0:0:0:0:
192,192,207977,1,0,0:0:0:0:
320,192,208045,1,0,0:0:0:0:
448,192,208113,1,0,0:0:0:0:
64,192,208181,1,0,0:0:0:0:
320,192,208250,1,0,0:0:0:0:
192,192,208318,1,0,0:0:0:0:
448,192,208386,1,0,0:0:0:0:
64,192,208454,1,0,0:0:0:0:
448,192,208522,1,0,0:0:0:0:
320,192,208591,1,0,0:0:0:0:
192,192,208659,1,0,0:0:0:0:
448,192,208727,1,0,0:0:0:0:
320,192,208795,1,0,0:0:0:0:
192,192,208863,1,0,0:0:0:0:
64,192,208931,1,0,0:0:0:0:
448,192,209000,1,0,0:0:0:0:
192,192,209068,1,0,0:0:0:0:
320,192,209136,1,0,0:0:0:0:
64,192,209204,1,0,0:0:0:0:
448,192,209272,1,0,0:0:0:0:
64,192,209341,1,0,0:0:0:0:
192,192,209409,1,0,0:0:0:0:
320,192,209477,1,0,0:0:0:0:
64,192,209545,1,0,0:0:0:0:
192,192,209613,1,0,0:0:0:0:
320,192,209681,1,0,0:0:0:0:
448,192,209750,1,0,0:0:0:0:
64,192,209818,1,0,0:0:0:0:
192,192,209886,1,0,0:0:0:0:
320,192,209954,1,0,0:0:0:0:
192,192,210022,1,0,0:0:0:0:
448,192,210091,1,0,0:0:0:0:
320,192,210159,1,0,0:0:0:0:
192,192,210227,1,0,0:0:0:0:
320,192,210295,1,0,0:0:0:0:
448,192,210363,1,0,0:0:0:0:
320,192,210431,1,0,0:0:0:0:
192,192,210500,1,0,0:0:0:0:
64,192,210568,1,0,0:0:0:0:
448,192,210636,1,0,0:0:0:0:
320,192,210704,1,0,0:0:0:0:
192,192,210772,1,0,0:0:0:0:
320,192,210841,1,0,0:0:0:0:
64,192,210909,1,0,0:0:0:0:
192,192,210977,1,0,0:0:0:0:
320,192,211045,1,0,0:0:0:0:
192,192,211113,1,0,0:0:0:0:
64,192,211181,1,0,0:0:0:0:
448,192,211181,1,0,0:0:0:0:
192,192,211250,1,0,0:0:0:0:
320,192,211318,1,0,0:0:0:0:
448,192,211386,1,0,0:0:0:0:
320,192,211454,1,0,0:0:0:0:
192,192,211522,1,0,0:0:0:0:
64,192,211591,1,0,0:0:0:0:
192,192,211659,1,0,0:0:0:0:
320,192,211727,1,0,0:0:0:0:
448,192,211795,1,0,0:0:0:0:
320,192,211863,1,0,0:0:0:0:
192,192,211931,1,0,0:0:0:0:
448,192,212000,1,0,0:0:0:0:
320,192,212068,1,0,0:0:0:0:
192,192,212136,1,0,0:0:0:0:
64,192,212204,1,0,0:0:0:0:
192,192,212272,1,0,0:0:0:0:
320,192,212341,1,0,0:0:0:0:
448,192,212409,1,0,0:0:0:0:
320,192,212477,1,0,0:0:0:0:
192,192,212545,1,0,0:0:0:0:
64,192,212613,1,0,0:0:0:0:
192,192,212681,1,0,0:0:0:0:
320,192,212750,1,0,0:0:0:0:
192,192,212818,1,0,0:0:0:0:
64,192,212886,1,0,0:0:0:0:
192,192,212954,1,0,0:0:0:0:
320,192,213022,1,0,0:0:0:0:
448,192,213091,1,0,0:0:0:0:
320,192,213159,1,0,0:0:0:0:
192,192,213227,1,0,0:0:0:0:
64,192,213295,1,0,0:0:0:0:
192,192,213363,1,0,0:0:0:0:
320,192,213431,1,0,0:0:0:0:
448,192,213500,1,0,0:0:0:0:
320,192,213568,1,0,0:0:0:0:
192,192,213636,1,0,0:0:0:0:
320,192,213704,1,0,0:0:0:0:
448,192,213772,1,0,0:0:0:0:
320,192,213841,1,0,0:0:0:0:
192,192,213909,1,0,0:0:0:0:
64,192,213977,1,0,0:0:0:0:
192,192,214045,1,0,0:0:0:0:
320,192,214113,1,0,0:0:0:0:
448,192,214181,1,0,0:0:0:0:
320,192,214250,1,0,0:0:0:0:
192,192,214318,1,0,0:0:0:0:
64,192,214386,1,0,0:0:0:0:
192,192,214454,1,0,0:0:0:0:
448,192,214454,1,0,0:0:0:0:
320,192,214522,1,0,0:0:0:0:
192,192,214591,1,0,0:0:0:0:
64,192,214659,1,0,0:0:0:0:
320,192,214727,1,0,0:0:0:0:
192,192,214795,1,0,0:0:0:0:
64,192,214863,1,0,0:0:0:0:
192,192,214931,1,0,0:0:0:0:
320,192,215000,1,0,0:0:0:0:
448,192,215068,1,0,0:0:0:0:
320,192,215136,1,0,0:0:0:0:
192,192,215204,1,0,0:0:0:0:
64,192,215272,1,0,0:0:0:0:
320,192,215272,1,0,0:0:0:0:
192,192,215341,1,0,0:0:0:0:
320,192,215409,1,0,0:0:0:0:
448,192,215477,1,0,0:0:0:0:
192,192,215545,1,0,0:0:0:0:
320,192,215613,1,0,0:0:0:0:
448,192,215681,1,0,0:0:0:0:
320,192,215750,1,0,0:0:0:0:
192,192,215818,1,0,0:0:0:0:
64,192,215886,1,0,0:0:0:0:
192,192,215954,1,0,0:0:0:0:
320,192,216022,1,0,0:0:0:0:
64,192,216091,1,0,0:0:0:0:
448,192,216091,1,0,0:0:0:0:
320,192,216159,1,0,0:0:0:0:
192,192,216227,1,0,0:0:0:0:
320,192,216295,1,0,0:0:0:0:
192,192,216363,1,0,0:0:0:0:
448,192,216363,1,0,0:0:0:0:
64,192,216431,1,0,0:0:0:0:
192,192,216500,1,0,0:0:0:0:
64,192,216568,1,0,0:0:0:0:
192,192,216636,1,0,0:0:0:0:
448,192,216636,1,0,0:0:0:0:
320,192,216704,1,0,0:0:0:0:
192,192,216772,1,0,0:0:0:0:
320,192,216841,1,0,0:0:0:0:
448,192,216909,1,0,0:0:0:0:
64,192,216909,1,0,0:0:0:0:
192,192,216977,1,0,0:0:0:0:
320,192,217045,1,0,0:0:0:0:
64,192,217113,1,0,0:0:0:0:
192,192,217181,1,0,0:0:0:0:
448,192,217181,1,0,0:0:0:0:
64,192,217250,1,0,0:0:0:0:
320,192,217318,1,0,0:0:0:0:
192,192,217386,1,0,0:0:0:0:
448,192,217454,1,0,0:0:0:0:
64,192,217454,1,0,0:0:0:0:
320,192,217522,1,0,0:0:0:0:
448,192,217591,1,0,0:0:0:0:
192,192,217659,1,0,0:0:0:0:
64,192,217727,128,0,219363:0:0:0:0:
448,192,217727,128,0,219363:0:0:0:0:
64,192,219909,128,0,220181:0:0:0:0:
320,192,220181,128,0,220454:0:0:0:0:
192,192,220454,128,0,220727:0:0:0:0:
320,192,220727,128,0,221000:0:0:0:0:
64,192,221000,1,0,0:0:0:0:
448,192,221000,1,0,0:0:0:0:
192,192,221068,1,0,0:0:0:0:
320,192,221136,1,0,0:0:0:0:
448,192,221204,1,0,0:0:0:0:
320,192,221272,1,0,0:0:0:0:
64,192,221272,1,0,0:0:0:0:
192,192,221341,1,0,0:0:0:0:
64,192,221409,1,0,0:0:0:0:
192,192,221477,1,0,0:0:0:0:
320,192,221545,1,0,0:0:0:0:
448,192,221545,1,0,0:0:0:0:
192,192,221613,1,0,0:0:0:0:
64,192,221681,1,0,0:0:0:0:
192,192,221750,1,0,0:0:0:0:
320,192,221818,1,0,0:0:0:0:
64,192,221818,1,0,0:0:0:0:
448,192,221886,1,0,0:0:0:0:
320,192,221954,1,0,0:0:0:0:
192,192,222022,1,0,0:0:0:0:
64,192,222091,1,0,0:0:0:0:
448,192,222091,1,0,0:0:0:0:
192,192,222159,1,0,0:0:0:0:
320,192,222227,1,0,0:0:0:0:
448,192,222295,1,0,0:0:0:0:
320,192,222363,1,0,0:0:0:0:
64,192,222363,1,0,0:0:0:0:
192,192,222431,1,0,0:0:0:0:
64,192,222500,1,0,0:0:0:0:
192,192,222568,1,0,0:0:0:0:
320,192,222636,1,0,0:0:0:0:
448,192,222636,1,0,0:0:0:0:
192,192,222704,1,0,0:0:0:0:
64,192,222772,1,0,0:0:0:0:
192,192,222841,1,0,0:0:0:0:
448,192,222909,1,0,0:0:0:0:
320,192,222909,1,0,0:0:0:0:
192,192,222977,1,0,0:0:0:0:
64,192,223045,1,0,0:0:0:0:
192,192,223113,1,0,0:0:0:0:
320,192,223181,1,0,0:0:0:0:
448,192,223181,1,0,0:0:0:0:
192,192,223250,1,0,0:0:0:0:
64,192,223318,1,0,0:0:0:0:
192,192,223386,1,0,0:0:0:0:
320,192,223454,1,0,0:0:0:0:
448,192,223454,1,0,0:0:0:0:
64,192,223522,1,0,0:0:0:0:
192,192,223591,1,0,0:0:0:0:
64,192,223659,1,0,0:0:0:0:
320,192,223727,1,0,0:0:0:0:
448,192,223727,1,0,0:0:0:0:
64,192,223795,1,0,0:0:0:0:
192,192,223863,1,0,0:0:0:0:
64,192,223931,1,0,0:0:0:0:
320,192,224000,1,0,0:0:0:0:
448,192,224000,1,0,0:0:0:0:
64,192,224068,1,0,0:0:0:0:
192,192,224136,1,0,0:0:0:0:
64,192,224204,1,0,0:0:0:0:
192,192,224272,1,0,0:0:0:0:
320,192,224272,1,0,0:0:0:0:
448,192,224341,1,0,0:0:0:0:
64,192,224409,1,0,0:0:0:0:
448,192,224477,1,0,0:0:0:0:
192,192,224545,1,0,0:0:0:0:
320,192,224545,1,0,0:0:0:0:
64,192,224613,1,0,0:0:0:0:
448,192,224681,1,0,0:0:0:0:
64,192,224750,1,0,0:0:0:0:
192,192,224818,1,0,0:0:0:0:
320,192,224818,1,0,0:0:0:0:
448,192,224886,1,0,0:0:0:0:
64,192,224954,1,0,0:0:0:0:
448,192,225022,1,0,0:0:0:0:
64,192,225091,1,0,0:0:0:0:
192,192,225091,1,0,0:0:0:0:
320,192,225159,1,0,0:0:0:0:
448,192,225227,1,0,0:0:0:0:
320,192,225295,1,0,0:0:0:0:
64,192,225363,1,0,0:0:0:0:
192,192,225363,1,0,0:0:0:0:
448,192,225431,1,0,0:0:0:0:
320,192,225500,1,0,0:0:0:0:
448,192,225568,1,0,0:0:0:0:
64,192,225636,1,0,0:0:0:0:
192,192,225636,1,0,0:0:0:0:
320,192,225704,1,0,0:0:0:0:
448,192,225772,1,0,0:0:0:0:
320,192,225841,1,0,0:0:0:0:
64,192,225909,1,0,0:0:0:0:
192,192,225909,1,0,0:0:0:0:
320,192,225977,1,0,0:0:0:0:
448,192,226045,1,0,0:0:0:0:
320,192,226113,1,0,0:0:0:0:
448,192,226181,1,0,0:0:0:0:
192,192,226181,1,0,0:0:0:0:
64,192,226250,1,0,0:0:0:0:
192,192,226318,1,0,0:0:0:0:
320,192,226386,1,0,0:0:0:0:
448,192,226454,1,0,0:0:0:0:
64,192,226454,1,0,0:0:0:0:
320,192,226522,1,0,0:0:0:0:
192,192,226591,1,0,0:0:0:0:
64,192,226659,1,0,0:0:0:0:
192,192,226727,1,0,0:0:0:0:
448,192,226727,1,0,0:0:0:0:
320,192,226795,1,0,0:0:0:0:
448,192,226863,1,0,0:0:0:0:
320,192,226931,1,0,0:0:0:0:
192,192,227000,1,0,0:0:0:0:
448,192,227000,1,0,0:0:0:0:
64,192,227068,1,0,0:0:0:0:
192,192,227136,1,0,0:0:0:0:
320,192,227204,1,0,0:0:0:0:
448,192,227272,1,0,0:0:0:0:
64,192,227272,1,0,0:0:0:0:
320,192,227341,1,0,0:0:0:0:
192,192,227409,1,0,0:0:0:0:
64,192,227477,1,0,0:0:0:0:
320,192,227545,1,0,0:0:0:0:
448,192,227545,1,0,0:0:0:0:
192,192,227613,1,0,0:0:0:0:
64,192,227681,1,0,0:0:0:0:
448,192,227750,1,0,0:0:0:0:
320,192,227818,1,0,0:0:0:0:
192,192,227818,1,0,0:0:0:0:
64,192,227886,1,0,0:0:0:0:
448,192,227954,1,0,0:0:0:0:
320,192,228022,1,0,0:0:0:0:
192,192,228091,1,0,0:0:0:0:
64,192,228091,1,0,0:0:0:0:
448,192,228159,1,0,0:0:0:0:
320,192,228227,1,0,0:0:0:0:
192,192,228295,1,0,0:0:0:0:
64,192,228363,1,0,0:0:0:0:
448,192,228363,1,0,0:0:0:0:
320,192,228431,1,0,0:0:0:0:
192,192,228500,1,0,0:0:0:0:
64,192,228568,1,0,0:0:0:0:
320,192,228636,1,0,0:0:0:0:
448,192,228636,1,0,0:0:0:0:
192,192,228704,1,0,0:0:0:0:
64,192,228772,1,0,0:0:0:0:
448,192,228841,1,0,0:0:0:0:
320,192,228909,1,0,0:0:0:0:
192,192,228909,1,0,0:0:0:0:
64,192,228977,1,0,0:0:0:0:
448,192,229045,1,0,0:0:0:0:
320,192,229113,1,0,0:0:0:0:
64,192,229181,1,0,0:0:0:0:
192,192,229181,1,0,0:0:0:0:
320,192,229250,1,0,0:0:0:0:
448,192,229318,1,0,0:0:0:0:
64,192,229386,1,0,0:0:0:0:
192,192,229454,1,0,0:0:0:0:
320,192,229454,1,0,0:0:0:0:
448,192,229522,1,0,0:0:0:0:
64,192,229591,1,0,0:0:0:0:
192,192,229659,1,0,0:0:0:0:
320,192,229727,1,0,0:0:0:0:
448,192,229727,1,0,0:0:0:0:
64,192,229795,1,0,0:0:0:0:
192,192,229863,1,0,0:0:0:0:
320,192,229931,1,0,0:0:0:0:
448,192,230000,1,0,0:0:0:0:
64,192,230000,1,0,0:0:0:0:
192,192,230068,1,0,0:0:0:0:
320,192,230136,1,0,0:0:0:0:
448,192,230204,1,0,0:0:0:0:
64,192,230272,1,0,0:0:0:0:
192,192,230272,1,0,0:0:0:0:
320,192,230341,1,0,0:0:0:0:
448,192,230409,1,0,0:0:0:0:
64,192,230477,1,0,0:0:0:0:
192,192,230545,1,0,0:0:0:0:
320,192,230545,1,0,0:0:0:0:
448,192,230613,1,0,0:0:0:0:
64,192,230681,1,0,0:0:0:0:
192,192,230750,1,0,0:0:0:0:
448,192,230818,1,0,0:0:0:0:
320,192,230818,1,0,0:0:0:0:
192,192,230886,1,0,0:0:0:0:
64,192,230954,1,0,0:0:0:0:
448,192,231022,1,0,0:0:0:0:
64,192,231091,1,0,0:0:0:0:
192,192,231091,1,0,0:0:0:0:
320,192,231159,1,0,0:0:0:0:
448,192,231227,1,0,0:0:0:0:
64,192,231295,1,0,0:0:0:0:
320,192,231363,1,0,0:0:0:0:
448,192,231363,1,0,0:0:0:0:
192,192,231431,1,0,0:0:0:0:
64,192,231500,1,0,0:0:0:0:
448,192,231568,1,0,0:0:0:0:
64,192,231636,1,0,0:0:0:0:
192,192,231636,1,0,0:0:0:0:
320,192,231704,1,0,0:0:0:0:
448,192,231772,1,0,0:0:0:0:
64,192,231841,1,0,0:0:0:0:
320,192,231909,1,0,0:0:0:0:
448,192,231909,1,0,0:0:0:0:
192,192,231977,1,0,0:0:0:0:
64,192,232045,1,0,0:0:0:0:
448,192,232113,1,0,0:0:0:0:
64,192,232181,1,0,0:0:0:0:
192,192,232181,1,0,0:0:0:0:
320,192,232250,1,0,0:0:0:0:
448,192,232318,1,0,0:0:0:0:
64,192,232386,1,0,0:0:0:0:
448,192,232454,1,0,0:0:0:0:
320,192,232454,1,0,0:0:0:0:
192,192,232522,1,0,0:0:0:0:
64,192,232591,1,0,0:0:0:0:
448,192,232659,1,0,0:0:0:0:
320,192,232727,1,0,0:0:0:0:
192,192,232727,1,0,0:0:0:0:
64,192,232795,1,0,0:0:0:0:
448,192,232863,1,0,0:0:0:0:
320,192,232931,1,0,0:0:0:0:
192,192,233000,1,0,0:0:0:0:
64,192,233000,1,0,0:0:0:0:
448,192,233068,1,0,0:0:0:0:
320,192,233136,1,0,0:0:0:0:
192,192,233204,1,0,0:0:0:0:
64,192,233272,1,0,0:0:0:0:
448,192,233272,1,0,0:0:0:0:
192,192,233341,1,0,0:0:0:0:
320,192,233409,1,0,0:0:0:0:
448,192,233477,1,0,0:0:0:0:
64,192,233545,1,0,0:0:0:0:
320,192,233545,1,0,0:0:0:0:
192,192,233613,1,0,0:0:0:0:
320,192,233681,1,0,0:0:0:0:
448,192,233750,1,0,0:0:0:0:
320,192,233818,1,0,0:0:0:0:
64,192,233818,1,0,0:0:0:0:
192,192,233886,1,0,0:0:0:0:
320,192,233954,1,0,0:0:0:0:
448,192,234022,1,0,0:0:0:0:
64,192,234091,1,0,0:0:0:0:
192,192,234091,1,0,0:0:0:0:
320,192,234159,1,0,0:0:0:0:
448,192,234227,1,0,0:0:0:0:
64,192,234295,1,0,0:0:0:0:
192,192,234363,1,0,0:0:0:0:
320,192,234363,1,0,0:0:0:0:
448,192,234431,1,0,0:0:0:0:
64,192,234500,1,0,0:0:0:0:
192,192,234568,1,0,0:0:0:0:
320,192,234636,1,0,0:0:0:0:
448,192,234636,1,0,0:0:0:0:
64,192,234704,1,0,0:0:0:0:
192,192,234772,1,0,0:0:0:0:
320,192,234841,1,0,0:0:0:0:
64,192,234909,1,0,0:0:0:0:
448,192,234909,1,0,0:0:0:0:
320,192,234977,1,0,0:0:0:0:
192,192,235045,1,0,0:0:0:0:
64,192,235113,1,0,0:0:0:0:
448,192,235181,1,0,0:0:0:0:
320,192,235181,1,0,0:0:0:0:
192,192,235250,1,0,0:0:0:0:
64,192,235318,1,0,0:0:0:0:
448,192,235386,1,0,0:0:0:0:
320,192,235454,1,0,0:0:0:0:
192,192,235454,1,0,0:0:0:0:
64,192,235522,1,0,0:0:0:0:
448,192,235591,1,0,0:0:0:0:
320,192,235659,1,0,0:0:0:0:
64,192,235727,1,0,0:0:0:0:
448,192,235727,1,0,0:0:0:0:
192,192,235795,1,0,0:0:0:0:
320,192,235863,1,0,0:0:0:0:
448,192,235931,1,0,0:0:0:0:
64,192,236000,1,0,0:0:0:0:
320,192,236000,1,0,0:0:0:0:
192,192,236068,1,0,0:0:0:0:
320,192,236136,1,0,0:0:0:0:
448,192,236204,1,0,0:0:0:0:
64,192,236272,1,0,0:0:0:0:
320,192,236272,1,0,0:0:0:0:
192,192,236341,1,0,0:0:0:0:
320,192,236409,1,0,0:0:0:0:
448,192,236477,1,0,0:0:0:0:
320,192,236545,1,0,0:0:0:0:
64,192,236545,1,0,0:0:0:0:
448,192,236613,1,0,0:0:0:0:
320,192,236681,1,0,0:0:0:0:
192,192,236750,1,0,0:0:0:0:
64,192,236818,1,0,0:0:0:0:
320,192,236818,1,0,0:0:0:0:
448,192,236886,1,0,0:0:0:0:
320,192,236954,1,0,0:0:0:0:
192,192,237022,1,0,0:0:0:0:
64,192,237091,1,0,0:0:0:0:
320,192,237091,1,0,0:0:0:0:
448,192,237159,1,0,0:0:0:0:
320,192,237227,1,0,0:0:0:0:
192,192,237295,1,0,0:0:0:0:
64,192,237363,1,0,0:0:0:0:
448,192,237363,1,0,0:0:0:0:
320,192,237431,1,0,0:0:0:0:
192,192,237500,1,0,0:0:0:0:
320,192,237568,1,0,0:0:0:0:
64,192,237636,1,0,0:0:0:0:
448,192,237636,1,0,0:0:0:0:
192,192,237704,1,0,0:0:0:0:
320,192,237772,1,0,0:0:0:0:
192,192,237841,1,0,0:0:0:0:
448,192,237909,1,0,0:0:0:0:
64,192,237909,1,0,0:0:0:0:
320,192,237977,1,0,0:0:0:0:
192,192,238045,1,0,0:0:0:0:
320,192,238113,1,0,0:0:0:0:
192,192,238181,1,0,0:0:0:0:
448,192,238181,1,0,0:0:0:0:
64,192,238250,1,0,0:0:0:0:
320,192,238318,1,0,0:0:0:0:
64,192,238386,1,0,0:0:0:0:
192,192,238454,1,0,0:0:0:0:
448,192,238454,1,0,0:0:0:0:
320,192,238522,1,0,0:0:0:0:
64,192,238591,1,0,0:0:0:0:
320,192,238659,1,0,0:0:0:0:
192,192,238727,1,0,0:0:0:0:
448,192,238727,1,0,0:0:0:0:
64,192,238795,1,0,0:0:0:0:
320,192,238863,1,0,0:0:0:0:
64,192,238931,1,0,0:0:0:0:
320,192,239000,1,0,0:0:0:0:
448,192,239000,1,0,0:0:0:0:
192,192,239068,1,0,0:0:0:0:
64,192,239136,1,0,0:0:0:0:
192,192,239204,1,0,0:0:0:0:
320,192,239272,1,0,0:0:0:0:
448,192,239272,1,0,0:0:0:0:
64,192,239341,1,0,0:0:0:0:
192,192,239409,1,0,0:0:0:0:
64,192,239477,1,0,0:0:0:0:
320,192,239545,1,0,0:0:0:0:
448,192,239545,1,0,0:0:0:0:
192,192,239613,1,0,0:0:0:0:
64,192,239681,1,0,0:0:0:0:
192,192,239750,1,0,0:0:0:0:
64,192,239818,1,0,0:0:0:0:
320,192,239818,1,0,0:0:0:0:
192,192,239886,1,0,0:0:0:0:
448,192,239954,1,0,0:0:0:0:
192,192,240022,1,0,0:0:0:0:
320,192,240091,1,0,0:0:0:0:
64,192,240091,1,0,0:0:0:0:
448,192,240159,1,0,0:0:0:0:
192,192,240227,1,0,0:0:0:0:
448,192,240295,1,0,0:0:0:0:
320,192,240363,1,0,0:0:0:0:
64,192,240363,1,0,0:0:0:0:
192,192,240431,1,0,0:0:0:0:
448,192,240500,1,0,0:0:0:0:
192,192,240568,1,0,0:0:0:0:
64,192,240636,1,0,0:0:0:0:
448,192,240636,1,0,0:0:0:0:
192,192,240704,1,0,0:0:0:0:
448,192,240772,1,0,0:0:0:0:
320,192,240841,1,0,0:0:0:0:
64,192,240909,1,0,0:0:0:0:
448,192,240909,1,0,0:0:0:0:
192,192,240977,1,0,0:0:0:0:
448,192,241045,1,0,0:0:0:0:
320,192,241113,1,0,0:0:0:0:
64,192,241181,1,0,0:0:0:0:
448,192,241181,1,0,0:0:0:0:
192,192,241250,1,0,0:0:0:0:
448,192,241318,1,0,0:0:0:0:
320,192,241386,1,0,0:0:0:0:
64,192,241454,1,0,0:0:0:0:
448,192,241454,1,0,0:0:0:0:
320,192,241522,1,0,0:0:0:0:
64,192,241591,1,0,0:0:0:0:
192,192,241659,1,0,0:0:0:0:
64,192,241727,1,0,0:0:0:0:
448,192,241727,1,0,0:0:0:0:
320,192,241795,1,0,0:0:0:0:
64,192,241863,1,0,0:0:0:0:
192,192,241931,1,0,0:0:0:0:
64,192,242000,1,0,0:0:0:0:
448,192,242000,1,0,0:0:0:0:
320,192,242068,1,0,0:0:0:0:
64,192,242136,1,0,0:0:0:0:
192,192,242204,1,0,0:0:0:0:
320,192,242272,1,0,0:0:0:0:
448,192,242272,1,0,0:0:0:0:
64,192,242341,1,0,0:0:0:0:
192,192,242409,1,0,0:0:0:0:
320,192,242477,1,0,0:0:0:0:
448,192,242545,1,0,0:0:0:0:
192,192,242545,1,0,0:0:0:0:
64,192,242613,1,0,0:0:0:0:
192,192,242681,1,0,0:0:0:0:
320,192,242750,1,0,0:0:0:0:
448,192,242818,1,0,0:0:0:0:
64,192,242818,1,0,0:0:0:0:
192,192,242886,1,0,0:0:0:0:
320,192,242954,1,0,0:0:0:0:
448,192,243022,1,0,0:0:0:0:
192,192,243091,1,0,0:0:0:0:
64,192,243091,1,0,0:0:0:0:
448,192,243159,1,0,0:0:0:0:
320,192,243227,1,0,0:0:0:0:
192,192,243295,1,0,0:0:0:0:
64,192,243363,1,0,0:0:0:0:
320,192,243363,1,0,0:0:0:0:
448,192,243431,1,0,0:0:0:0:
320,192,243500,1,0,0:0:0:0:
192,192,243568,1,0,0:0:0:0:
64,192,243636,1,0,0:0:0:0:
448,192,243636,1,0,0:0:0:0:
320,192,243704,1,0,0:0:0:0:
192,192,243772,1,0,0:0:0:0:
64,192,243841,1,0,0:0:0:0:
320,192,243909,1,0,0:0:0:0:
448,192,243909,1,0,0:0:0:0:
192,192,243977,1,0,0:0:0:0:
64,192,244045,1,0,0:0:0:0:
448,192,244113,1,0,0:0:0:0:
320,192,244181,1,0,0:0:0:0:
192,192,244181,1,0,0:0:0:0:
64,192,244250,1,0,0:0:0:0:
448,192,244318,1,0,0:0:0:0:
320,192,244386,1,0,0:0:0:0:
192,192,244454,1,0,0:0:0:0:
64,192,244454,1,0,0:0:0:0:
448,192,244522,1,0,0:0:0:0:
320,192,244591,1,0,0:0:0:0:
192,192,244659,1,0,0:0:0:0:
448,192,244727,1,0,0:0:0:0:
320,192,244727,1,0,0:0:0:0:
192,192,244795,1,0,0:0:0:0:
64,192,244863,1,0,0:0:0:0:
448,192,244931,1,0,0:0:0:0:
320,192,245000,1,0,0:0:0:0:
192,192,245000,1,0,0:0:0:0:
64,192,245068,1,0,0:0:0:0:
448,192,245136,1,0,0:0:0:0:
320,192,245204,1,0,0:0:0:0:
192,192,245272,1,0,0:0:0:0:
64,192,245272,1,0,0:0:0:0:
448,192,245341,1,0,0:0:0:0:
320,192,245409,1,0,0:0:0:0:
192,192,245477,1,0,0:0:0:0:
64,192,245545,1,0,0:0:0:0:
448,192,245545,1,0,0:0:0:0:
192,192,245613,1,0,0:0:0:0:
320,192,245681,1,0,0:0:0:0:
448,192,245750,1,0,0:0:0:0:
192,192,245818,1,0,0:0:0:0:
320,192,245818,1,0,0:0:0:0:
448,192,245886,1,0,0:0:0:0:
64,192,245954,1,0,0:0:0:0:
192,192,246022,1,0,0:0:0:0:
320,192,246091,1,0,0:0:0:0:
448,192,246091,1,0,0:0:0:0:
64,192,246159,1,0,0:0:0:0:
192,192,246227,1,0,0:0:0:0:
320,192,246295,1,0,0:0:0:0:
192,192,246363,1,0,0:0:0:0:
64,192,246363,1,0,0:0:0:0:
320,192,246431,1,0,0:0:0:0:
448,192,246500,1,0,0:0:0:0:
64,192,246568,1,0,0:0:0:0:
192,192,246636,1,0,0:0:0:0:
320,192,246636,1,0,0:0:0:0:
448,192,246704,1,0,0:0:0:0:
64,192,246772,1,0,0:0:0:0:
192,192,246841,1,0,0:0:0:0:
320,192,246909,1,0,0:0:0:0:
448,192,246909,1,0,0:0:0:0:
64,192,246977,1,0,0:0:0:0:
192,192,247045,1,0,0:0:0:0:
320,192,247113,1,0,0:0:0:0:
448,192,247181,1,0,0:0:0:0:
192,192,247181,1,0,0:0:0:0:
320,192,247250,1,0,0:0:0:0:
192,192,247318,1,0,0:0:0:0:
64,192,247386,1,0,0:0:0:0:
448,192,247454,1,0,0:0:0:0:
192,192,247454,1,0,0:0:0:0:
320,192,247522,1,0,0:0:0:0:
192,192,247591,1,0,0:0:0:0:
64,192,247659,1,0,0:0:0:0:
192,192,247727,1,0,0:0:0:0:
448,192,247727,1,0,0:0:0:0:
320,192,247795,1,0,0:0:0:0:
192,192,247863,1,0,0:0:0:0:
64,192,247931,1,0,0:0:0:0:
192,192,248000,1,0,0:0:0:0:
448,192,248000,1,0,0:0:0:0:
64,192,248068,1,0,0:0:0:0:
192,192,248136,1,0,0:0:0:0:
320,192,248204,1,0,0:0:0:0:
448,192,248272,1,0,0:0:0:0:
192,192,248272,1,0,0:0:0:0:
64,192,248341,1,0,0:0:0:0:
192,192,248409,1,0,0:0:0:0:
320,192,248477,1,0,0:0:0:0:
448,192,248545,1,0,0:0:0:0:
192,192,248545,1,0,0:0:0:0:
64,192,248613,1,0,0:0:0:0:
192,192,248681,1,0,0:0:0:0:
320,192,248750,1,0,0:0:0:0:
64,192,248818,1,0,0:0:0:0:
448,192,248818,1,0,0:0:0:0:
192,192,248886,1,0,0:0:0:0:
320,192,248954,1,0,0:0:0:0:
448,192,249022,1,0,0:0:0:0:
64,192,249091,1,0,0:0:0:0:
320,192,249091,1,0,0:0:0:0:
448,192,249159,1,0,0:0:0:0:
320,192,249227,1,0,0:0:0:0:
192,192,249295,1,0,0:0:0:0:
64,192,249363,1,0,0:0:0:0:
320,192,249363,1,0,0:0:0:0:
192,192,249431,1,0,0:0:0:0:
320,192,249500,1,0,0:0:0:0:
448,192,249568,1,0,0:0:0:0:
320,192,249636,1,0,0:0:0:0:
192,192,249636,1,0,0:0:0:0:
64,192,249704,1,0,0:0:0:0:
448,192,249772,1,0,0:0:0:0:
320,192,249841,1,0,0:0:0:0:
192,192,249909,1,0,0:0:0:0:
64,192,249909,1,0,0:0:0:0:
448,192,249977,1,0,0:0:0:0:
320,192,250045,1,0,0:0:0:0:
192,192,250113,1,0,0:0:0:0:
448,192,250181,1,0,0:0:0:0:
64,192,250181,1,0,0:0:0:0:
320,192,250250,1,0,0:0:0:0:
192,192,250318,1,0,0:0:0:0:
64,192,250386,1,0,0:0:0:0:
192,192,250454,1,0,0:0:0:0:
448,192,250454,1,0,0:0:0:0:
320,192,250522,1,0,0:0:0:0:
448,192,250591,1,0,0:0:0:0:
64,192,250659,1,0,0:0:0:0:
192,192,250727,1,0,0:0:0:0:
320,192,250727,1,0,0:0:0:0:
448,192,250795,1,0,0:0:0:0:
64,192,250863,1,0,0:0:0:0:
192,192,250931,1,0,0:0:0:0:
320,192,251000,1,0,0:0:0:0:
448,192,251000,1,0,0:0:0:0:
64,192,251068,1,0,0:0:0:0:
192,192,251136,1,0,0:0:0:0:
320,192,251204,1,0,0:0:0:0:
448,192,251272,1,0,0:0:0:0:
64,192,251272,1,0,0:0:0:0:
320,192,251341,1,0,0:0:0:0:
192,192,251409,1,0,0:0:0:0:
64,192,251477,1,0,0:0:0:0:
448,192,251545,1,0,0:0:0:0:
192,192,251545,1,0,0:0:0:0:
320,192,251613,1,0,0:0:0:0:
192,192,251681,1,0,0:0:0:0:
64,192,251750,1,0,0:0:0:0:
320,192,251818,1,0,0:0:0:0:
448,192,251818,1,0,0:0:0:0:
192,192,251886,1,0,0:0:0:0:
64,192,251954,1,0,0:0:0:0:
448,192,252022,1,0,0:0:0:0:
64,192,252091,1,0,0:0:0:0:
320,192,252091,1,0,0:0:0:0:
192,192,252159,1,0,0:0:0:0:
320,192,252227,1,0,0:0:0:0:
448,192,252295,1,0,0:0:0:0:
64,192,252363,1,0,0:0:0:0:
320,192,252363,1,0,0:0:0:0:
192,192,252431,1,0,0:0:0:0:
320,192,252500,1,0,0:0:0:0:
448,192,252568,1,0,0:0:0:0:
64,192,252636,1,0,0:0:0:0:
320,192,252636,1,0,0:0:0:0:
192,192,252704,1,0,0:0:0:0:
320,192,252772,1,0,0:0:0:0:
448,192,252841,1,0,0:0:0:0:
320,192,252909,1,0,0:0:0:0:
192,192,252909,1,0,0:0:0:0:
448,192,252977,1,0,0:0:0:0:
192,192,253045,1,0,0:0:0:0:
64,192,253113,1,0,0:0:0:0:
192,192,253181,1,0,0:0:0:0:
320,192,253181,1,0,0:0:0:0:
448,192,253250,1,0,0:0:0:0:
192,192,253318,1,0,0:0:0:0:
64,192,253386,1,0,0:0:0:0:
192,192,253454,1,0,0:0:0:0:
320,192,253454,1,0,0:0:0:0:
448,192,253522,1,0,0:0:0:0:
192,192,253591,1,0,0:0:0:0:
64,192,253659,1,0,0:0:0:0:
320,192,253727,1,0,0:0:0:0:
448,192,253727,1,0,0:0:0:0:
192,192,253795,1,0,0:0:0:0:
64,192,253863,1,0,0:0:0:0:
192,192,253931,1,0,0:0:0:0:
320,192,254000,1,0,0:0:0:0:
448,192,254000,1,0,0:0:0:0:
192,192,254068,1,0,0:0:0:0:
64,192,254136,1,0,0:0:0:0:
192,192,254204,1,0,0:0:0:0:
320,192,254272,1,0,0:0:0:0:
448,192,254272,1,0,0:0:0:0:
192,192,254341,1,0,0:0:0:0:
64,192,254409,1,0,0:0:0:0:
192,192,254477,1,0,0:0:0:0:
64,192,254545,1,0,0:0:0:0:
448,192,254545,1,0,0:0:0:0:
320,192,254613,1,0,0:0:0:0:
192,192,254681,1,0,0:0:0:0:
320,192,254750,1,0,0:0:0:0:
64,192,254818,1,0,0:0:0:0:
448,192,254818,1,0,0:0:0:0:
320,192,254886,1,0,0:0:0:0:
192,192,254954,1,0,0:0:0:0:
320,192,255022,1,0,0:0:0:0:
64,192,255091,1,0,0:0:0:0:
448,192,255091,1,0,0:0:0:0:
320,192,255159,1,0,0:0:0:0:
192,192,255227,1,0,0:0:0:0:
320,192,255295,1,0,0:0:0:0:
64,192,255363,1,0,0:0:0:0:
192,192,255363,1,0,0:0:0:0:
448,192,255431,1,0,0:0:0:0:
320,192,255500,1,0,0:0:0:0:
448,192,255568,1,0,0:0:0:0:
192,192,255636,1,0,0:0:0:0:
64,192,255636,1,0,0:0:0:0:
448,192,255704,1,0,0:0:0:0:
320,192,255772,1,0,0:0:0:0:
448,192,255841,1,0,0:0:0:0:
64,192,255909,1,0,0:0:0:0:
192,192,255909,1,0,0:0:0:0:
448,192,255977,1,0,0:0:0:0:
320,192,256045,1,0,0:0:0:0:
448,192,256113,1,0,0:0:0:0:
64,192,256181,1,0,0:0:0:0:
192,192,256181,1,0,0:0:0:0:
320,192,256250,1,0,0:0:0:0:
448,192,256318,1,0,0:0:0:0:
320,192,256386,1,0,0:0:0:0:
64,192,256454,1,0,0:0:0:0:
192,192,256454,1,0,0:0:0:0:
320,192,256522,1,0,0:0:0:0:
448,192,256591,1,0,0:0:0:0:
320,192,256659,1,0,0:0:0:0:
64,192,256727,1,0,0:0:0:0:
192,192,256727,1,0,0:0:0:0:
320,192,256795,1,0,0:0:0:0:
448,192,256863,1,0,0:0:0:0:
320,192,256931,1,0,0:0:0:0:
64,192,257000,1,0,0:0:0:0:
448,192,257000,1,0,0:0:0:0:
320,192,257068,1,0,0:0:0:0:
192,192,257136,1,0,0:0:0:0:
320,192,257204,1,0,0:0:0:0:
448,192,257272,1,0,0:0:0:0:
64,192,257272,1,0,0:0:0:0:
192,192,257341,1,0,0:0:0:0:
320,192,257409,1,0,0:0:0:0:
192,192,257477,1,0,0:0:0:0:
64,192,257545,1,0,0:0:0:0:
448,192,257545,1,0,0:0:0:0:
320,192,257613,1,0,0:0:0:0:
192,192,257681,1,0,0:0:0:0:
320,192,257750,1,0,0:0:0:0:
64,192,257818,1,0,0:0:0:0:
448,192,257818,1,0,0:0:0:0:
320,192,257886,1,0,0:0:0:0:
192,192,257954,1,0,0:0:0:0:
320,192,258022,1,0,0:0:0:0:
64,192,258091,1,0,0:0:0:0:
448,192,258091,1,0,0:0:0:0:
192,192,258159,1,0,0:0:0:0:
320,192,258227,1,0,0:0:0:0:
192,192,258295,1,0,0:0:0:0:
64,192,258363,1,0,0:0:0:0:
448,192,258363,1,0,0:0:0:0:
320,192,258431,1,0,0:0:0:0:
192,192,258500,1,0,0:0:0:0:
320,192,258568,1,0,0:0:0:0:
448,192,258636,1,0,0:0:0:0:
64,192,258636,1,0,0:0:0:0:
192,192,258704,1,0,0:0:0:0:
320,192,258772,1,0,0:0:0:0:
448,192,258841,1,0,0:0:0:0:
64,192,258909,1,0,0:0:0:0:
320,192,258909,1,0,0:0:0:0:
192,192,258977,1,0,0:0:0:0:
320,192,259045,1,0,0:0:0:0:
448,192,259113,1,0,0:0:0:0:
64,192,259181,1,0,0:0:0:0:
320,192,259181,1,0,0:0:0:0:
192,192,259250,1,0,0:0:0:0:
320,192,259318,1,0,0:0:0:0:
448,192,259386,1,0,0:0:0:0:
320,192,259454,1,0,0:0:0:0:
64,192,259454,1,0,0:0:0:0:
192,192,259522,1,0,0:0:0:0:
64,192,259591,1,0,0:0:0:0:
192,192,259659,1,0,0:0:0:0:
320,192,259727,1,0,0:0:0:0:
448,192,259727,1,0,0:0:0:0:
192,192,259795,1,0,0:0:0:0:
64,192,259863,1,0,0:0:0:0:
192,192,259931,1,0,0:0:0:0:
320,192,260000,1,0,0:0:0:0:
448,192,260000,1,0,0:0:0:0:
192,192,260068,1,0,0:0:0:0:
64,192,260136,1,0,0:0:0:0:
192,192,260204,1,0,0:0:0:0:
448,192,260272,1,0,0:0:0:0:
320,192,260272,1,0,0:0:0:0:
64,192,260341,1,0,0:0:0:0:
192,192,260409,1,0,0:0:0:0:
448,192,260477,1,0,0:0:0:0:
64,192,260545,1,0,0:0:0:0:
320,192,260545,1,0,0:0:0:0:
448,192,260613,1,0,0:0:0:0:
192,192,260681,1,0,0:0:0:0:
64,192,260750,1,0,0:0:0:0:
448,192,260818,1,0,0:0:0:0:
320,192,260818,1,0,0:0:0:0:
192,192,260886,1,0,0:0:0:0:
64,192,260954,1,0,0:0:0:0:
448,192,261022,1,0,0:0:0:0:
64,192,261091,1,0,0:0:0:0:
192,192,261091,1,0,0:0:0:0:
448,192,261159,1,0,0:0:0:0:
320,192,261227,1,0,0:0:0:0:
64,192,261295,1,0,0:0:0:0:
320,192,261363,1,0,0:0:0:0:
448,192,261363,1,0,0:0:0:0:
64,192,261431,1,0,0:0:0:0:
192,192,261500,1,0,0:0:0:0:
448,192,261568,1,0,0:0:0:0:
192,192,261636,1,0,0:0:0:0:
64,192,261636,1,0,0:0:0:0:
448,192,261704,1,0,0:0:0:0:
320,192,261772,1,0,0:0:0:0:
64,192,261841,1,0,0:0:0:0:
448,192,261909,1,0,0:0:0:0:
192,192,261909,1,0,0:0:0:0:
64,192,261977,1,0,0:0:0:0:
320,192,262045,1,0,0:0:0:0:
448,192,262113,1,0,0:0:0:0:
192,192,262181,1,0,0:0:0:0:
64,192,262181,1,0,0:0:0:0:
448,192,262250,1,0,0:0:0:0:
192,192,262318,1,0,0:0:0:0:
64,192,262386,1,0,0:0:0:0:
448,192,262454,1,0,0:0:0:0:
192,192,262454,1,0,0:0:0:0:
64,192,262522,1,0,0:0:0:0:
320,192,262591,1,0,0:0:0:0:
448,192,262659,1,0,0:0:0:0:
64,192,262727,1,0,0:0:0:0:
320,192,262727,1,0,0:0:0:0:
448,192,262795,1,0,0:0:0:0:
192,192,262863,1,0,0:0:0:0:
64,192,262931,1,0,0:0:0:0:
192,192,263000,1,0,0:0:0:0:
448,192,263000,1,0,0:0:0:0:
64,192,263068,1,0,0:0:0:0:
320,192,263136,1,0,0:0:0:0:
448,192,263204,1,0,0:0:0:0:
192,192,263272,1,0,0:0:0:0:
64,192,263272,1,0,0:0:0:0:
448,192,263341,1,0,0:0:0:0:
192,192,263409,1,0,0:0:0:0:
64,192,263477,1,0,0:0:0:0:
320,192,263545,1,0,0:0:0:0:
448,192,263545,1,0,0:0:0:0:
192,192,263613,1,0,0:0:0:0:
64,192,263681,1,0,0:0:0:0:
192,192,263750,1,0,0:0:0:0:
448,192,263818,1,0,0:0:0:0:
320,192,263818,1,0,0:0:0:0:
192,192,263886,1,0,0:0:0:0:
64,192,263954,1,0,0:0:0:0:
192,192,264022,1,0,0:0:0:0:
320,192,264091,1,0,0:0:0:0:
448,192,264091,1,0,0:0:0:0:
192,192,264159,1,0,0:0:0:0:
64,192,264227,1,0,0:0:0:0:
192,192,264295,1,0,0:0:0:0:
448,192,264363,1,0,0:0:0:0:
320,192,264363,1,0,0:0:0:0:
192,192,264431,1,0,0:0:0:0:
448,192,264500,1,0,0:0:0:0:
192,192,264568,1,0,0:0:0:0:
64,192,264636,1,0,0:0:0:0:
448,192,264636,1,0,0:0:0:0:
320,192,264704,1,0,0:0:0:0:
64,192,264772,1,0,0:0:0:0:
192,192,264841,1,0,0:0:0:0:
448,192,264909,1,0,0:0:0:0:
64,192,264909,1,0,0:0:0:0:
320,192,264977,1,0,0:0:0:0:
448,192,265045,1,0,0:0:0:0:
64,192,265113,1,0,0:0:0:0:
320,192,265181,1,0,0:0:0:0:
192,192,265181,1,0,0:0:0:0:
64,192,265250,1,0,0:0:0:0:
448,192,265318,1,0,0:0:0:0:
64,192,265386,1,0,0:0:0:0:
448,192,265454,1,0,0:0:0:0:
192,192,265454,1,0,0:0:0:0:
64,192,265522,1,0,0:0:0:0:
448,192,265591,1,0,0:0:0:0:
64,192,265659,1,0,0:0:0:0:
320,192,265727,1,0,0:0:0:0:
448,192,265727,1,0,0:0:0:0:
64,192,265795,1,0,0:0:0:0:
448,192,265863,1,0,0:0:0:0:
192,192,265931,1,0,0:0:0:0:
320,192,266000,1,0,0:0:0:0:
64,192,266000,1,0,0:0:0:0:
192,192,266068,1,0,0:0:0:0:
320,192,266136,1,0,0:0:0:0:
192,192,266204,1,0,0:0:0:0:
320,192,266272,1,0,0:0:0:0:
448,192,266272,1,0,0:0:0:0:
192,192,266341,1,0,0:0:0:0:
320,192,266409,1,0,0:0:0:0:
192,192,266477,1,0,0:0:0:0:
320,192,266545,1,0,0:0:0:0:
64,192,266545,1,0,0:0:0:0:
192,192,266613,1,0,0:0:0:0:
320,192,266681,1,0,0:0:0:0:
192,192,266750,1,0,0:0:0:0:
448,192,266818,1,0,0:0:0:0:
64,192,266818,1,0,0:0:0:0:
320,192,266818,1,0,0:0:0:0:
