osu file format v14

[General]
AudioFilename: audio.mp3
AudioLeadIn: 0
PreviewTime: 188772
Countdown: 0
SampleSet: Normal
StackLeniency: 0.7
Mode: 1
LetterboxInBreaks: 0
WidescreenStoryboard: 0

[Editor]
DistanceSpacing: 0.3
BeatDivisor: 4
GridSize: 32
TimelineZoom: 2.5

[Metadata]
Title:masterpiece (Cut Ver.)
TitleUnicode:masterpiece (Cut Ver.)
Artist:Hommarju feat. Latte
ArtistUnicode:Hommarju feat. Latte
Creator:_Rise
Version:Oni
Source:とある魔術の禁書目録
Tags:anime electronic japanese jpop j-pop remix cover toaru majutsu no kinsho mokuroku a certain magical index exit trance presents speed アニメトランス best 7 opening jcore j-core hardcore bootleg Kawada Mami 川田まみ featuring version
BeatmapID:3200296
BeatmapSetID:1567085

[Difficulty]
HPDrainRate:5
CircleSize:5
OverallDifficulty:6
ApproachRate:5
SliderMultiplier:1.4
SliderTickRate:1

[Events]
//Background and Video events
0,0,"bg.jpg",0,50
//Break Periods
2,45514,55114
//Storyboard Layer 0 (Background)
//Storyboard Layer 1 (Fail)
//Storyboard Layer 2 (Pass)
//Storyboard Layer 3 (Foreground)
//Storyboard Layer 4 (Overlay)
//Storyboard Sound Samples

[TimingPoints]
10648,333.333333333333,4,1,0,75,1,0
10648,-125,4,1,0,75,0,0
15939,-125,4,1,0,85,0,0
21273,-100,4,1,0,90,0,0
45356,-125,4,1,0,70,0,0
55939,-111.111111111111,4,1,0,75,0,0
58606,-111.111111111111,4,1,0,80,0,0
61272,-111.111111111111,4,1,0,85,0,0
66606,-100,4,1,0,90,0,0
98689,-111.111111111111,4,1,0,90,0,0
109273,-100,4,1,0,90,0,0
165356,-125,4,1,0,70,0,0
178606,-111.111111111111,4,1,0,80,0,0
181272,-111.111111111111,4,1,0,85,0,0
183939,-111.111111111111,4,1,0,90,0,0
189273,-100,4,1,0,90,0,0
189314,-100,4,1,0,90,0,1
210647,-100,4,1,0,90,0,0

[HitObjects]
256,192,10648,5,4,0:0:0:0:
256,192,12314,1,8,0:0:0:0:
256,192,12814,1,8,0:0:0:0:
256,192,13314,1,8,0:0:0:0:
256,192,14981,1,8,0:0:0:0:
256,192,15647,1,8,0:0:0:0:
256,192,15981,1,0,0:0:0:0:
256,192,16314,1,8,0:0:0:0:
256,192,16814,1,0,0:0:0:0:
256,192,16981,1,8,0:0:0:0:
256,192,17314,1,0,0:0:0:0:
256,192,17647,1,8,0:0:0:0:
256,192,17814,1,0,0:0:0:0:
256,192,18147,1,8,0:0:0:0:
256,192,18314,1,0,0:0:0:0:
256,192,18481,1,0,0:0:0:0:
256,192,18647,1,8,0:0:0:0:
256,192,18981,1,0,0:0:0:0:
256,192,19147,1,8,0:0:0:0:
256,192,19481,1,8,0:0:0:0:
256,192,19647,1,0,0:0:0:0:
256,192,19981,1,12,0:0:0:0:
256,192,20814,1,8,0:0:0:0:
256,192,20981,1,8,0:0:0:0:
256,192,21147,1,8,0:0:0:0:
256,192,21314,1,4,0:0:0:0:
256,192,21647,1,8,0:0:0:0:
256,192,21981,1,0,0:0:0:0:
256,192,22147,1,8,0:0:0:0:
256,192,22231,1,8,0:0:0:0:
256,192,22314,1,0,0:0:0:0:
256,192,22481,1,8,0:0:0:0:
256,192,22647,1,0,0:0:0:0:
256,192,22981,1,8,0:0:0:0:
256,192,23147,1,0,0:0:0:0:
256,192,23481,1,0,0:0:0:0:
256,192,23647,1,8,0:0:0:0:
256,192,23814,1,8,0:0:0:0:
256,192,23981,1,0,0:0:0:0:
256,192,24147,1,0,0:0:0:0:
256,192,24231,1,0,0:0:0:0:
256,192,24314,1,8,0:0:0:0:
256,192,24481,1,0,0:0:0:0:
256,192,24814,1,0,0:0:0:0:
256,192,24981,1,8,0:0:0:0:
256,192,25147,1,8,0:0:0:0:
256,192,25314,1,0,0:0:0:0:
256,192,25481,1,0,0:0:0:0:
256,192,25564,1,0,0:0:0:0:
256,192,25647,1,8,0:0:0:0:
256,192,25814,1,8,0:0:0:0:
256,192,25981,1,0,0:0:0:0:
256,192,26147,1,8,0:0:0:0:
256,192,26231,1,8,0:0:0:0:
256,192,26314,1,0,0:0:0:0:
256,192,26481,1,8,0:0:0:0:
256,192,26647,1,4,0:0:0:0:
256,192,26981,1,8,0:0:0:0:
256,192,27314,1,0,0:0:0:0:
256,192,27481,1,8,0:0:0:0:
256,192,27564,1,8,0:0:0:0:
256,192,27647,1,0,0:0:0:0:
256,192,27814,1,8,0:0:0:0:
256,192,27981,1,0,0:0:0:0:
256,192,28314,1,8,0:0:0:0:
256,192,28481,1,0,0:0:0:0:
256,192,28814,1,8,0:0:0:0:
256,192,28981,1,0,0:0:0:0:
256,192,29147,1,0,0:0:0:0:
256,192,29314,1,12,0:0:0:0:
256,192,29647,1,0,0:0:0:0:
256,192,29814,1,8,0:0:0:0:
256,192,29981,1,0,0:0:0:0:
256,192,30147,1,0,0:0:0:0:
256,192,30231,1,0,0:0:0:0:
256,192,30314,1,8,0:0:0:0:
256,192,30481,1,0,0:0:0:0:
256,192,30647,1,12,0:0:0:0:
256,192,30981,1,8,0:0:0:0:
256,192,31314,1,8,0:0:0:0:
256,192,31481,1,8,0:0:0:0:
256,192,31564,1,8,0:0:0:0:
256,192,31647,1,0,0:0:0:0:
256,192,31814,1,8,0:0:0:0:
256,192,31981,1,4,0:0:0:0:
256,192,32314,1,8,0:0:0:0:
256,192,32481,1,0,0:0:0:0:
256,192,32564,1,0,0:0:0:0:
256,192,32647,1,0,0:0:0:0:
256,192,32814,1,0,0:0:0:0:
256,192,32981,1,8,0:0:0:0:
256,192,33314,1,0,0:0:0:0:
256,192,33481,1,0,0:0:0:0:
256,192,33647,1,8,0:0:0:0:
256,192,33814,1,8,0:0:0:0:
256,192,33981,1,0,0:0:0:0:
256,192,34231,1,8,0:0:0:0:
256,192,34314,1,0,0:0:0:0:
256,192,34481,1,8,0:0:0:0:
256,192,34647,1,0,0:0:0:0:
256,192,34981,1,0,0:0:0:0:
256,192,35147,1,8,0:0:0:0:
256,192,35314,1,0,0:0:0:0:
256,192,35481,1,0,0:0:0:0:
256,192,35564,1,0,0:0:0:0:
256,192,35647,1,8,0:0:0:0:
256,192,35814,1,0,0:0:0:0:
256,192,35981,1,8,0:0:0:0:
256,192,36064,1,8,0:0:0:0:
256,192,36147,1,0,0:0:0:0:
256,192,36314,1,8,0:0:0:0:
256,192,36481,1,0,0:0:0:0:
256,192,36564,1,8,0:0:0:0:
256,192,36647,1,0,0:0:0:0:
256,192,36814,1,0,0:0:0:0:
256,192,36981,1,8,0:0:0:0:
256,192,37314,1,4,0:0:0:0:
256,192,37647,1,8,0:0:0:0:
256,192,37814,1,0,0:0:0:0:
256,192,37897,1,0,0:0:0:0:
256,192,37981,1,0,0:0:0:0:
256,192,38147,1,0,0:0:0:0:
256,192,38314,1,8,0:0:0:0:
256,192,38647,1,0,0:0:0:0:
256,192,38814,1,0,0:0:0:0:
256,192,38981,1,8,0:0:0:0:
256,192,39147,1,0,0:0:0:0:
256,192,39314,1,8,0:0:0:0:
256,192,39564,1,0,0:0:0:0:
256,192,39647,1,8,0:0:0:0:
256,192,39814,1,8,0:0:0:0:
256,192,39981,1,0,0:0:0:0:
256,192,40314,1,8,0:0:0:0:
256,192,40481,1,0,0:0:0:0:
256,192,40647,1,8,0:0:0:0:
256,192,40814,1,8,0:0:0:0:
256,192,40897,1,8,0:0:0:0:
256,192,40981,1,0,0:0:0:0:
256,192,41147,1,8,0:0:0:0:
256,192,41314,1,0,0:0:0:0:
256,192,41397,1,0,0:0:0:0:
256,192,41481,1,8,0:0:0:0:
256,192,41647,1,0,0:0:0:0:
256,192,41814,1,8,0:0:0:0:
256,192,41897,1,0,0:0:0:0:
256,192,41981,1,8,0:0:0:0:
256,192,42064,1,8,0:0:0:0:
256,192,42147,1,0,0:0:0:0:
256,192,42314,1,8,0:0:0:0:
256,192,42647,1,12,0:0:0:0:
256,192,43981,1,0,0:0:0:0:
256,192,44147,1,0,0:0:0:0:
256,192,44231,1,0,0:0:0:0:
256,192,44314,1,8,0:0:0:0:
256,192,44481,1,0,0:0:0:0:
256,192,44564,1,8,0:0:0:0:
256,192,44731,1,8,0:0:0:0:
256,192,44814,1,0,0:0:0:0:
256,192,44981,1,8,0:0:0:0:
256,192,45314,1,4,0:0:0:0:
256,192,56314,5,8,0:0:0:0:
256,192,56647,1,8,0:0:0:0:
256,192,56814,1,8,0:0:0:0:
256,192,57147,1,8,0:0:0:0:
256,192,57647,1,8,0:0:0:0:
256,192,57981,1,8,0:0:0:0:
256,192,58147,1,8,0:0:0:0:
256,192,58481,1,8,0:0:0:0:
256,192,58814,1,8,0:0:0:0:
256,192,58981,1,8,0:0:0:0:
256,192,59314,1,8,0:0:0:0:
256,192,59481,1,8,0:0:0:0:
256,192,59814,1,8,0:0:0:0:
256,192,60147,5,8,0:0:0:0:
256,192,60481,1,8,0:0:0:0:
256,192,60814,1,8,0:0:0:0:
256,192,60981,1,8,0:0:0:0:
256,192,61147,1,8,0:0:0:0:
256,192,61314,5,8,0:0:0:0:
256,192,61647,1,0,0:0:0:0:
256,192,61814,1,8,0:0:0:0:
256,192,62147,1,8,0:0:0:0:
256,192,62314,1,0,0:0:0:0:
256,192,62481,1,0,0:0:0:0:
256,192,62647,1,8,0:0:0:0:
256,192,62981,1,0,0:0:0:0:
256,192,63147,1,8,0:0:0:0:
256,192,63481,1,8,0:0:0:0:
256,192,63647,1,0,0:0:0:0:
256,192,63814,1,0,0:0:0:0:
256,192,63981,1,8,0:0:0:0:
256,192,64147,1,0,0:0:0:0:
256,192,64231,1,0,0:0:0:0:
256,192,64314,1,0,0:0:0:0:
256,192,64481,1,8,0:0:0:0:
256,192,64647,1,0,0:0:0:0:
256,192,64731,1,0,0:0:0:0:
256,192,64814,1,8,0:0:0:0:
256,192,64981,1,0,0:0:0:0:
256,192,65147,1,0,0:0:0:0:
256,192,65314,1,12,0:0:0:0:
256,192,66647,1,4,0:0:0:0:
256,192,66981,1,8,0:0:0:0:
256,192,67147,1,0,0:0:0:0:
256,192,67481,1,0,0:0:0:0:
256,192,67564,1,0,0:0:0:0:
256,192,67647,1,8,0:0:0:0:
256,192,67814,1,8,0:0:0:0:
256,192,67981,1,0,0:0:0:0:
256,192,68064,1,0,0:0:0:0:
256,192,68147,1,0,0:0:0:0:
256,192,68314,1,8,0:0:0:0:
256,192,68481,1,0,0:0:0:0:
256,192,68814,1,0,0:0:0:0:
256,192,68897,1,0,0:0:0:0:
256,192,68981,1,8,0:0:0:0:
256,192,69147,1,0,0:0:0:0:
256,192,69314,1,8,0:0:0:0:
256,192,69397,1,8,0:0:0:0:
256,192,69481,1,8,0:0:0:0:
256,192,69647,1,0,0:0:0:0:
256,192,69814,1,8,0:0:0:0:
256,192,70147,1,8,0:0:0:0:
256,192,70231,1,8,0:0:0:0:
256,192,70314,1,0,0:0:0:0:
256,192,70481,1,0,0:0:0:0:
256,192,70647,1,8,0:0:0:0:
256,192,70814,1,0,0:0:0:0:
256,192,70897,1,8,0:0:0:0:
256,192,70981,1,0,0:0:0:0:
256,192,71147,1,8,0:0:0:0:
256,192,71314,1,0,0:0:0:0:
256,192,71397,1,0,0:0:0:0:
256,192,71481,1,8,0:0:0:0:
256,192,71647,1,0,0:0:0:0:
256,192,71814,1,8,0:0:0:0:
256,192,71981,1,4,0:0:0:0:
256,192,72314,1,8,0:0:0:0:
256,192,72481,1,0,0:0:0:0:
256,192,72814,1,0,0:0:0:0:
256,192,72897,1,0,0:0:0:0:
256,192,72981,1,8,0:0:0:0:
256,192,73147,1,8,0:0:0:0:
256,192,73314,1,0,0:0:0:0:
256,192,73397,1,0,0:0:0:0:
256,192,73481,1,0,0:0:0:0:
256,192,73647,1,8,0:0:0:0:
256,192,73814,1,0,0:0:0:0:
256,192,74147,1,0,0:0:0:0:
256,192,74231,1,0,0:0:0:0:
256,192,74314,1,8,0:0:0:0:
256,192,74481,1,0,0:0:0:0:
256,192,74647,1,8,0:0:0:0:
256,192,74731,1,8,0:0:0:0:
256,192,74814,1,8,0:0:0:0:
256,192,74981,1,0,0:0:0:0:
256,192,75147,1,8,0:0:0:0:
256,192,75481,1,8,0:0:0:0:
256,192,75564,1,8,0:0:0:0:
256,192,75647,1,0,0:0:0:0:
256,192,75814,1,0,0:0:0:0:
256,192,75981,1,8,0:0:0:0:
256,192,76147,1,0,0:0:0:0:
256,192,76231,1,8,0:0:0:0:
256,192,76314,1,0,0:0:0:0:
256,192,76481,1,8,0:0:0:0:
256,192,76647,1,0,0:0:0:0:
256,192,76731,1,0,0:0:0:0:
256,192,76814,1,0,0:0:0:0:
256,192,76897,1,0,0:0:0:0:
256,192,76981,1,8,0:0:0:0:
256,192,77147,1,8,0:0:0:0:
256,192,77314,1,4,0:0:0:0:
256,192,77647,1,8,0:0:0:0:
256,192,77814,1,0,0:0:0:0:
256,192,78147,1,0,0:0:0:0:
256,192,78231,1,0,0:0:0:0:
256,192,78314,1,8,0:0:0:0:
256,192,78481,1,8,0:0:0:0:
256,192,78647,1,0,0:0:0:0:
256,192,78731,1,0,0:0:0:0:
256,192,78814,1,0,0:0:0:0:
256,192,78981,1,8,0:0:0:0:
256,192,79147,1,8,0:0:0:0:
256,192,79314,1,0,0:0:0:0:
256,192,79481,1,8,0:0:0:0:
256,192,79564,1,0,0:0:0:0:
256,192,79647,1,8,0:0:0:0:
256,192,79814,1,8,0:0:0:0:
256,192,79981,1,0,0:0:0:0:
256,192,80314,1,0,0:0:0:0:
256,192,80481,1,8,0:0:0:0:
256,192,80814,1,8,0:0:0:0:
256,192,80897,1,8,0:0:0:0:
256,192,80981,1,0,0:0:0:0:
256,192,81147,1,0,0:0:0:0:
256,192,81314,1,8,0:0:0:0:
256,192,81481,1,0,0:0:0:0:
256,192,81564,1,8,0:0:0:0:
256,192,81647,1,0,0:0:0:0:
256,192,81814,1,8,0:0:0:0:
256,192,81981,1,0,0:0:0:0:
256,192,82064,1,0,0:0:0:0:
256,192,82147,1,8,0:0:0:0:
256,192,82314,1,0,0:0:0:0:
256,192,82481,1,8,0:0:0:0:
256,192,82647,1,4,0:0:0:0:
256,192,82981,1,8,0:0:0:0:
256,192,83147,1,0,0:0:0:0:
256,192,83481,1,0,0:0:0:0:
256,192,83564,1,0,0:0:0:0:
256,192,83647,1,8,0:0:0:0:
256,192,83814,1,8,0:0:0:0:
256,192,83981,1,0,0:0:0:0:
256,192,84064,1,0,0:0:0:0:
256,192,84147,1,0,0:0:0:0:
256,192,84314,1,8,0:0:0:0:
256,192,84481,1,8,0:0:0:0:
256,192,84647,1,0,0:0:0:0:
256,192,84814,1,8,0:0:0:0:
256,192,84897,1,0,0:0:0:0:
256,192,84981,1,8,0:0:0:0:
256,192,85147,1,8,0:0:0:0:
256,192,85314,1,4,0:0:0:0:
256,192,85647,1,8,0:0:0:0:
256,192,85814,1,0,0:0:0:0:
256,192,86147,1,0,0:0:0:0:
256,192,86314,1,8,0:0:0:0:
256,192,86481,1,0,0:0:0:0:
256,192,86647,1,12,0:0:0:0:
256,192,86981,1,12,0:0:0:0:
256,192,87314,1,12,0:0:0:0:
256,192,87481,1,0,0:0:0:0:
256,192,87564,1,0,0:0:0:0:
256,192,87647,1,8,0:0:0:0:
256,192,87814,1,8,0:0:0:0:
256,192,87981,5,4,0:0:0:0:
256,192,88314,1,8,0:0:0:0:
256,192,88647,1,0,0:0:0:0:
256,192,88814,1,8,0:0:0:0:
256,192,88897,1,8,0:0:0:0:
256,192,88981,1,0,0:0:0:0:
256,192,89147,1,8,0:0:0:0:
256,192,89314,1,0,0:0:0:0:
256,192,89647,1,8,0:0:0:0:
256,192,89814,1,0,0:0:0:0:
256,192,90147,1,0,0:0:0:0:
256,192,90314,1,8,0:0:0:0:
256,192,90481,1,8,0:0:0:0:
256,192,90647,1,0,0:0:0:0:
256,192,90814,1,0,0:0:0:0:
256,192,90897,1,0,0:0:0:0:
256,192,90981,1,8,0:0:0:0:
256,192,91147,1,0,0:0:0:0:
256,192,91481,1,0,0:0:0:0:
256,192,91647,1,8,0:0:0:0:
256,192,91814,1,8,0:0:0:0:
256,192,91981,1,0,0:0:0:0:
256,192,92147,1,0,0:0:0:0:
256,192,92231,1,0,0:0:0:0:
256,192,92314,1,8,0:0:0:0:
256,192,92481,1,8,0:0:0:0:
256,192,92647,1,0,0:0:0:0:
256,192,92814,1,8,0:0:0:0:
256,192,92897,1,8,0:0:0:0:
256,192,92981,1,0,0:0:0:0:
256,192,93147,1,8,0:0:0:0:
256,192,93314,1,4,0:0:0:0:
256,192,93647,1,8,0:0:0:0:
256,192,93981,1,0,0:0:0:0:
256,192,94147,1,8,0:0:0:0:
256,192,94231,1,8,0:0:0:0:
256,192,94314,1,0,0:0:0:0:
256,192,94481,1,8,0:0:0:0:
256,192,94647,1,0,0:0:0:0:
256,192,94981,1,8,0:0:0:0:
256,192,95147,1,0,0:0:0:0:
256,192,95481,1,0,0:0:0:0:
256,192,95647,1,8,0:0:0:0:
256,192,95814,1,0,0:0:0:0:
256,192,95981,1,8,0:0:0:0:
256,192,96147,1,8,0:0:0:0:
256,192,96231,1,8,0:0:0:0:
256,192,96314,1,0,0:0:0:0:
256,192,96481,1,8,0:0:0:0:
256,192,96647,1,0,0:0:0:0:
256,192,96814,1,0,0:0:0:0:
256,192,96897,1,0,0:0:0:0:
256,192,96981,1,8,0:0:0:0:
256,192,97147,1,8,0:0:0:0:
256,192,97314,1,4,0:0:0:0:
256,192,97647,1,8,0:0:0:0:
256,192,97981,1,0,0:0:0:0:
256,192,98147,1,0,0:0:0:0:
256,192,98314,1,8,0:0:0:0:
256,192,98647,1,4,0:0:0:0:
256,192,98981,1,8,0:0:0:0:
256,192,99147,1,0,0:0:0:0:
256,192,99481,1,8,0:0:0:0:
256,192,99647,1,0,0:0:0:0:
256,192,99731,1,0,0:0:0:0:
256,192,99814,1,0,0:0:0:0:
256,192,99981,1,0,0:0:0:0:
256,192,100314,1,8,0:0:0:0:
256,192,100481,1,0,0:0:0:0:
256,192,100564,1,8,0:0:0:0:
256,192,100731,1,8,0:0:0:0:
256,192,100814,1,0,0:0:0:0:
256,192,100981,1,8,0:0:0:0:
256,192,101147,1,0,0:0:0:0:
256,192,101231,1,0,0:0:0:0:
256,192,101314,1,0,0:0:0:0:
256,192,101647,1,8,0:0:0:0:
256,192,101814,1,0,0:0:0:0:
256,192,102147,1,8,0:0:0:0:
256,192,102314,1,0,0:0:0:0:
256,192,102397,1,0,0:0:0:0:
256,192,102481,1,0,0:0:0:0:
256,192,102647,1,0,0:0:0:0:
256,192,102814,1,0,0:0:0:0:
256,192,102981,1,8,0:0:0:0:
256,192,103147,1,0,0:0:0:0:
256,192,103231,1,8,0:0:0:0:
256,192,103397,1,8,0:0:0:0:
256,192,103481,1,0,0:0:0:0:
256,192,103647,1,8,0:0:0:0:
256,192,103981,1,4,0:0:0:0:
256,192,104314,1,8,0:0:0:0:
256,192,104481,1,0,0:0:0:0:
256,192,104814,1,8,0:0:0:0:
256,192,104981,1,0,0:0:0:0:
256,192,105064,1,0,0:0:0:0:
256,192,105147,1,0,0:0:0:0:
256,192,105314,1,0,0:0:0:0:
256,192,105647,1,8,0:0:0:0:
256,192,105814,1,0,0:0:0:0:
256,192,105897,1,8,0:0:0:0:
256,192,106064,1,8,0:0:0:0:
256,192,106147,1,0,0:0:0:0:
256,192,106314,1,8,0:0:0:0:
256,192,106481,1,8,0:0:0:0:
256,192,106647,1,4,0:0:0:0:
256,192,106981,1,8,0:0:0:0:
256,192,107314,1,4,0:0:0:0:
256,192,107481,1,8,0:0:0:0:
256,192,107647,1,0,0:0:0:0:
256,192,107731,1,0,0:0:0:0:
256,192,107814,1,8,0:0:0:0:
256,192,107981,1,4,0:0:0:0:
256,192,108147,1,0,0:0:0:0:
256,192,108314,1,8,0:0:0:0:
256,192,108481,1,0,0:0:0:0:
256,192,108564,1,8,0:0:0:0:
256,192,108731,1,8,0:0:0:0:
256,192,108814,1,0,0:0:0:0:
256,192,108981,1,8,0:0:0:0:
256,192,109314,1,4,0:0:0:0:
256,192,109647,1,8,0:0:0:0:
256,192,109814,1,0,0:0:0:0:
256,192,109897,1,0,0:0:0:0:
256,192,109981,1,0,0:0:0:0:
256,192,110147,1,0,0:0:0:0:
256,192,110314,1,8,0:0:0:0:
256,192,110647,1,0,0:0:0:0:
256,192,110814,1,0,0:0:0:0:
256,192,110981,1,8,0:0:0:0:
256,192,111147,1,8,0:0:0:0:
256,192,111314,1,0,0:0:0:0:
256,192,111564,1,8,0:0:0:0:
256,192,111647,1,0,0:0:0:0:
256,192,111814,1,8,0:0:0:0:
256,192,111981,1,0,0:0:0:0:
256,192,112314,1,0,0:0:0:0:
256,192,112481,1,8,0:0:0:0:
256,192,112647,1,0,0:0:0:0:
256,192,112814,1,0,0:0:0:0:
256,192,112897,1,0,0:0:0:0:
256,192,112981,1,8,0:0:0:0:
256,192,113147,1,0,0:0:0:0:
256,192,113314,1,8,0:0:0:0:
256,192,113397,1,8,0:0:0:0:
256,192,113481,1,0,0:0:0:0:
256,192,113647,1,8,0:0:0:0:
256,192,113814,1,0,0:0:0:0:
256,192,113897,1,8,0:0:0:0:
256,192,113981,1,0,0:0:0:0:
256,192,114147,1,0,0:0:0:0:
256,192,114314,1,8,0:0:0:0:
256,192,114647,1,4,0:0:0:0:
256,192,114981,1,8,0:0:0:0:
256,192,115147,1,0,0:0:0:0:
256,192,115231,1,0,0:0:0:0:
256,192,115314,1,0,0:0:0:0:
256,192,115481,1,0,0:0:0:0:
256,192,115647,1,8,0:0:0:0:
256,192,115981,1,0,0:0:0:0:
256,192,116147,1,0,0:0:0:0:
256,192,116314,1,8,0:0:0:0:
256,192,116481,1,0,0:0:0:0:
256,192,116647,1,8,0:0:0:0:
256,192,116897,1,0,0:0:0:0:
256,192,116981,1,8,0:0:0:0:
256,192,117147,1,8,0:0:0:0:
256,192,117314,1,0,0:0:0:0:
256,192,117647,1,8,0:0:0:0:
256,192,117814,1,0,0:0:0:0:
256,192,117981,1,8,0:0:0:0:
256,192,118147,1,8,0:0:0:0:
256,192,118231,1,8,0:0:0:0:
256,192,118314,1,0,0:0:0:0:
256,192,118481,1,8,0:0:0:0:
256,192,118647,1,0,0:0:0:0:
256,192,118731,1,0,0:0:0:0:
256,192,118814,1,8,0:0:0:0:
256,192,118981,1,0,0:0:0:0:
256,192,119147,1,8,0:0:0:0:
256,192,119231,1,0,0:0:0:0:
256,192,119314,1,8,0:0:0:0:
256,192,119397,1,8,0:0:0:0:
256,192,119481,1,0,0:0:0:0:
256,192,119647,1,8,0:0:0:0:
256,192,119981,1,12,0:0:0:0:
256,192,121314,1,0,0:0:0:0:
256,192,121481,1,0,0:0:0:0:
256,192,121564,1,0,0:0:0:0:
256,192,121647,1,8,0:0:0:0:
256,192,121814,1,0,0:0:0:0:
256,192,121897,1,8,0:0:0:0:
256,192,122064,1,8,0:0:0:0:
256,192,122147,1,0,0:0:0:0:
256,192,122314,1,8,0:0:0:0:
256,192,122647,1,4,0:0:0:0:
256,192,122981,1,8,0:0:0:0:
256,192,123147,1,0,0:0:0:0:
256,192,123314,1,8,0:0:0:0:
256,192,123481,1,0,0:0:0:0:
256,192,123564,1,0,0:0:0:0:
256,192,123647,1,8,0:0:0:0:
256,192,123814,1,0,0:0:0:0:
256,192,124147,1,0,0:0:0:0:
256,192,124314,1,8,0:0:0:0:
256,192,124481,1,0,0:0:0:0:
256,192,124647,1,8,0:0:0:0:
256,192,124814,1,8,0:0:0:0:
256,192,124897,1,8,0:0:0:0:
256,192,124981,1,0,0:0:0:0:
256,192,125147,1,8,0:0:0:0:
256,192,125481,1,8,0:0:0:0:
256,192,125647,1,0,0:0:0:0:
256,192,125814,1,0,0:0:0:0:
256,192,125981,1,8,0:0:0:0:
256,192,126147,1,0,0:0:0:0:
256,192,126231,1,0,0:0:0:0:
256,192,126314,1,8,0:0:0:0:
256,192,126481,1,8,0:0:0:0:
256,192,126647,1,0,0:0:0:0:
256,192,126814,1,8,0:0:0:0:
256,192,126897,1,8,0:0:0:0:
256,192,126981,1,0,0:0:0:0:
256,192,127147,1,8,0:0:0:0:
256,192,127314,1,0,0:0:0:0:
256,192,127481,1,8,0:0:0:0:
256,192,127564,1,8,0:0:0:0:
256,192,127647,1,0,0:0:0:0:
256,192,127731,1,0,0:0:0:0:
256,192,127814,1,8,0:0:0:0:
256,192,127981,1,4,0:0:0:0:
256,192,128314,1,8,0:0:0:0:
256,192,128481,1,0,0:0:0:0:
256,192,128647,1,8,0:0:0:0:
256,192,128814,1,8,0:0:0:0:
256,192,128897,1,8,0:0:0:0:
256,192,128981,1,0,0:0:0:0:
256,192,129147,1,8,0:0:0:0:
256,192,129481,1,0,0:0:0:0:
256,192,129647,1,8,0:0:0:0:
256,192,129814,1,0,0:0:0:0:
256,192,129981,1,8,0:0:0:0:
256,192,130147,1,0,0:0:0:0:
256,192,130231,1,0,0:0:0:0:
256,192,130314,1,8,0:0:0:0:
256,192,130481,1,8,0:0:0:0:
256,192,130647,1,0,0:0:0:0:
256,192,130981,1,8,0:0:0:0:
256,192,131314,1,0,0:0:0:0:
256,192,131481,1,8,0:0:0:0:
256,192,131564,1,8,0:0:0:0:
256,192,131647,1,0,0:0:0:0:
256,192,131814,1,8,0:0:0:0:
256,192,131981,1,0,0:0:0:0:
256,192,132147,1,8,0:0:0:0:
256,192,132314,1,0,0:0:0:0:
256,192,132397,1,0,0:0:0:0:
256,192,132481,1,8,0:0:0:0:
256,192,132647,1,0,0:0:0:0:
256,192,132814,1,8,0:0:0:0:
256,192,132897,1,0,0:0:0:0:
256,192,132981,1,8,0:0:0:0:
256,192,133064,1,0,0:0:0:0:
256,192,133147,1,8,0:0:0:0:
256,192,133314,1,4,0:0:0:0:
256,192,133647,1,8,0:0:0:0:
256,192,133814,1,0,0:0:0:0:
256,192,133981,1,8,0:0:0:0:
256,192,134147,1,0,0:0:0:0:
256,192,134231,1,0,0:0:0:0:
256,192,134314,1,8,0:0:0:0:
256,192,134481,1,8,0:0:0:0:
256,192,134814,1,0,0:0:0:0:
256,192,134981,1,8,0:0:0:0:
256,192,135147,1,0,0:0:0:0:
256,192,135314,1,8,0:0:0:0:
256,192,135481,1,8,0:0:0:0:
256,192,135564,1,8,0:0:0:0:
256,192,135647,1,0,0:0:0:0:
256,192,135814,1,8,0:0:0:0:
256,192,136147,1,8,0:0:0:0:
256,192,136314,1,0,0:0:0:0:
256,192,136481,1,0,0:0:0:0:
256,192,136647,1,8,0:0:0:0:
256,192,136814,1,0,0:0:0:0:
256,192,136897,1,0,0:0:0:0:
256,192,136981,1,8,0:0:0:0:
256,192,137147,1,8,0:0:0:0:
256,192,137314,1,0,0:0:0:0:
256,192,137481,1,8,0:0:0:0:
256,192,137564,1,8,0:0:0:0:
256,192,137647,1,0,0:0:0:0:
256,192,137814,1,8,0:0:0:0:
256,192,137981,1,0,0:0:0:0:
256,192,138147,1,8,0:0:0:0:
256,192,138231,1,8,0:0:0:0:
256,192,138314,1,0,0:0:0:0:
256,192,138397,1,0,0:0:0:0:
256,192,138481,1,8,0:0:0:0:
256,192,138647,1,4,0:0:0:0:
256,192,138981,1,8,0:0:0:0:
256,192,139147,1,0,0:0:0:0:
256,192,139314,1,8,0:0:0:0:
256,192,139481,1,8,0:0:0:0:
256,192,139564,1,8,0:0:0:0:
256,192,139647,1,0,0:0:0:0:
256,192,139814,1,8,0:0:0:0:
256,192,140147,1,0,0:0:0:0:
256,192,140314,1,8,0:0:0:0:
256,192,140481,1,0,0:0:0:0:
256,192,140647,1,8,0:0:0:0:
256,192,140814,1,0,0:0:0:0:
256,192,140897,1,0,0:0:0:0:
256,192,140981,1,8,0:0:0:0:
256,192,141147,1,0,0:0:0:0:
256,192,141314,1,12,0:0:0:0:
256,192,141647,1,0,0:0:0:0:
256,192,141814,1,0,0:0:0:0:
256,192,141981,1,12,0:0:0:0:
256,192,142147,1,0,0:0:0:0:
256,192,142231,1,0,0:0:0:0:
256,192,142314,1,8,0:0:0:0:
256,192,142481,1,0,0:0:0:0:
256,192,142647,1,12,0:0:0:0:
256,192,142814,1,0,0:0:0:0:
256,192,142981,1,12,0:0:0:0:
256,192,143147,1,0,0:0:0:0:
256,192,143314,1,12,0:0:0:0:
256,192,143481,1,0,0:0:0:0:
256,192,143647,1,12,0:0:0:0:
256,192,143981,1,4,0:0:0:0:
256,192,144314,1,0,0:0:0:0:
256,192,144481,1,8,0:0:0:0:
256,192,144647,1,0,0:0:0:0:
256,192,144814,1,0,0:0:0:0:
256,192,144981,1,8,0:0:0:0:
256,192,145147,1,0,0:0:0:0:
256,192,145314,1,0,0:0:0:0:
256,192,145647,1,0,0:0:0:0:
256,192,145814,1,8,0:0:0:0:
256,192,145981,1,0,0:0:0:0:
256,192,146147,1,0,0:0:0:0:
256,192,146314,1,8,0:0:0:0:
256,192,146481,1,0,0:0:0:0:
256,192,146647,1,8,0:0:0:0:
256,192,146981,1,8,0:0:0:0:
256,192,147147,1,8,0:0:0:0:
256,192,147314,1,0,0:0:0:0:
256,192,147481,1,8,0:0:0:0:
256,192,147647,1,8,0:0:0:0:
256,192,147814,1,0,0:0:0:0:
256,192,147981,1,8,0:0:0:0:
256,192,148314,1,0,0:0:0:0:
256,192,148481,1,8,0:0:0:0:
256,192,148647,1,0,0:0:0:0:
256,192,148814,1,0,0:0:0:0:
256,192,148981,1,8,0:0:0:0:
256,192,149147,1,8,0:0:0:0:
256,192,149314,1,4,0:0:0:0:
256,192,149647,1,0,0:0:0:0:
256,192,149814,1,8,0:0:0:0:
256,192,149981,1,0,0:0:0:0:
256,192,150147,1,0,0:0:0:0:
256,192,150314,1,8,0:0:0:0:
256,192,150481,1,0,0:0:0:0:
256,192,150647,1,0,0:0:0:0:
256,192,150981,1,0,0:0:0:0:
256,192,151147,1,8,0:0:0:0:
256,192,151314,1,0,0:0:0:0:
256,192,151481,1,0,0:0:0:0:
256,192,151647,1,8,0:0:0:0:
256,192,151814,1,0,0:0:0:0:
256,192,151981,1,12,0:0:0:0:
256,192,152314,1,8,0:0:0:0:
256,192,152481,1,8,0:0:0:0:
256,192,152647,1,0,0:0:0:0:
256,192,152814,1,8,0:0:0:0:
256,192,152981,1,8,0:0:0:0:
256,192,153147,1,0,0:0:0:0:
256,192,153314,1,12,0:0:0:0:
256,192,153647,1,12,0:0:0:0:
256,192,153981,1,12,0:0:0:0:
256,192,154147,1,0,0:0:0:0:
256,192,154231,1,0,0:0:0:0:
256,192,154314,1,8,0:0:0:0:
256,192,154481,1,0,0:0:0:0:
256,192,154647,1,12,0:0:0:0:
256,192,154981,1,0,0:0:0:0:
256,192,155147,1,8,0:0:0:0:
256,192,155314,1,0,0:0:0:0:
256,192,155481,1,0,0:0:0:0:
256,192,155564,1,0,0:0:0:0:
256,192,155647,1,8,0:0:0:0:
256,192,155814,1,0,0:0:0:0:
256,192,155981,1,8,0:0:0:0:
256,192,156147,1,0,0:0:0:0:
256,192,156314,1,0,0:0:0:0:
256,192,156397,1,0,0:0:0:0:
256,192,156481,1,8,0:0:0:0:
256,192,156647,1,0,0:0:0:0:
256,192,156814,1,0,0:0:0:0:
256,192,156897,1,0,0:0:0:0:
256,192,156981,1,8,0:0:0:0:
256,192,157064,1,8,0:0:0:0:
256,192,157147,1,0,0:0:0:0:
256,192,157314,1,8,0:0:0:0:
256,192,157647,1,8,0:0:0:0:
256,192,157814,1,0,0:0:0:0:
256,192,157981,1,0,0:0:0:0:
256,192,158147,1,8,0:0:0:0:
256,192,158231,1,8,0:0:0:0:
256,192,158314,1,0,0:0:0:0:
256,192,158481,1,8,0:0:0:0:
256,192,158647,1,0,0:0:0:0:
256,192,158814,1,0,0:0:0:0:
256,192,158981,1,8,0:0:0:0:
256,192,159064,1,8,0:0:0:0:
256,192,159147,1,0,0:0:0:0:
256,192,159314,1,0,0:0:0:0:
256,192,159481,1,8,0:0:0:0:
256,192,159564,1,8,0:0:0:0:
256,192,159647,1,0,0:0:0:0:
256,192,159731,1,0,0:0:0:0:
256,192,159814,1,8,0:0:0:0:
256,192,159981,1,4,0:0:0:0:
256,192,160314,1,0,0:0:0:0:
256,192,160481,1,8,0:0:0:0:
256,192,160647,1,0,0:0:0:0:
256,192,160814,1,0,0:0:0:0:
256,192,160897,1,0,0:0:0:0:
256,192,160981,1,8,0:0:0:0:
256,192,161147,1,0,0:0:0:0:
256,192,161314,1,8,0:0:0:0:
256,192,161481,1,0,0:0:0:0:
256,192,161647,1,0,0:0:0:0:
256,192,161731,1,0,0:0:0:0:
256,192,161814,1,8,0:0:0:0:
256,192,161981,1,0,0:0:0:0:
256,192,162147,1,0,0:0:0:0:
256,192,162231,1,0,0:0:0:0:
256,192,162314,1,8,0:0:0:0:
256,192,162397,1,8,0:0:0:0:
256,192,162481,1,0,0:0:0:0:
256,192,162647,1,12,0:0:0:0:
256,192,162981,1,0,0:0:0:0:
256,192,163147,1,0,0:0:0:0:
256,192,163314,1,12,0:0:0:0:
256,192,163481,1,0,0:0:0:0:
256,192,163564,1,0,0:0:0:0:
256,192,163647,1,8,0:0:0:0:
256,192,163814,1,0,0:0:0:0:
256,192,163981,1,12,0:0:0:0:
256,192,164147,1,0,0:0:0:0:
256,192,164314,1,12,0:0:0:0:
256,192,164481,1,0,0:0:0:0:
256,192,164647,1,12,0:0:0:0:
256,192,164814,1,0,0:0:0:0:
256,192,164981,1,12,0:0:0:0:
256,192,165314,1,4,0:0:0:0:
256,192,167981,1,8,0:0:0:0:
256,192,169314,1,8,0:0:0:0:
256,192,170647,1,8,0:0:0:0:
256,192,171981,1,8,0:0:0:0:
256,192,173314,1,8,0:0:0:0:
256,192,174647,1,8,0:0:0:0:
256,192,175981,1,8,0:0:0:0:
256,192,177314,1,8,0:0:0:0:
256,192,178647,1,4,0:0:0:0:
256,192,178981,1,0,0:0:0:0:
256,192,179147,1,8,0:0:0:0:
256,192,179481,1,8,0:0:0:0:
256,192,179647,1,0,0:0:0:0:
256,192,179814,1,0,0:0:0:0:
256,192,179981,1,8,0:0:0:0:
256,192,180314,1,0,0:0:0:0:
256,192,180481,1,8,0:0:0:0:
256,192,180814,1,8,0:0:0:0:
256,192,180981,1,0,0:0:0:0:
256,192,181147,1,0,0:0:0:0:
256,192,181314,1,8,0:0:0:0:
256,192,181647,1,0,0:0:0:0:
256,192,181814,1,8,0:0:0:0:
256,192,182147,1,8,0:0:0:0:
256,192,182314,1,0,0:0:0:0:
256,192,182481,1,0,0:0:0:0:
256,192,182647,1,8,0:0:0:0:
256,192,182981,1,0,0:0:0:0:
256,192,183147,1,8,0:0:0:0:
256,192,183481,1,8,0:0:0:0:
256,192,183647,1,0,0:0:0:0:
256,192,183814,1,0,0:0:0:0:
256,192,183981,1,8,0:0:0:0:
256,192,184147,1,0,0:0:0:0:
256,192,184314,1,0,0:0:0:0:
256,192,184481,1,8,0:0:0:0:
256,192,184647,1,0,0:0:0:0:
256,192,184814,1,8,0:0:0:0:
256,192,184981,1,0,0:0:0:0:
256,192,185147,1,0,0:0:0:0:
256,192,185314,1,8,0:0:0:0:
256,192,185481,1,0,0:0:0:0:
256,192,185647,1,0,0:0:0:0:
256,192,185814,1,8,0:0:0:0:
256,192,185981,1,0,0:0:0:0:
256,192,186147,1,8,0:0:0:0:
256,192,186314,1,0,0:0:0:0:
256,192,186481,1,0,0:0:0:0:
256,192,186647,1,8,0:0:0:0:
256,192,186814,1,0,0:0:0:0:
256,192,186897,1,0,0:0:0:0:
256,192,186981,1,0,0:0:0:0:
256,192,187147,1,8,0:0:0:0:
256,192,187314,1,0,0:0:0:0:
256,192,187397,1,0,0:0:0:0:
256,192,187481,1,8,0:0:0:0:
256,192,187647,1,8,0:0:0:0:
256,192,187981,1,4,0:0:0:0:
256,192,188147,1,0,0:0:0:0:
256,192,188314,1,8,0:0:0:0:
256,192,188481,1,0,0:0:0:0:
256,192,188564,1,8,0:0:0:0:
256,192,188731,1,8,0:0:0:0:
256,192,188814,1,0,0:0:0:0:
256,192,188981,1,8,0:0:0:0:
256,192,189314,1,4,0:0:0:0:
256,192,189647,1,8,0:0:0:0:
256,192,189814,1,0,0:0:0:0:
256,192,189981,1,8,0:0:0:0:
256,192,190147,1,0,0:0:0:0:
256,192,190231,1,0,0:0:0:0:
256,192,190314,1,8,0:0:0:0:
256,192,190481,1,8,0:0:0:0:
256,192,190647,1,0,0:0:0:0:
256,192,190814,1,8,0:0:0:0:
256,192,190897,1,8,0:0:0:0:
256,192,190981,1,0,0:0:0:0:
256,192,191147,1,0,0:0:0:0:
256,192,191314,1,8,0:0:0:0:
256,192,191397,1,0,0:0:0:0:
256,192,191481,1,8,0:0:0:0:
256,192,191564,1,8,0:0:0:0:
256,192,191647,1,0,0:0:0:0:
256,192,191814,1,8,0:0:0:0:
256,192,192147,1,8,0:0:0:0:
256,192,192314,1,0,0:0:0:0:
256,192,192481,1,0,0:0:0:0:
256,192,192647,1,8,0:0:0:0:
256,192,192814,1,8,0:0:0:0:
256,192,192897,1,8,0:0:0:0:
256,192,192981,1,0,0:0:0:0:
256,192,193147,1,0,0:0:0:0:
256,192,193231,1,8,0:0:0:0:
256,192,193314,1,0,0:0:0:0:
256,192,193481,1,8,0:0:0:0:
256,192,193647,1,0,0:0:0:0:
256,192,193731,1,0,0:0:0:0:
256,192,193814,1,8,0:0:0:0:
256,192,193981,1,0,0:0:0:0:
256,192,194147,1,8,0:0:0:0:
256,192,194231,1,8,0:0:0:0:
256,192,194314,1,0,0:0:0:0:
256,192,194397,1,0,0:0:0:0:
256,192,194481,1,8,0:0:0:0:
256,192,194647,1,4,0:0:0:0:
256,192,194981,1,8,0:0:0:0:
256,192,195147,1,0,0:0:0:0:
256,192,195314,1,8,0:0:0:0:
256,192,195481,1,8,0:0:0:0:
256,192,195564,1,8,0:0:0:0:
256,192,195647,1,0,0:0:0:0:
256,192,195814,1,8,0:0:0:0:
256,192,195981,1,0,0:0:0:0:
256,192,196147,1,0,0:0:0:0:
256,192,196231,1,0,0:0:0:0:
256,192,196314,1,8,0:0:0:0:
256,192,196481,1,0,0:0:0:0:
256,192,196647,1,8,0:0:0:0:
256,192,196731,1,0,0:0:0:0:
256,192,196814,1,0,0:0:0:0:
256,192,196897,1,0,0:0:0:0:
256,192,196981,1,8,0:0:0:0:
256,192,197147,1,8,0:0:0:0:
256,192,197314,1,0,0:0:0:0:
256,192,197647,1,8,0:0:0:0:
256,192,197814,1,0,0:0:0:0:
256,192,197981,1,8,0:0:0:0:
256,192,198147,1,0,0:0:0:0:
256,192,198231,1,0,0:0:0:0:
256,192,198314,1,8,0:0:0:0:
256,192,198481,1,0,0:0:0:0:
256,192,198564,1,8,0:0:0:0:
256,192,198647,1,0,0:0:0:0:
256,192,198814,1,8,0:0:0:0:
256,192,198981,1,0,0:0:0:0:
256,192,199147,1,8,0:0:0:0:
256,192,199231,1,8,0:0:0:0:
256,192,199314,1,0,0:0:0:0:
256,192,199481,1,8,0:0:0:0:
256,192,199564,1,0,0:0:0:0:
256,192,199647,1,8,0:0:0:0:
256,192,199731,1,0,0:0:0:0:
256,192,199814,1,8,0:0:0:0:
256,192,199981,1,4,0:0:0:0:
256,192,200314,1,8,0:0:0:0:
256,192,200481,1,0,0:0:0:0:
256,192,200647,1,8,0:0:0:0:
256,192,200814,1,0,0:0:0:0:
256,192,200897,1,0,0:0:0:0:
256,192,200981,1,8,0:0:0:0:
256,192,201147,1,8,0:0:0:0:
256,192,201314,1,0,0:0:0:0:
256,192,201481,1,8,0:0:0:0:
256,192,201564,1,8,0:0:0:0:
256,192,201647,1,0,0:0:0:0:
256,192,201814,1,0,0:0:0:0:
256,192,201981,1,8,0:0:0:0:
256,192,202064,1,0,0:0:0:0:
256,192,202147,1,8,0:0:0:0:
256,192,202231,1,8,0:0:0:0:
256,192,202314,1,0,0:0:0:0:
256,192,202481,1,8,0:0:0:0:
256,192,202814,1,8,0:0:0:0:
256,192,202981,1,0,0:0:0:0:
256,192,203147,1,0,0:0:0:0:
256,192,203314,1,8,0:0:0:0:
256,192,203481,1,8,0:0:0:0:
256,192,203564,1,8,0:0:0:0:
256,192,203647,1,0,0:0:0:0:
256,192,203814,1,0,0:0:0:0:
256,192,203897,1,8,0:0:0:0:
256,192,203981,1,0,0:0:0:0:
256,192,204147,1,8,0:0:0:0:
256,192,204314,1,0,0:0:0:0:
256,192,204397,1,0,0:0:0:0:
256,192,204481,1,8,0:0:0:0:
256,192,204647,1,0,0:0:0:0:
256,192,204814,1,8,0:0:0:0:
256,192,204897,1,8,0:0:0:0:
256,192,204981,1,0,0:0:0:0:
256,192,205064,1,0,0:0:0:0:
256,192,205147,1,8,0:0:0:0:
256,192,205314,1,4,0:0:0:0:
256,192,205647,1,8,0:0:0:0:
256,192,205814,1,0,0:0:0:0:
256,192,205981,1,8,0:0:0:0:
256,192,206147,1,8,0:0:0:0:
256,192,206231,1,8,0:0:0:0:
256,192,206314,1,0,0:0:0:0:
256,192,206481,1,8,0:0:0:0:
256,192,206647,1,0,0:0:0:0:
256,192,206814,1,0,0:0:0:0:
256,192,206897,1,0,0:0:0:0:
256,192,206981,1,8,0:0:0:0:
256,192,207147,1,0,0:0:0:0:
256,192,207314,1,8,0:0:0:0:
256,192,207397,1,0,0:0:0:0:
256,192,207481,1,0,0:0:0:0:
256,192,207564,1,0,0:0:0:0:
256,192,207647,1,8,0:0:0:0:
256,192,207814,1,0,0:0:0:0:
256,192,207981,1,12,0:0:0:0:
256,192,208314,1,0,0:0:0:0:
256,192,208481,1,0,0:0:0:0:
256,192,208647,1,12,0:0:0:0:
256,192,208814,1,0,0:0:0:0:
256,192,208897,1,0,0:0:0:0:
256,192,208981,1,8,0:0:0:0:
256,192,209147,1,0,0:0:0:0:
256,192,209314,1,12,0:0:0:0:
256,192,209481,1,0,0:0:0:0:
256,192,209647,1,12,0:0:0:0:
256,192,209814,1,0,0:0:0:0:
256,192,209981,1,12,0:0:0:0:
256,192,210147,1,0,0:0:0:0:
256,192,210314,1,12,0:0:0:0:
256,192,210647,1,4,0:0:0:0:
256,192,210981,1,0,0:0:0:0:
256,192,211147,1,8,0:0:0:0:
256,192,211314,1,0,0:0:0:0:
256,192,211481,1,0,0:0:0:0:
256,192,211564,1,0,0:0:0:0:
256,192,211647,1,8,0:0:0:0:
256,192,211814,1,0,0:0:0:0:
256,192,211981,1,0,0:0:0:0:
256,192,212314,1,0,0:0:0:0:
256,192,212481,1,8,0:0:0:0:
256,192,212647,1,0,0:0:0:0:
256,192,212814,1,8,0:0:0:0:
256,192,212897,1,0,0:0:0:0:
256,192,212981,1,8,0:0:0:0:
256,192,213147,1,0,0:0:0:0:
256,192,213314,1,8,0:0:0:0:
256,192,213647,1,8,0:0:0:0:
256,192,213814,1,8,0:0:0:0:
256,192,213981,1,0,0:0:0:0:
256,192,214147,1,8,0:0:0:0:
256,192,214231,1,8,0:0:0:0:
256,192,214314,1,0,0:0:0:0:
256,192,214481,1,0,0:0:0:0:
256,192,214647,1,8,0:0:0:0:
256,192,214981,1,0,0:0:0:0:
256,192,215147,1,8,0:0:0:0:
256,192,215314,1,0,0:0:0:0:
256,192,215481,1,0,0:0:0:0:
256,192,215564,1,0,0:0:0:0:
256,192,215647,1,8,0:0:0:0:
256,192,215814,1,8,0:0:0:0:
256,192,215981,1,4,0:0:0:0:
256,192,216314,1,0,0:0:0:0:
256,192,216481,1,8,0:0:0:0:
256,192,216647,1,0,0:0:0:0:
256,192,216814,1,0,0:0:0:0:
256,192,216897,1,0,0:0:0:0:
256,192,216981,1,8,0:0:0:0:
256,192,217147,1,0,0:0:0:0:
256,192,217314,1,0,0:0:0:0:
256,192,217647,1,0,0:0:0:0:
256,192,217814,1,8,0:0:0:0:
256,192,217981,1,0,0:0:0:0:
256,192,218147,1,8,0:0:0:0:
256,192,218231,1,0,0:0:0:0:
256,192,218314,1,8,0:0:0:0:
256,192,218481,1,0,0:0:0:0:
256,192,218647,1,8,0:0:0:0:
256,192,218981,1,8,0:0:0:0:
256,192,219147,1,8,0:0:0:0:
256,192,219314,1,0,0:0:0:0:
256,192,219481,1,8,0:0:0:0:
256,192,219564,1,8,0:0:0:0:
256,192,219647,1,0,0:0:0:0:
256,192,219814,1,0,0:0:0:0:
256,192,219981,1,12,0:0:0:0:
256,192,220314,1,8,0:0:0:0:
256,192,220481,1,0,0:0:0:0:
256,192,220814,1,0,0:0:0:0:
256,192,220897,1,0,0:0:0:0:
256,192,220981,1,8,0:0:0:0:
256,192,221147,1,0,0:0:0:0:
256,192,221314,1,12,0:0:0:0:
256,192,221647,1,0,0:0:0:0:
256,192,221814,1,8,0:0:0:0:
256,192,221981,1,0,0:0:0:0:
256,192,222147,1,0,0:0:0:0:
256,192,222231,1,0,0:0:0:0:
256,192,222314,1,8,0:0:0:0:
256,192,222481,1,0,0:0:0:0:
256,192,222647,1,8,0:0:0:0:
256,192,222814,1,0,0:0:0:0:
256,192,222981,1,0,0:0:0:0:
256,192,223064,1,0,0:0:0:0:
256,192,223147,1,8,0:0:0:0:
256,192,223314,1,0,0:0:0:0:
256,192,223481,1,0,0:0:0:0:
256,192,223564,1,0,0:0:0:0:
256,192,223647,1,8,0:0:0:0:
256,192,223731,1,8,0:0:0:0:
256,192,223814,1,0,0:0:0:0:
256,192,223981,1,8,0:0:0:0:
256,192,224147,1,0,0:0:0:0:
256,192,224314,1,0,0:0:0:0:
256,192,224481,1,8,0:0:0:0:
256,192,224564,1,8,0:0:0:0:
256,192,224647,1,0,0:0:0:0:
256,192,224814,1,0,0:0:0:0:
256,192,224981,1,8,0:0:0:0:
256,192,225064,1,8,0:0:0:0:
256,192,225147,1,0,0:0:0:0:
256,192,225314,1,8,0:0:0:0:
256,192,225481,1,0,0:0:0:0:
256,192,225647,1,0,0:0:0:0:
256,192,225731,1,0,0:0:0:0:
256,192,225814,1,8,0:0:0:0:
256,192,225981,1,0,0:0:0:0:
256,192,226147,1,8,0:0:0:0:
256,192,226231,1,8,0:0:0:0:
256,192,226314,1,0,0:0:0:0:
256,192,226397,1,0,0:0:0:0:
256,192,226481,1,8,0:0:0:0:
256,192,226647,1,12,0:0:0:0:
256,192,226981,1,0,0:0:0:0:
256,192,227147,1,8,0:0:0:0:
256,192,227314,1,0,0:0:0:0:
256,192,227481,1,0,0:0:0:0:
256,192,227564,1,0,0:0:0:0:
256,192,227647,1,8,0:0:0:0:
256,192,227814,1,0,0:0:0:0:
256,192,227981,1,12,0:0:0:0:
256,192,228147,1,0,0:0:0:0:
256,192,228314,1,0,0:0:0:0:
256,192,228397,1,0,0:0:0:0:
256,192,228481,1,8,0:0:0:0:
256,192,228647,1,0,0:0:0:0:
256,192,228814,1,0,0:0:0:0:
256,192,228897,1,0,0:0:0:0:
256,192,228981,1,8,0:0:0:0:
256,192,229064,1,8,0:0:0:0:
256,192,229147,1,0,0:0:0:0:
256,192,229314,1,12,0:0:0:0:
256,192,229647,1,0,0:0:0:0:
256,192,229814,1,0,0:0:0:0:
256,192,229981,1,12,0:0:0:0:
256,192,230147,1,0,0:0:0:0:
256,192,230231,1,0,0:0:0:0:
256,192,230314,1,8,0:0:0:0:
256,192,230481,1,0,0:0:0:0:
256,192,230647,1,12,0:0:0:0:
256,192,230814,1,0,0:0:0:0:
256,192,230981,1,12,0:0:0:0:
256,192,231147,1,0,0:0:0:0:
256,192,231314,1,12,0:0:0:0:
256,192,231481,1,0,0:0:0:0:
256,192,231647,1,12,0:0:0:0:
256,192,231981,1,4,0:0:0:0:
