osu file format v14

[General]
AudioFilename: audio.mp3
AudioLeadIn: 0
PreviewTime: 188772
Countdown: 0
SampleSet: Normal
StackLeniency: 0.7
Mode: 1
LetterboxInBreaks: 0
WidescreenStoryboard: 0

[Editor]
DistanceSpacing: 0.3
BeatDivisor: 4
GridSize: 32
TimelineZoom: 2.5

[Metadata]
Title:masterpiece (Cut Ver.)
TitleUnicode:masterpiece (Cut Ver.)
Artist:Hommarju feat. Latte
ArtistUnicode:Hommarju feat. Latte
Creator:_Rise
Version:Futsuu
Source:とある魔術の禁書目録
Tags:anime electronic japanese jpop j-pop remix cover toaru majutsu no kinsho mokuroku a certain magical index exit trance presents speed アニメトランス best 7 opening jcore j-core hardcore bootleg Kawada Mami 川田まみ featuring version
BeatmapID:3205467
BeatmapSetID:1567085

[Difficulty]
HPDrainRate:6
CircleSize:5
OverallDifficulty:4
ApproachRate:5
SliderMultiplier:1.4
SliderTickRate:1

[Events]
//Background and Video events
0,0,"bg.jpg",0,50
//Break Periods
2,45514,55447
2,167981,177447
//Storyboard Layer 0 (Background)
//Storyboard Layer 1 (Fail)
//Storyboard Layer 2 (Pass)
//Storyboard Layer 3 (Foreground)
//Storyboard Layer 4 (Overlay)
//Storyboard Sound Samples

[TimingPoints]
10648,333.333333333333,4,1,0,75,1,0
15939,-100,4,1,0,85,0,0
21273,-100,4,1,0,90,0,0
45356,-100,4,1,0,70,0,0
55939,-100,4,1,0,75,0,0
58606,-100,4,1,0,80,0,0
61272,-100,4,1,0,85,0,0
66606,-100,4,1,0,90,0,0
165356,-100,4,1,0,70,0,0
178606,-100,4,1,0,80,0,0
181272,-100,4,1,0,85,0,0
183939,-100,4,1,0,90,0,0
189314,-100,4,1,0,90,0,1
210647,-100,4,1,0,90,0,0

[HitObjects]
256,192,10648,5,4,0:0:0:0:
256,192,12314,1,8,0:0:0:0:
256,192,12814,1,8,0:0:0:0:
256,192,13314,1,8,0:0:0:0:
256,192,14981,1,8,0:0:0:0:
256,192,15647,1,8,0:0:0:0:
256,192,15981,1,0,0:0:0:0:
256,192,16314,1,8,0:0:0:0:
256,192,16981,1,8,0:0:0:0:
256,192,17314,1,0,0:0:0:0:
256,192,17814,1,0,0:0:0:0:
256,192,18314,1,8,0:0:0:0:
256,192,18647,1,0,0:0:0:0:
256,192,19147,1,8,0:0:0:0:
256,192,19647,1,0,0:0:0:0:
256,192,19981,1,12,0:0:0:0:
256,192,21314,1,4,0:0:0:0:
256,192,21647,1,8,0:0:0:0:
256,192,22314,1,8,0:0:0:0:
256,192,22647,1,0,0:0:0:0:
256,192,22981,1,8,0:0:0:0:
256,192,23147,1,0,0:0:0:0:
256,192,23481,1,0,0:0:0:0:
256,192,23647,1,8,0:0:0:0:
256,192,23981,1,0,0:0:0:0:
256,192,24314,1,0,0:0:0:0:
256,192,24481,1,8,0:0:0:0:
256,192,24814,1,8,0:0:0:0:
256,192,24981,1,0,0:0:0:0:
256,192,25314,1,8,0:0:0:0:
256,192,25981,1,0,0:0:0:0:
256,192,26147,1,0,0:0:0:0:
256,192,26314,1,8,0:0:0:0:
256,192,26647,1,4,0:0:0:0:
256,192,26981,1,8,0:0:0:0:
256,192,27647,1,8,0:0:0:0:
256,192,27981,1,0,0:0:0:0:
256,192,28314,1,8,0:0:0:0:
256,192,28481,1,0,0:0:0:0:
256,192,28814,1,0,0:0:0:0:
256,192,28981,1,8,0:0:0:0:
256,192,29314,1,12,0:0:0:0:
256,192,29647,1,8,0:0:0:0:
256,192,29814,1,8,0:0:0:0:
256,192,30147,1,0,0:0:0:0:
256,192,30314,1,8,0:0:0:0:
256,192,30647,1,12,0:0:0:0:
256,192,31314,1,8,0:0:0:0:
256,192,31481,1,8,0:0:0:0:
256,192,31647,1,0,0:0:0:0:
256,192,31981,1,4,0:0:0:0:
256,192,32647,1,0,0:0:0:0:
256,192,32981,1,0,0:0:0:0:
256,192,33314,1,8,0:0:0:0:
256,192,33647,1,8,0:0:0:0:
256,192,33981,1,0,0:0:0:0:
256,192,34231,1,0,0:0:0:0:
256,192,34481,1,8,0:0:0:0:
256,192,34981,1,8,0:0:0:0:
256,192,35314,1,0,0:0:0:0:
256,192,35481,1,0,0:0:0:0:
256,192,35647,1,8,0:0:0:0:
256,192,35981,1,0,0:0:0:0:
256,192,36314,1,8,0:0:0:0:
256,192,36481,1,0,0:0:0:0:
256,192,36814,1,0,0:0:0:0:
256,192,36981,1,8,0:0:0:0:
256,192,37314,1,4,0:0:0:0:
256,192,37981,1,8,0:0:0:0:
256,192,38314,1,8,0:0:0:0:
256,192,38647,1,0,0:0:0:0:
256,192,38981,1,0,0:0:0:0:
256,192,39314,1,8,0:0:0:0:
256,192,39564,1,8,0:0:0:0:
256,192,39814,1,0,0:0:0:0:
256,192,40314,1,0,0:0:0:0:
256,192,40647,1,8,0:0:0:0:
256,192,40814,1,8,0:0:0:0:
256,192,40981,1,0,0:0:0:0:
256,192,41314,1,8,0:0:0:0:
256,192,41647,1,0,0:0:0:0:
256,192,41814,1,8,0:0:0:0:
256,192,42147,1,0,0:0:0:0:
256,192,42314,1,8,0:0:0:0:
256,192,42647,1,12,0:0:0:0:
256,192,43981,1,0,0:0:0:0:
256,192,44314,1,8,0:0:0:0:
256,192,44981,1,12,0:0:0:0:
256,192,45314,1,4,0:0:0:0:
256,192,56647,5,8,0:0:0:0:
256,192,57147,1,8,0:0:0:0:
256,192,57981,1,8,0:0:0:0:
256,192,58481,1,8,0:0:0:0:
256,192,59314,1,8,0:0:0:0:
256,192,59814,1,8,0:0:0:0:
256,192,60147,1,8,0:0:0:0:
256,192,60481,1,8,0:0:0:0:
256,192,61314,5,8,0:0:0:0:
256,192,61814,1,8,0:0:0:0:
256,192,62147,1,8,0:0:0:0:
256,192,62647,1,8,0:0:0:0:
256,192,63147,1,8,0:0:0:0:
256,192,63481,1,8,0:0:0:0:
256,192,63981,1,8,0:0:0:0:
256,192,64481,1,8,0:0:0:0:
256,192,64814,1,8,0:0:0:0:
256,192,65314,1,4,0:0:0:0:
256,192,66647,1,4,0:0:0:0:
256,192,66981,1,8,0:0:0:0:
256,192,67647,1,8,0:0:0:0:
256,192,67981,1,0,0:0:0:0:
256,192,68314,1,8,0:0:0:0:
256,192,68481,1,0,0:0:0:0:
256,192,68814,1,0,0:0:0:0:
256,192,68981,1,8,0:0:0:0:
256,192,69314,1,8,0:0:0:0:
256,192,69647,1,0,0:0:0:0:
256,192,69814,1,8,0:0:0:0:
256,192,70147,1,8,0:0:0:0:
256,192,70314,1,0,0:0:0:0:
256,192,70647,1,8,0:0:0:0:
256,192,70981,1,0,0:0:0:0:
256,192,71147,1,8,0:0:0:0:
256,192,71481,1,0,0:0:0:0:
256,192,71647,1,8,0:0:0:0:
256,192,71981,1,4,0:0:0:0:
256,192,72314,1,8,0:0:0:0:
256,192,72981,1,8,0:0:0:0:
256,192,73314,1,0,0:0:0:0:
256,192,73647,1,8,0:0:0:0:
256,192,73814,1,0,0:0:0:0:
256,192,74147,1,0,0:0:0:0:
256,192,74314,1,8,0:0:0:0:
256,192,74647,1,8,0:0:0:0:
256,192,74981,1,0,0:0:0:0:
256,192,75147,1,8,0:0:0:0:
256,192,75481,1,8,0:0:0:0:
256,192,75647,1,0,0:0:0:0:
256,192,75981,1,8,0:0:0:0:
256,192,76314,1,0,0:0:0:0:
256,192,76481,1,8,0:0:0:0:
256,192,76814,1,0,0:0:0:0:
256,192,76981,1,8,0:0:0:0:
256,192,77314,1,4,0:0:0:0:
256,192,77647,1,8,0:0:0:0:
256,192,78314,1,8,0:0:0:0:
256,192,78647,1,0,0:0:0:0:
256,192,78981,1,8,0:0:0:0:
256,192,79147,1,0,0:0:0:0:
256,192,79481,1,0,0:0:0:0:
256,192,79647,1,8,0:0:0:0:
256,192,79981,1,8,0:0:0:0:
256,192,80314,1,0,0:0:0:0:
256,192,80481,1,8,0:0:0:0:
256,192,80814,1,8,0:0:0:0:
256,192,80981,1,0,0:0:0:0:
256,192,81314,1,8,0:0:0:0:
256,192,81647,1,0,0:0:0:0:
256,192,81814,1,8,0:0:0:0:
256,192,82147,1,0,0:0:0:0:
256,192,82314,1,8,0:0:0:0:
256,192,82647,1,4,0:0:0:0:
256,192,82981,1,8,0:0:0:0:
256,192,83647,1,8,0:0:0:0:
256,192,83981,1,0,0:0:0:0:
256,192,84314,1,8,0:0:0:0:
256,192,84481,1,0,0:0:0:0:
256,192,84814,1,0,0:0:0:0:
256,192,84981,1,8,0:0:0:0:
256,192,85314,1,4,0:0:0:0:
256,192,85647,1,8,0:0:0:0:
256,192,86314,1,8,0:0:0:0:
256,192,86647,1,12,0:0:0:0:
256,192,86981,1,12,0:0:0:0:
256,192,87314,1,12,0:0:0:0:
256,192,87647,1,12,0:0:0:0:
256,192,87981,1,4,0:0:0:0:
256,192,88314,1,8,0:0:0:0:
256,192,88981,1,8,0:0:0:0:
256,192,89314,1,0,0:0:0:0:
256,192,89647,1,8,0:0:0:0:
256,192,89814,1,0,0:0:0:0:
256,192,90147,1,0,0:0:0:0:
256,192,90314,1,8,0:0:0:0:
256,192,90647,1,0,0:0:0:0:
256,192,90981,1,0,0:0:0:0:
256,192,91147,1,8,0:0:0:0:
256,192,91481,1,8,0:0:0:0:
256,192,91647,1,0,0:0:0:0:
256,192,91981,1,8,0:0:0:0:
256,192,92647,1,0,0:0:0:0:
256,192,92814,1,0,0:0:0:0:
256,192,92981,1,8,0:0:0:0:
256,192,93314,1,4,0:0:0:0:
256,192,93647,1,8,0:0:0:0:
256,192,94314,1,8,0:0:0:0:
256,192,94647,1,0,0:0:0:0:
256,192,94981,1,8,0:0:0:0:
256,192,95147,1,0,0:0:0:0:
256,192,95481,1,0,0:0:0:0:
256,192,95647,1,8,0:0:0:0:
256,192,95981,1,0,0:0:0:0:
256,192,96314,1,8,0:0:0:0:
256,192,96481,1,8,0:0:0:0:
256,192,96814,1,0,0:0:0:0:
256,192,96981,1,8,0:0:0:0:
256,192,97314,1,4,0:0:0:0:
256,192,97647,1,8,0:0:0:0:
256,192,97981,1,8,0:0:0:0:
256,192,98647,1,4,0:0:0:0:
256,192,98981,1,8,0:0:0:0:
256,192,99481,1,8,0:0:0:0:
256,192,99981,1,0,0:0:0:0:
256,192,100147,1,0,0:0:0:0:
256,192,100314,1,8,0:0:0:0:
256,192,100981,1,8,0:0:0:0:
256,192,101314,1,0,0:0:0:0:
256,192,101647,1,8,0:0:0:0:
256,192,102147,1,8,0:0:0:0:
256,192,102647,1,8,0:0:0:0:
256,192,102814,1,0,0:0:0:0:
256,192,102981,1,8,0:0:0:0:
256,192,103647,1,8,0:0:0:0:
256,192,103981,1,4,0:0:0:0:
256,192,104314,1,8,0:0:0:0:
256,192,104814,1,8,0:0:0:0:
256,192,105314,1,0,0:0:0:0:
256,192,105481,1,0,0:0:0:0:
256,192,105647,1,8,0:0:0:0:
256,192,106314,1,8,0:0:0:0:
256,192,106647,1,4,0:0:0:0:
256,192,107314,1,4,0:0:0:0:
256,192,107647,1,8,0:0:0:0:
256,192,107981,1,4,0:0:0:0:
256,192,108981,1,8,0:0:0:0:
256,192,109314,1,4,0:0:0:0:
256,192,109981,1,0,0:0:0:0:
256,192,110314,1,0,0:0:0:0:
256,192,110647,1,8,0:0:0:0:
256,192,110981,1,8,0:0:0:0:
256,192,111314,1,0,0:0:0:0:
256,192,111564,1,0,0:0:0:0:
256,192,111814,1,8,0:0:0:0:
256,192,112314,1,8,0:0:0:0:
256,192,112647,1,0,0:0:0:0:
256,192,112814,1,0,0:0:0:0:
256,192,112981,1,8,0:0:0:0:
256,192,113314,1,0,0:0:0:0:
256,192,113647,1,8,0:0:0:0:
256,192,113814,1,0,0:0:0:0:
256,192,114147,1,0,0:0:0:0:
256,192,114314,1,8,0:0:0:0:
256,192,114647,1,4,0:0:0:0:
256,192,115314,1,8,0:0:0:0:
256,192,115647,1,8,0:0:0:0:
256,192,115981,1,0,0:0:0:0:
256,192,116314,1,0,0:0:0:0:
256,192,116647,1,8,0:0:0:0:
256,192,116897,1,8,0:0:0:0:
256,192,117147,1,0,0:0:0:0:
256,192,117647,1,0,0:0:0:0:
256,192,117981,1,8,0:0:0:0:
256,192,118147,1,8,0:0:0:0:
256,192,118314,1,0,0:0:0:0:
256,192,118647,1,8,0:0:0:0:
256,192,118981,1,0,0:0:0:0:
256,192,119147,1,8,0:0:0:0:
256,192,119481,1,0,0:0:0:0:
256,192,119647,1,8,0:0:0:0:
256,192,119981,1,12,0:0:0:0:
256,192,121314,1,0,0:0:0:0:
256,192,121647,1,8,0:0:0:0:
256,192,122314,1,12,0:0:0:0:
256,192,122647,1,4,0:0:0:0:
256,192,123314,1,0,0:0:0:0:
256,192,123481,1,0,0:0:0:0:
256,192,123814,1,8,0:0:0:0:
256,192,124147,1,0,0:0:0:0:
256,192,124314,1,8,0:0:0:0:
256,192,124647,1,8,0:0:0:0:
256,192,124814,1,0,0:0:0:0:
256,192,125147,1,8,0:0:0:0:
256,192,125647,1,0,0:0:0:0:
256,192,125981,1,0,0:0:0:0:
256,192,126147,1,0,0:0:0:0:
256,192,126481,1,8,0:0:0:0:
256,192,126814,1,0,0:0:0:0:
256,192,127147,1,8,0:0:0:0:
256,192,127481,1,0,0:0:0:0:
256,192,127647,1,8,0:0:0:0:
256,192,127814,1,8,0:0:0:0:
256,192,127981,1,4,0:0:0:0:
256,192,128647,1,8,0:0:0:0:
256,192,128814,1,0,0:0:0:0:
256,192,129147,1,8,0:0:0:0:
256,192,129481,1,0,0:0:0:0:
256,192,129647,1,8,0:0:0:0:
256,192,129981,1,0,0:0:0:0:
256,192,130147,1,0,0:0:0:0:
256,192,130481,1,8,0:0:0:0:
256,192,130981,1,0,0:0:0:0:
256,192,131314,1,8,0:0:0:0:
256,192,131647,1,0,0:0:0:0:
256,192,131814,1,8,0:0:0:0:
256,192,132147,1,0,0:0:0:0:
256,192,132481,1,8,0:0:0:0:
256,192,132814,1,8,0:0:0:0:
256,192,132981,1,8,0:0:0:0:
256,192,133147,1,8,0:0:0:0:
256,192,133314,1,4,0:0:0:0:
256,192,133981,1,0,0:0:0:0:
256,192,134147,1,0,0:0:0:0:
256,192,134481,1,8,0:0:0:0:
256,192,134814,1,0,0:0:0:0:
256,192,134981,1,8,0:0:0:0:
256,192,135314,1,8,0:0:0:0:
256,192,135481,1,0,0:0:0:0:
256,192,135814,1,8,0:0:0:0:
256,192,136314,1,0,0:0:0:0:
256,192,136647,1,0,0:0:0:0:
256,192,136814,1,0,0:0:0:0:
256,192,137147,1,8,0:0:0:0:
256,192,137481,1,0,0:0:0:0:
256,192,137814,1,8,0:0:0:0:
256,192,138147,1,0,0:0:0:0:
256,192,138314,1,8,0:0:0:0:
256,192,138481,1,8,0:0:0:0:
256,192,138647,1,4,0:0:0:0:
256,192,139314,1,8,0:0:0:0:
256,192,139481,1,0,0:0:0:0:
256,192,139814,1,8,0:0:0:0:
256,192,140147,1,0,0:0:0:0:
256,192,140314,1,8,0:0:0:0:
256,192,140647,1,0,0:0:0:0:
256,192,140814,1,0,0:0:0:0:
256,192,141147,1,0,0:0:0:0:
256,192,141314,1,12,0:0:0:0:
256,192,141981,1,12,0:0:0:0:
256,192,142647,1,12,0:0:0:0:
256,192,142981,1,12,0:0:0:0:
256,192,143314,1,12,0:0:0:0:
256,192,143647,1,12,0:0:0:0:
256,192,143981,1,4,0:0:0:0:
256,192,144481,1,0,0:0:0:0:
256,192,144981,1,8,0:0:0:0:
256,192,145314,1,0,0:0:0:0:
256,192,145814,1,0,0:0:0:0:
256,192,146314,1,8,0:0:0:0:
256,192,146647,1,8,0:0:0:0:
256,192,147147,1,8,0:0:0:0:
256,192,147647,1,0,0:0:0:0:
256,192,147981,1,8,0:0:0:0:
256,192,148481,1,8,0:0:0:0:
256,192,149314,1,4,0:0:0:0:
256,192,149814,1,0,0:0:0:0:
256,192,150314,1,8,0:0:0:0:
256,192,150647,1,0,0:0:0:0:
256,192,151147,1,0,0:0:0:0:
256,192,151647,1,8,0:0:0:0:
256,192,151981,1,12,0:0:0:0:
256,192,152481,1,8,0:0:0:0:
256,192,152981,1,0,0:0:0:0:
256,192,153314,1,12,0:0:0:0:
256,192,153647,1,12,0:0:0:0:
256,192,153981,1,12,0:0:0:0:
256,192,154314,1,12,0:0:0:0:
256,192,154647,1,4,0:0:0:0:
256,192,154981,1,8,0:0:0:0:
256,192,155647,1,8,0:0:0:0:
256,192,155981,1,0,0:0:0:0:
256,192,156314,1,8,0:0:0:0:
256,192,156481,1,0,0:0:0:0:
256,192,156814,1,8,0:0:0:0:
256,192,156981,1,0,0:0:0:0:
256,192,157314,1,8,0:0:0:0:
256,192,157647,1,0,0:0:0:0:
256,192,157814,1,8,0:0:0:0:
256,192,158147,1,8,0:0:0:0:
256,192,158314,1,0,0:0:0:0:
256,192,158647,1,8,0:0:0:0:
256,192,158981,1,0,0:0:0:0:
256,192,159147,1,8,0:0:0:0:
256,192,159481,1,0,0:0:0:0:
256,192,159647,1,8,0:0:0:0:
256,192,159981,1,4,0:0:0:0:
256,192,160314,1,8,0:0:0:0:
256,192,160981,1,8,0:0:0:0:
256,192,161314,1,0,0:0:0:0:
256,192,161647,1,8,0:0:0:0:
256,192,161814,1,0,0:0:0:0:
256,192,162147,1,8,0:0:0:0:
256,192,162314,1,0,0:0:0:0:
256,192,162647,1,12,0:0:0:0:
256,192,163314,1,12,0:0:0:0:
256,192,163981,1,12,0:0:0:0:
256,192,164314,1,12,0:0:0:0:
256,192,164647,1,12,0:0:0:0:
256,192,164981,1,12,0:0:0:0:
256,192,165314,1,4,0:0:0:0:
256,192,178647,5,4,0:0:0:0:
256,192,179981,1,8,0:0:0:0:
256,192,181314,1,8,0:0:0:0:
256,192,182647,1,8,0:0:0:0:
256,192,183981,1,8,0:0:0:0:
256,192,184481,1,8,0:0:0:0:
256,192,184814,1,8,0:0:0:0:
256,192,185314,1,8,0:0:0:0:
256,192,185814,1,8,0:0:0:0:
256,192,186147,1,8,0:0:0:0:
256,192,186647,1,8,0:0:0:0:
256,192,187147,1,8,0:0:0:0:
256,192,187481,1,8,0:0:0:0:
256,192,187981,1,4,0:0:0:0:
256,192,188314,1,8,0:0:0:0:
256,192,188981,1,12,0:0:0:0:
256,192,189314,1,4,0:0:0:0:
256,192,189981,1,0,0:0:0:0:
256,192,190147,1,0,0:0:0:0:
256,192,190481,1,8,0:0:0:0:
256,192,190814,1,0,0:0:0:0:
256,192,190981,1,8,0:0:0:0:
256,192,191314,1,8,0:0:0:0:
256,192,191481,1,0,0:0:0:0:
256,192,191814,1,8,0:0:0:0:
256,192,192314,1,0,0:0:0:0:
256,192,192647,1,0,0:0:0:0:
256,192,192814,1,0,0:0:0:0:
256,192,193147,1,8,0:0:0:0:
256,192,193481,1,0,0:0:0:0:
256,192,193814,1,8,0:0:0:0:
256,192,194147,1,0,0:0:0:0:
256,192,194314,1,8,0:0:0:0:
256,192,194481,1,8,0:0:0:0:
256,192,194647,1,4,0:0:0:0:
256,192,195314,1,8,0:0:0:0:
256,192,195481,1,0,0:0:0:0:
256,192,195814,1,8,0:0:0:0:
256,192,196147,1,0,0:0:0:0:
256,192,196314,1,8,0:0:0:0:
256,192,196647,1,0,0:0:0:0:
256,192,196814,1,0,0:0:0:0:
256,192,197147,1,8,0:0:0:0:
256,192,197647,1,0,0:0:0:0:
256,192,197981,1,8,0:0:0:0:
256,192,198314,1,0,0:0:0:0:
256,192,198481,1,8,0:0:0:0:
256,192,198814,1,0,0:0:0:0:
256,192,199147,1,8,0:0:0:0:
256,192,199481,1,8,0:0:0:0:
256,192,199647,1,8,0:0:0:0:
256,192,199814,1,8,0:0:0:0:
256,192,199981,1,4,0:0:0:0:
256,192,200647,1,0,0:0:0:0:
256,192,200814,1,0,0:0:0:0:
256,192,201147,1,8,0:0:0:0:
256,192,201481,1,0,0:0:0:0:
256,192,201647,1,8,0:0:0:0:
256,192,201981,1,8,0:0:0:0:
256,192,202147,1,0,0:0:0:0:
256,192,202481,1,8,0:0:0:0:
256,192,202981,1,0,0:0:0:0:
256,192,203314,1,0,0:0:0:0:
256,192,203481,1,0,0:0:0:0:
256,192,203814,1,8,0:0:0:0:
256,192,204147,1,0,0:0:0:0:
256,192,204481,1,8,0:0:0:0:
256,192,204814,1,0,0:0:0:0:
256,192,204981,1,8,0:0:0:0:
256,192,205147,1,8,0:0:0:0:
256,192,205314,1,4,0:0:0:0:
256,192,205981,1,8,0:0:0:0:
256,192,206147,1,0,0:0:0:0:
256,192,206481,1,8,0:0:0:0:
256,192,206814,1,0,0:0:0:0:
256,192,206981,1,8,0:0:0:0:
256,192,207314,1,0,0:0:0:0:
256,192,207481,1,0,0:0:0:0:
256,192,207814,1,0,0:0:0:0:
256,192,207981,1,12,0:0:0:0:
256,192,208647,1,12,0:0:0:0:
256,192,209314,1,12,0:0:0:0:
256,192,209647,1,12,0:0:0:0:
256,192,209981,1,12,0:0:0:0:
256,192,210314,1,12,0:0:0:0:
256,192,210647,1,4,0:0:0:0:
256,192,211147,1,0,0:0:0:0:
256,192,211647,1,8,0:0:0:0:
256,192,211981,1,0,0:0:0:0:
256,192,212314,1,8,0:0:0:0:
256,192,212481,1,0,0:0:0:0:
256,192,212814,1,8,0:0:0:0:
256,192,212981,1,0,0:0:0:0:
256,192,213314,1,8,0:0:0:0:
256,192,213814,1,8,0:0:0:0:
256,192,214314,1,0,0:0:0:0:
256,192,214647,1,8,0:0:0:0:
256,192,214981,1,0,0:0:0:0:
256,192,215147,1,8,0:0:0:0:
256,192,215981,1,4,0:0:0:0:
256,192,216481,1,0,0:0:0:0:
256,192,216981,1,8,0:0:0:0:
256,192,217314,1,0,0:0:0:0:
256,192,217647,1,8,0:0:0:0:
256,192,217814,1,0,0:0:0:0:
256,192,218147,1,8,0:0:0:0:
256,192,218314,1,0,0:0:0:0:
256,192,218647,1,8,0:0:0:0:
256,192,219147,1,8,0:0:0:0:
256,192,219647,1,0,0:0:0:0:
256,192,219981,1,12,0:0:0:0:
256,192,220981,1,12,0:0:0:0:
256,192,221314,1,4,0:0:0:0:
256,192,221647,1,8,0:0:0:0:
256,192,222314,1,8,0:0:0:0:
256,192,222647,1,0,0:0:0:0:
256,192,222981,1,8,0:0:0:0:
256,192,223147,1,0,0:0:0:0:
256,192,223481,1,8,0:0:0:0:
256,192,223647,1,0,0:0:0:0:
256,192,223981,1,8,0:0:0:0:
256,192,224314,1,0,0:0:0:0:
256,192,224481,1,8,0:0:0:0:
256,192,224814,1,8,0:0:0:0:
256,192,224981,1,0,0:0:0:0:
256,192,225314,1,8,0:0:0:0:
256,192,225481,1,0,0:0:0:0:
256,192,225647,1,0,0:0:0:0:
256,192,225814,1,8,0:0:0:0:
256,192,226147,1,0,0:0:0:0:
256,192,226314,1,8,0:0:0:0:
256,192,226647,1,4,0:0:0:0:
256,192,226981,1,8,0:0:0:0:
256,192,227647,1,8,0:0:0:0:
256,192,227981,1,0,0:0:0:0:
256,192,228314,1,8,0:0:0:0:
256,192,228481,1,0,0:0:0:0:
256,192,228814,1,8,0:0:0:0:
256,192,228981,1,0,0:0:0:0:
256,192,229314,1,12,0:0:0:0:
256,192,229981,1,12,0:0:0:0:
256,192,230647,1,12,0:0:0:0:
256,192,230981,1,12,0:0:0:0:
256,192,231314,1,12,0:0:0:0:
256,192,231647,1,12,0:0:0:0:
256,192,231981,1,4,0:0:0:0:
