osu file format v14

[General]
AudioFilename: audio.mp3
AudioLeadIn: 0
PreviewTime: 35528
Countdown: 0
SampleSet: None
StackLeniency: 0.2
Mode: 0
LetterboxInBreaks: 0
WidescreenStoryboard: 1

[Editor]
DistanceSpacing: 1.2
BeatDivisor: 4
GridSize: 4
TimelineZoom: 1.8

[Metadata]
Title:masterpiece (Cut Ver.)
TitleUnicode:masterpiece (Cut Ver.)
Artist:Hommarju feat. Latte
ArtistUnicode:Hommarju feat. Latte
Creator:Konoe Kanata
Version:Level 6
Source:とある魔術の禁書目録
Tags:
BeatmapID:2677978
BeatmapSetID:969656

[Difficulty]
HPDrainRate:5.5
CircleSize:4.5
OverallDifficulty:9
ApproachRate:9.4
SliderMultiplier:1.4
SliderTickRate:1

[Events]
//Background and Video events
0,0,"462812.jpg",0,0
//Break Periods
2,36312,46238
//Storyboard Layer 0 (Background)
//Storyboard Layer 1 (Fail)
//Storyboard Layer 2 (Pass)
//Storyboard Layer 3 (Foreground)
//Storyboard Layer 4 (Overlay)
//Storyboard Sound Samples

[TimingPoints]
112,333.333333333333,4,2,1,50,1,0
195,-133.333333333333,4,2,0,50,0,0
945,-133.333333333333,4,2,2,50,0,0
1445,-133.333333333333,4,2,3,50,0,0
1611,-133.333333333333,4,2,2,50,0,0
10778,-133.333333333333,4,2,3,50,0,0
11611,-133.333333333333,4,2,2,40,0,0
12112,-100,4,2,3,70,0,0
12278,-100,4,2,2,70,0,0
17445,-100,4,2,3,70,0,0
17612,-100,4,2,2,70,0,0
20112,-80,4,2,3,70,0,0
20278,-80,4,2,2,70,0,0
21445,-66.6666666666667,4,2,3,70,0,0
21528,-66.6666666666667,4,2,1,70,0,0
22445,-66.6666666666667,4,2,1,70,0,0
22778,-80,4,2,1,70,0,0
24445,-80,4,2,2,70,0,0
28112,-80,4,2,1,70,0,0
29778,-80,4,2,2,70,0,0
30778,-66.6666666666667,4,2,2,70,0,0
33445,-66.6666666666667,4,2,1,40,0,0
34778,-100,4,2,4,40,0,0
36111,-100,4,2,1,30,0,0
46778,-133.333333333333,4,2,1,40,0,0
47111,-133.333333333333,4,2,2,40,0,0
49445,-133.333333333333,4,2,0,50,0,0
49611,-133.333333333333,4,2,2,50,0,0
52112,-133.333333333333,4,2,2,60,0,0
53445,-100,4,2,2,60,0,0
54778,-66.6666666666667,4,2,2,60,0,0
55945,-66.6666666666667,4,2,2,50,0,0
56111,-66.6666666666667,4,2,1,50,0,0
56278,-66.6666666666667,4,2,2,50,0,0
57445,-80,4,2,5,80,0,1
57612,-80,4,2,6,80,0,1
62778,-80,4,2,7,80,0,1
62945,-80,4,2,6,80,0,1
65445,-80,4,2,7,80,0,1
65612,-80,4,2,6,80,0,1
66778,-50,4,2,7,80,0,1
67278,-50,4,2,6,80,0,1
67445,-50,4,2,1,80,0,1
67611,-50,4,2,6,80,0,1
67778,-50,4,2,7,80,0,1
68028,-80,4,2,0,80,0,0
68112,-66.6666666666667,4,2,7,80,0,1
68278,-66.6666666666667,4,2,6,80,0,1
71861,-66.6666666666667,4,2,6,5,0,1
71945,-66.6666666666667,4,2,6,80,0,1
72028,-66.6666666666667,4,2,6,5,0,1
72111,-66.6666666666667,4,2,6,80,0,1
73444,-66.6666666666667,4,2,7,80,0,1
73611,-66.6666666666667,4,2,6,80,0,1
76112,-66.6666666666667,4,2,5,80,0,1
76278,-66.6666666666667,4,2,8,80,0,1
77112,-66.6666666666667,4,2,2,80,0,1
77278,-66.6666666666667,4,2,6,80,0,1
77445,-66.6666666666667,4,2,5,80,0,1
77778,-66.6666666666667,4,2,7,80,0,1
78778,-66.6666666666667,4,2,1,80,0,0
80112,-66.6666666666667,4,2,0,80,0,0
81445,-66.6666666666667,4,2,0,75,0,0
82778,-66.6666666666667,4,2,0,60,0,0
84112,-66.6666666666667,4,2,0,45,0,0
85445,-66.6666666666667,4,2,0,30,0,0
86778,-66.6666666666667,4,2,0,15,0,0
88112,-66.6666666666667,4,2,1,5,0,0

[HitObjects]
168,85,112,5,2,3:2:0:0:
168,85,945,2,0,L|222:91,2,52.5000020027161,2|2|2,0:2|0:2|0:2,0:0:0:0:
100,143,1445,6,0,L|46:149,1,52.5000020027161,2|2,3:2|0:2,0:0:0:0:
167,200,1778,2,0,L|275:212,1,105.000004005432,2|0,0:2|0:0,0:0:0:0:
355,221,2278,1,2,0:2:0:0:
348,304,2445,2,0,L|342:358,1,52.5000020027161,2|2,0:2|0:2,0:0:0:0:
159,345,2778,6,0,P|194:327|261:341,1,105.000004005432,2|2,0:2|0:2,0:0:0:0:
92,296,3278,2,0,B|71:245|116:245|91:192,1,105.000004005432,2|2,0:2|0:2,0:0:0:0:
44,124,3778,2,0,P|74:112|102:112,1,52.5000020027161,2|2,0:2|0:2,0:0:0:0:
225,219,4112,6,0,L|241:102,1,105.000004005432,2|2,0:2|0:2,0:0:0:0:
324,79,4612,2,0,L|340:196,1,105.000004005432,2|2,0:2|0:2,0:0:0:0:
350,272,5112,1,2,0:2:0:0:
350,272,5445,5,2,0:2:0:0:
204,349,5778,2,0,P|166:372|100:349,1,105.000004005432
60,293,6278,2,0,L|51:228,2,52.5000020027161,2|2|2,0:2|0:2|0:2,0:0:0:0:
105,175,6778,6,0,L|114:110,1,52.5000020027161,2|2,0:2|0:2,0:0:0:0:
185,229,7112,2,0,B|219:206|219:206|288:212,1,105.000004005432,2|0,0:2|0:0,0:0:0:0:
387,220,7612,1,2,0:2:0:0:
346,330,7778,2,0,P|333:299|336:270,1,52.5000020027161,2|0,0:2|0:0,0:0:0:0:
281,384,8112,6,0,B|236:380|236:380|223:389|223:389|173:384,1,105.000004005432,2|2,0:2|0:2,0:0:0:0:
103,339,8612,2,0,B|73:307|73:307|93:231,1,105.000004005432,2|2,0:2|0:2,0:0:0:0:
115,169,9112,1,2,0:2:0:0:
88,247,9278,1,2,0:2:0:0:
170,232,9445,6,0,P|175:278|222:321,1,105.000004005432,2|2,0:2|0:2,0:0:0:0:
345,247,9945,2,0,P|302:228|241:247,1,105.000004005432,2|2,0:2|0:2,0:0:0:0:
296,308,10445,1,2,0:2:0:0:
418,130,10778,6,0,B|414:175|414:175|423:188|423:188|418:238,2,105.000004005432,2|0|0,3:2|0:0|0:0,0:0:0:0:
314,333,11612,5,2,0:2:0:0:
495,348,11778,1,2,0:2:0:0:
314,333,11945,1,2,0:2:0:0:
495,348,12112,6,0,P|503:304|491:271,1,70,2|0,3:2|1:0,0:0:0:0:
368,164,12445,2,0,P|360:208|372:241,1,70,2|0,3:2|1:0,0:0:0:0:
478,122,12778,1,0,3:0:0:0:
297,96,12945,1,2,1:2:0:0:
478,122,13112,1,2,3:2:0:0:
266,182,13278,1,2,1:2:0:0:
441,237,13445,6,0,L|431:321,1,70,2|0,3:2|1:0,0:0:0:0:
307,384,13778,1,2,3:2:0:0:
266,182,13945,2,0,P|307:175|339:185,1,70,2|0,1:2|3:0,0:0:0:0:
146,245,14278,1,2,1:2:0:0:
192,103,14445,1,2,3:2:0:0:
266,182,14612,1,2,1:2:0:0:
96,126,14778,6,0,L|105:54,1,70,2|0,3:2|1:0,0:0:0:0:
87,205,15112,1,2,3:2:0:0:
266,182,15278,2,0,L|338:191,1,70,2|0,1:2|3:0,0:0:0:0:
187,173,15612,1,2,1:2:0:0:
146,278,15778,2,0,L|74:287,1,70,2|0,3:2|1:0,0:0:0:0:
282,273,16112,6,0,P|290:313|203:369,2,140,2|0|0,3:2|3:0|3:0,0:0:0:0:
179,92,16945,1,2,1:2:0:0:
140,366,17112,1,2,3:2:0:0:
179,92,17278,1,2,1:2:0:0:
331,191,17445,5,2,3:2:0:0:
173,213,17612,1,2,1:2:0:0:
331,191,17778,2,0,P|347:229|349:270,1,70,2|0,3:2|1:0,0:0:0:0:
102,309,18112,1,0,3:0:0:0:
244,339,18278,1,2,1:2:0:0:
102,309,18445,1,2,3:2:0:0:
244,339,18612,1,2,1:2:0:0:
173,213,18778,6,0,L|163:126,1,70,2|0,3:2|1:0,0:0:0:0:
155,55,19112,1,2,3:2:0:0:
294,178,19278,2,0,L|304:91,1,70,2|0,1:2|3:0,0:0:0:0:
312,20,19612,1,2,1:2:0:0:
281,288,19778,1,2,3:2:0:0:
312,20,19945,1,2,1:2:0:0:
445,109,20112,6,0,P|456:156|452:198,1,87.5,2|0,3:2|1:0,0:0:0:0:
411,280,20445,1,2,3:2:0:0:
164,72,20612,6,0,P|142:115|137:157,1,87.5,2|0,1:2|3:0,0:0:0:0:
158,245,20945,1,2,1:2:0:0:
312,20,21111,6,0,L|302:114,1,87.5,2|0,3:2|0:0,0:0:0:0:
269,315,21445,6,0,P|242:314|210:298,1,52.5000020027161,10|8,3:2|0:2,0:0:0:0:
158,245,21612,2,0,P|159:218|175:186,1,52.5000020027161,8|8,0:2|0:2,0:0:0:0:
228,134,21778,2,0,P|255:135|287:151,1,52.5000020027161,8|8,0:2|0:2,0:0:0:0:
339,203,21945,2,0,P|338:230|322:262,1,52.5000020027161,8|8,0:2|0:2,0:0:0:0:
269,315,22112,6,0,P|242:314|210:298,1,52.5000020027161,8|8,0:2|0:2,0:0:0:0:
158,245,22279,2,0,P|159:218|175:186,1,52.5000020027161,8|8,0:2|0:2,0:0:0:0:
228,134,22445,2,0,P|255:135|287:151,1,52.5000020027161,10|8,3:2|0:2,0:0:0:0:
339,203,22612,2,0,P|338:230|322:262,1,52.5000020027161,8|8,0:2|0:2,0:0:0:0:
269,315,22778,6,0,L|180:325,1,87.5,2|0,3:2|1:0,0:0:0:0:
17,129,23112,2,0,L|103:119,1,87.5,0|0,3:0|1:0,0:0:0:0:
355,305,23445,6,0,L|266:315,1,87.5,0|0,3:0|1:0,0:0:0:0:
103,119,23779,2,0,L|189:109,1,87.5,0|0,3:0|1:0,0:0:0:0:
441,291,24112,6,0,L|318:309,1,87.5,0|0,3:0|1:0,0:0:0:0:
306,38,24445,5,2,3:2:0:0:
273,224,24612,1,2,1:2:0:0:
391,75,24778,2,0,B|436:69|436:69|467:97,1,87.5,2|0,3:2|1:0,0:0:0:0:
488,164,25028,2,0,B|470:205|470:205|430:218,1,87.5,2|0,0:2|0:0,0:0:0:0:
371,152,25278,1,2,1:2:0:0:
176,352,25445,6,0,P|161:303|175:248,1,87.5,0|0,3:0|1:0,0:0:0:0:
216,35,25778,2,0,P|231:84|217:139,1,87.5,0|0,3:0|1:0,0:0:0:0:
37,173,26112,6,0,P|86:158|141:172,1,87.5,0|0,3:0|1:0,0:0:0:0:
354,213,26445,2,0,P|305:228|250:214,1,87.5,0|0,3:0|1:0,0:0:0:0:
104,307,26778,6,0,P|116:257|155:216,1,87.5,0|0,3:0|1:0,0:0:0:0:
298,52,27111,2,0,P|286:101|246:142,1,87.5,0|0,3:0|1:0,0:0:0:0:
74,83,27445,6,0,P|124:94|165:134,1,87.5,0|0,3:0|1:0,0:0:0:0:
151,116,27695,1,0,3:0:0:0:
151,116,27778,1,0,3:0:0:0:
104,307,27945,1,0,3:0:0:0:
299,65,28112,6,0,B|317:105|317:105|311:150,1,87.5,2|0,3:2|1:0,0:0:0:0:
217,340,28445,2,0,B|199:300|199:300|205:255,1,87.5,0|0,3:0|1:0,0:0:0:0:
395,243,28778,6,0,B|355:261|355:261|310:255,1,87.5,0|0,3:0|1:0,0:0:0:0:
120,161,29111,2,0,B|160:143|160:143|205:149,1,87.5,0|0,3:0|1:0,0:0:0:0:
216,340,29445,6,0,B|198:300|198:300|204:255,1,87.5,0|0,3:0|1:0,0:0:0:0:
305,74,29778,6,0,B|270:71|270:71|256:79|256:79|218:76,1,87.5,2|0,3:2|1:0,0:0:0:0:
33,110,30112,2,0,P|21:153|36:192,1,87.5,2|0,3:2|1:0,0:0:0:0:
91,241,30362,2,0,P|105:281|93:322,1,87.5,2|0,0:2|0:0,0:0:0:0:
44,377,30612,1,2,1:2:0:0:
268,274,30778,6,0,L|274:333,3,52.5000020027161,8|8|8|8,3:2|0:2|1:2|0:2,0:0:0:0:
315,215,31112,2,0,L|374:209,3,52.5000020027161,8|8|8|8,3:2|0:2|1:2|0:2,0:0:0:0:
256,168,31445,2,0,L|250:109,3,52.5000020027161,8|8|8|8,3:2|0:2|1:2|0:2,0:0:0:0:
209,227,31778,2,0,L|150:233,3,52.5000020027161,8|8|8|8,3:2|0:2|1:2|0:2,0:0:0:0:
268,274,32112,6,0,L|274:333,1,52.5000020027161,8|8,3:2|0:2,0:0:0:0:
315,215,32278,2,0,L|374:209,1,52.5000020027161,8|8,1:2|0:2,0:0:0:0:
256,168,32445,2,0,L|250:109,1,52.5000020027161,8|8,3:2|0:2,0:0:0:0:
209,227,32612,2,0,L|150:233,1,52.5000020027161,10|8,1:2|0:2,0:0:0:0:
273,326,32778,6,0,L|268:274,1,52.5000020027161,8|8,3:2|0:2,0:0:0:0:
367,209,32944,2,0,L|315:215,1,52.5000020027161,8|8,1:2|0:2,0:0:0:0:
250,115,33111,2,0,L|256:168,1,52.5000020027161,10|8,3:2|0:2,0:0:0:0:
156,232,33278,2,0,L|209:227,1,52.5000020027161,8|8,1:2|0:2,0:0:0:0:
465,197,33445,5,2,3:2:0:0:
465,197,34778,5,0,3:0:0:0:
429,286,34945,1,0,3:0:0:0:
394,288,35028,1,0,3:0:0:0:
359,291,35111,1,8,0:2:0:0:
296,182,35278,2,0,L|248:175,1,35,0|8,3:0|0:2,0:0:0:0:
228,173,35445,2,0,L|180:166,1,35,0|8,3:0|0:2,0:0:0:0:
160,164,35612,2,0,L|112:157,1,35,2|0,3:2|0:0,0:0:0:0:
92,155,35778,1,10,0:2:0:0:
228,173,35945,1,2,0:2:0:0:
35,28,36112,5,2,3:2:0:0:
121,77,46778,6,0,L|113:182,1,105.000004005432,0|2,0:0|0:2,0:0:0:0:
113,181,47445,2,0,L|109:233,1,52.5000020027161,2|2,0:2|0:2,0:0:0:0:
378,72,47945,6,0,P|325:42|246:94,1,157.500006008148,2|2,0:2|0:2,0:0:0:0:
248,87,48778,2,0,P|234:111|208:127,1,52.5000020027161,2|2,0:2|0:2,0:0:0:0:
57,158,49278,6,0,L|70:272,1,105.000004005432,2|2,0:2|0:2,0:0:0:0:
82,347,49778,1,2,0:2:0:0:
82,347,50112,2,0,L|139:340,1,52.5000020027161,2|2,0:2|0:2,0:0:0:0:
350,316,50612,5,2,0:2:0:0:
383,181,50945,5,2,0:2:0:0:
249,147,51278,5,2,0:2:0:0:
215,281,51612,6,0,L|199:344,2,52.5000020027161,2|2|2,0:2|0:2|0:2,0:0:0:0:
127,172,52112,6,0,L|123:144,3,26.2500010013581,8|8|8|8,0:2|0:2|0:2|0:2,0:0:0:0:
123,146,52445,6,0,L|127:118,3,26.2500010013581,10|8|8|8,0:2|0:2|0:2|0:2,0:0:0:0:
126,120,52778,6,0,L|122:92,3,26.2500010013581,10|8|10|8,0:2|0:2|0:2|0:2,0:0:0:0:
122,94,53111,6,0,L|126:66,3,26.2500010013581,8|8|10|8,0:2|0:2|0:2|0:2,0:0:0:0:
160,68,53445,6,0,P|144:66|121:68,3,35,8|8|8|8,0:2|0:2|0:2|0:2,0:0:0:0:
194,68,53778,6,0,P|176:69|159:67,3,35,10|8|8|8,0:2|0:2|0:2|0:2,0:0:0:0:
228,68,54112,6,0,P|212:66|189:68,3,35,10|8|10|8,0:2|0:2|0:2|0:2,0:0:0:0:
262,68,54445,6,0,P|244:69|227:67,3,35,8|8|10|8,0:2|0:2|0:2|0:2,0:0:0:0:
269,119,54778,6,0,L|261:62,3,52.5000020027161,8|8|8|8,0:2|0:2|0:2|0:2,0:0:0:0:
261,170,55112,6,0,L|269:113,3,52.5000020027161,8|8|8|8,0:2|0:2|0:2|0:2,0:0:0:0:
268,221,55445,6,0,L|260:164,4,52.5000020027161,8|8|8|8|8,0:2|0:2|0:2|0:2|0:2,0:0:0:0:
236,313,55945,6,0,P|290:318|337:293,1,105.000004005432,10|2,0:2|3:2,0:0:0:0:
174,241,56278,2,0,P|142:285|140:338,1,105.000004005432,2|0,0:2|0:0,0:0:0:0:
268,221,56612,2,0,P|245:171|200:143,1,105.000004005432,2|0,0:2|0:0,0:0:0:0:
174,241,56945,1,2,0:2:0:0:
334,295,57112,2,0,P|365:250|367:197,1,105.000004005432,2|0,0:2|0:0,0:0:0:0:
324,18,57445,5,2,3:2:0:0:
138,125,57612,1,0,1:0:0:0:
367,201,57778,1,2,3:2:0:0:
185,48,57945,2,0,P|127:37|92:48,1,87.5,2|0,1:2|3:0,0:0:0:0:
227,225,58278,2,0,L|239:130,1,87.5,2|0,1:2|3:0,0:0:0:0:
100,44,58612,1,2,1:2:0:0:
45,253,58778,5,2,3:2:0:0:
237,138,58945,1,0,1:0:0:0:
0,159,59112,1,2,3:2:0:0:
175,309,59278,2,0,P|220:321|269:312,1,87.5,2|0,1:2|3:0,0:0:0:0:
286,68,59612,2,0,P|241:56|192:65,1,87.5,2|0,1:2|3:0,0:0:0:0:
346,200,59945,1,2,1:2:0:0:
487,32,60112,5,2,3:2:0:0:
426,238,60278,1,0,1:0:0:0:
368,21,60445,1,2,3:2:0:0:
498,206,60612,2,0,B|505:249|505:249|490:296,1,87.5,2|0,1:2|3:0,0:0:0:0:
265,162,60945,2,0,B|258:119|258:119|273:72,1,87.5,2|0,1:2|3:0,0:0:0:0:
200,275,61278,1,2,1:2:0:0:
91,140,61445,5,2,3:2:0:0:
302,240,61612,1,0,1:0:0:0:
76,336,61778,1,2,3:2:0:0:
185,117,61945,1,0,1:0:0:0:
269,357,62112,5,2,3:2:0:0:
92,229,62278,1,2,1:2:0:0:
265,162,62445,2,0,B|312:156|312:156|357:172,1,87.5,2|0,3:2|3:0,0:0:0:0:
387,314,62778,5,2,3:2:0:0:
436,90,62945,1,0,1:0:0:0:
265,162,63112,1,2,3:2:0:0:
465,270,63278,2,0,L|481:178,1,87.5,2|0,1:2|3:0,0:0:0:0:
288,263,63612,2,0,L|304:355,1,87.5,2|0,1:2|3:0,0:0:0:0:
373,167,63945,1,2,1:2:0:0:
164,189,64112,5,2,3:2:0:0:
377,244,64278,1,0,1:0:0:0:
167,318,64445,1,2,3:2:0:0:
217,130,64612,2,0,P|259:113|314:126,1,87.5,2|0,1:2|3:0,0:0:0:0:
90,292,64945,2,0,L|76:191,1,87.5,2|0,1:2|3:0,0:0:0:0:
56,65,65278,1,2,1:2:0:0:
172,256,65445,5,2,3:2:0:0:
215,18,65612,1,0,1:0:0:0:
68,137,65778,1,2,3:2:0:0:
254,208,65945,2,0,P|306:212|340:193,1,87.5,2|0,1:2|3:0,0:0:0:0:
490,24,66278,2,0,P|438:20|404:39,1,87.5,2|0,1:2|3:0,0:0:0:0:
486,189,66612,1,2,1:2:0:0:
326,65,66778,6,0,B|326:97|351:129|351:129|334:158|337:196,1,140,2|0,3:2|0:0,0:0:0:0:
185,318,67112,6,0,B|184:285|159:253|159:253|176:224|173:186,1,140,2|2,3:2|0:2,0:0:0:0:
382,262,67445,6,0,B|349:262|317:287|317:287|288:270|250:273,1,140,2|2,3:2|0:2,0:0:0:0:
129,121,67778,6,0,B|161:120|193:95|193:95|222:112|260:109,1,140,2|0,3:2|0:0,0:0:0:0:
185,318,68111,5,2,3:2:0:0:
129,121,68278,1,0,1:0:0:0:
326,65,68444,1,2,3:2:0:0:
382,262,68611,1,2,1:2:0:0:
220,255,68778,5,0,3:0:0:0:
192,156,68945,1,2,1:2:0:0:
291,128,69111,1,0,3:0:0:0:
319,227,69278,1,2,1:2:0:0:
138,275,69444,5,2,3:2:0:0:
170,73,69611,1,0,1:0:0:0:
372,105,69777,1,2,3:2:0:0:
340,307,69944,1,2,1:2:0:0:
197,233,70111,5,0,3:0:0:0:
212,132,70278,1,2,1:2:0:0:
314,148,70444,1,0,3:0:0:0:
298,248,70611,1,2,1:2:0:0:
146,38,70778,5,2,3:2:0:0:
409,80,70945,1,0,1:0:0:0:
367,343,71111,1,2,3:2:0:0:
104,301,71278,1,2,1:2:0:0:
146,38,71444,5,0,3:0:0:0:
409,80,71611,1,2,1:2:0:0:
367,343,71778,2,0,L|307:334,1,52.5000020027161,0|0,3:0|0:0,0:0:0:0:
104,301,71944,2,0,L|113:239,1,52.5000020027161,2|0,1:2|0:0,0:0:0:0:
287,5,72111,5,2,3:2:0:0:
443,221,72278,1,0,1:0:0:0:
227,377,72444,1,2,3:2:0:0:
71,162,72611,1,0,1:0:0:0:
409,80,72778,5,2,3:2:0:0:
367,343,72945,1,2,1:2:0:0:
104,301,73111,1,2,3:2:0:0:
146,38,73278,1,0,1:0:0:0:
339,309,73444,5,2,3:2:0:0:
374,108,73611,1,0,1:0:0:0:
173,73,73777,1,2,3:2:0:0:
138,274,73944,1,2,1:2:0:0:
298,250,74111,5,0,3:0:0:0:
315,149,74278,1,2,1:2:0:0:
214,132,74444,1,0,3:0:0:0:
197,233,74611,1,2,1:2:0:0:
381,263,74777,5,2,3:2:0:0:
328,65,74944,1,0,1:0:0:0:
131,118,75110,1,2,3:2:0:0:
184,316,75277,1,2,1:2:0:0:
318,227,75444,5,0,3:0:0:0:
292,128,75611,1,2,1:2:0:0:
193,154,75777,1,0,3:0:0:0:
220,252,75944,1,2,1:2:0:0:
386,279,76112,6,0,P|427:273|477:213,1,105.000004005432,2|0,3:2|1:0,0:0:0:0:
497,153,76445,1,2,3:2:0:0:
318,227,76612,6,0,P|301:265|328:338,1,105.000004005432,2|0,1:2|3:0,0:0:0:0:
374,379,76945,1,2,1:2:0:0:
397,190,77112,6,0,P|372:156|295:143,1,105.000004005432,2|2,3:2|1:2,0:0:0:0:
136,362,77445,5,2,3:2:0:0:
426,311,77612,5,0,0:0:0:0:
375,21,77778,5,2,3:2:0:0:
85,72,77945,5,0,0:0:0:0:
124,379,78112,5,2,3:2:0:0:
443,323,78279,5,0,0:0:0:0:
387,4,78445,5,2,3:2:0:0:
68,60,78612,5,0,0:0:0:0:
256,192,78778,5,2,3:2:0:0:
256,192,78862,12,0,88112,0:0:0:0:
