osu file format v14

[General]
AudioFilename: audio.mp3
AudioLeadIn: 0
PreviewTime: 35528
Countdown: 0
SampleSet: Normal
StackLeniency: 0.2
Mode: 0
LetterboxInBreaks: 0
WidescreenStoryboard: 1

[Editor]
DistanceSpacing: 1
BeatDivisor: 2
GridSize: 8
TimelineZoom: 1.8

[Metadata]
Title:masterpiece (Cut Ver.)
TitleUnicode:masterpiece (Cut Ver.)
Artist:Hommarju feat. Latte
ArtistUnicode:Hommarju feat. Latte
Creator:Konoe Kanata
Version:Level 1
Source:とある魔術の禁書目録
Tags:
BeatmapID:2676466
BeatmapSetID:969656

[Difficulty]
HPDrainRate:2
CircleSize:2
OverallDifficulty:2
ApproachRate:3
SliderMultiplier:0.9
SliderTickRate:1

[Events]
//Background and Video events
0,0,"462812.jpg",0,0
//Break Periods
2,36311,45338
//Storyboard Layer 0 (Background)
//Storyboard Layer 1 (Fail)
//Storyboard Layer 2 (Pass)
//Storyboard Layer 3 (Foreground)
//Storyboard Layer 4 (Overlay)
//Storyboard Sound Samples

[TimingPoints]
112,333.333333333333,4,2,1,50,1,0
1112,-100,4,2,2,50,0,0
1445,-100,4,2,3,50,0,0
1778,-100,4,2,2,50,0,0
5778,-100,4,1,0,50,0,0
6445,-100,4,2,2,50,0,0
10778,-100,4,2,3,50,0,0
11611,-100,4,1,0,40,0,0
11778,-100,4,2,2,40,0,0
12112,-100,4,2,3,70,0,0
12445,-100,4,2,2,70,0,0
17445,-100,4,2,3,70,0,0
17778,-100,4,2,2,70,0,0
20112,-100,4,2,3,70,0,0
20445,-100,4,2,2,70,0,0
21445,-100,4,2,3,70,0,0
22445,-100,4,2,1,70,0,0
24445,-100,4,2,2,70,0,0
28112,-100,4,2,1,70,0,0
29778,-100,4,2,2,70,0,0
33445,-100,4,2,1,40,0,0
34778,-100,4,2,4,40,0,0
36111,-100,4,2,1,30,0,0
46778,-100,4,1,0,40,0,0
47444,-100,4,2,2,40,0,0
49445,-100,4,1,0,50,0,0
49778,-100,4,2,2,50,0,0
52112,-100,4,2,2,60,0,0
55945,-100,4,1,0,50,0,0
56112,-100,4,2,1,50,0,0
57445,-100,4,2,5,80,0,1
57945,-100,4,2,6,80,0,1
62778,-100,4,2,7,80,0,1
63278,-100,4,2,6,80,0,1
65445,-100,4,2,7,80,0,1
65945,-100,4,2,6,80,0,1
66778,-100,4,2,7,80,0,1
67445,-100,4,2,1,80,0,1
67778,-100,4,2,7,80,0,1
68028,-100,4,1,0,80,0,0
68112,-100,4,2,7,80,0,1
68445,-100,4,2,6,80,0,1
73445,-100,4,2,7,80,0,1
73778,-100,4,2,6,80,0,1
76112,-100,4,2,5,80,0,1
76445,-100,4,2,8,80,0,1
77112,-100,4,2,2,80,0,1
77445,-100,4,2,5,80,0,1
77778,-100,4,2,7,80,0,1
78778,-100,4,2,1,80,0,0
78945,-100,4,1,0,80,0,0
80112,-100,4,1,0,80,0,0
81445,-100,4,1,0,75,0,0
82778,-100,4,1,0,60,0,0
84112,-100,4,1,0,45,0,0
85445,-100,4,1,0,30,0,0
86778,-100,4,1,0,15,0,0
88112,-100,4,1,0,5,0,0

[HitObjects]
256,192,112,5,2,3:2:0:0:
256,192,1112,1,2,0:2:0:0:
187,134,1445,6,0,P|140:130|93:149,1,90,2|2,3:2|0:2,0:0:0:0:
28,309,2445,1,2,0:2:0:0:
103,358,2778,2,0,P|164:372|244:347,2,135,2|2|2,0:2|0:2|0:2,0:0:0:0:
109,267,4112,2,0,B|90:179|90:179|114:140,2,135,2|2|2,0:2|0:2|0:2,0:0:0:0:
192,234,5445,2,0,P|244:221|289:231,1,90,2|0,0:2|0:0,0:0:0:0:
453,273,6445,1,2,0:2:0:0:
488,192,6778,6,0,L|478:94,1,90,2|2,0:2|0:2,0:0:0:0:
319,17,7778,1,2,0:2:0:0:
260,85,8112,2,0,B|197:116|195:61|128:89,2,135,2|2|2,0:2|0:2|0:2,0:0:0:0:
348,100,9445,2,0,P|382:152|350:226,2,135,2|2|2,0:2|0:2|0:2,0:0:0:0:
260,85,10778,5,2,3:2:0:0:
84,290,11778,1,2,0:2:0:0:
159,240,12112,6,0,L|269:231,1,90,2|2,3:2|3:2,0:0:0:0:
320,286,12778,2,0,L|430:295,1,90,0|2,3:0|3:2,0:0:0:0:
481,238,13445,2,0,P|489:187|474:148,1,90,2|2,3:2|3:2,0:0:0:0:
439,125,13945,1,2,1:2:0:0:
314,71,14445,1,2,3:2:0:0:
244,128,14778,6,0,L|153:123,1,90,2|2,3:2|3:2,0:0:0:0:
109,121,15278,1,2,1:2:0:0:
38,176,15612,2,0,P|35:199|38:221,1,45,2|2,1:2|3:2,0:0:0:0:
100,285,16112,2,0,B|163:289|163:289|215:271|215:271|277:273,1,180,2|0,3:2|3:0,0:0:0:0:
365,288,17112,1,2,3:2:0:0:
420,217,17445,6,0,L|410:120,1,90,2|2,3:2|3:2,0:0:0:0:
334,78,18112,2,0,P|289:76|244:95,1,90,0|2,3:0|3:2,0:0:0:0:
178,150,18778,2,0,L|189:251,1,90,2|2,3:2|3:2,0:0:0:0:
194,284,19278,1,2,1:2:0:0:
77,353,19778,1,2,3:2:0:0:
17,284,20112,6,0,L|7:177,1,90,2|2,3:2|3:2,0:0:0:0:
39,161,20612,2,0,L|49:54,1,90,2|2,1:2|1:2,0:0:0:0:
75,35,21112,1,2,3:2:0:0:
156,72,21445,2,0,P|262:47|302:201,1,270,10|10,3:2|3:2,0:0:0:0:
279,254,22778,5,2,3:2:0:0:
452,301,23445,1,0,3:0:0:0:
483,123,24112,2,0,P|438:106|394:117,1,90,0|2,3:0|3:2,0:0:0:0:
324,166,24778,2,0,P|280:174|239:157,1,90,2|0,3:2|3:0,0:0:0:0:
174,96,25445,5,0,3:0:0:0:
66,240,26112,1,0,3:0:0:0:
235,300,26778,2,0,B|321:324|321:324|359:289,2,135,0|0|0,3:0|1:0|3:0,0:0:0:0:
150,268,28112,5,2,3:2:0:0:
264,128,28778,1,0,3:0:0:0:
436,180,29445,2,0,L|447:285,1,90,0|2,3:0|3:2,0:0:0:0:
453,359,30112,2,0,L|348:370,1,90,2|0,3:2|3:0,0:0:0:0:
278,338,30778,6,0,P|261:285|271:241,1,90,8|8,3:2|3:2,0:0:0:0:
309,172,31445,2,0,P|313:127|297:86,1,90,8|8,3:2|3:2,0:0:0:0:
229,26,32112,1,8,3:2:0:0:
135,123,32612,2,0,B|110:165|110:165|142:252,1,135,10|10,1:2|3:2,0:0:0:0:
179,326,33445,5,2,3:2:0:0:
179,326,34778,2,0,P|232:337|280:311,1,90,0|8,3:0|0:2,0:0:0:0:
298,295,35278,1,0,3:0:0:0:
351,222,35612,2,0,L|345:171,1,45,2|10,3:2|0:2,0:0:0:0:
320,140,35945,2,0,L|326:89,1,45,2|2,0:2|3:2,0:0:0:0:
256,192,46778,6,0,P|207:214|116:141,1,180,0|2,0:0|0:2,0:0:0:0:
202,40,47945,2,0,B|304:-21|316:94|417:41,1,225,2|2,0:2|0:2,0:0:0:0:
495,150,49278,2,0,P|511:211|457:284,1,135,2|2,0:2|0:2,0:0:0:0:
398,314,50112,1,2,0:2:0:0:
282,243,50612,2,0,L|188:238,1,90,2|2,0:2|0:2,0:0:0:0:
102,234,51278,1,2,0:2:0:0:
56,155,51612,2,0,P|44:100|65:62,1,90,2|2,0:2|0:2,0:0:0:0:
256,192,52112,12,2,56112,3:2:0:0:
256,192,57445,6,0,B|224:107|224:107|248:68,2,135,2|2|0,3:2|1:2|3:0,0:0:0:0:
301,269,58778,2,0,P|360:278|396:262,1,90,2|2,3:2|3:2,0:0:0:0:
421,238,59278,1,2,1:2:0:0:
455,154,59612,1,2,1:2:0:0:
341,80,60112,6,0,P|277:72|199:94,2,135,2|2|0,3:2|1:2|3:0,0:0:0:0:
386,158,61445,1,2,3:2:0:0:
351,240,61778,1,2,3:2:0:0:
260,237,62112,2,0,L|165:231,1,90,2|2,3:2|3:2,0:0:0:0:
80,226,62778,6,0,P|63:266|90:354,2,135,2|2|0,3:2|1:2|3:0,0:0:0:0:
138,157,64112,2,0,L|262:164,1,90,2|2,3:2|3:2,0:0:0:0:
272,166,64612,1,2,1:2:0:0:
361,174,64945,1,2,1:2:0:0:
472,250,65445,6,0,L|456:388,2,135,2|2|0,3:2|1:2|3:0,0:0:0:0:
509,168,66778,2,0,L|497:71,1,90,2|2,3:2|3:2,0:0:0:0:
423,28,67445,1,2,3:2:0:0:
351,81,67778,1,2,3:2:0:0:
267,47,68112,6,0,P|207:41|178:59,1,90,2|2,3:2|3:2,0:0:0:0:
157,91,68612,2,0,L|168:191,1,90,2|2,1:2|1:2,0:0:0:0:
172,225,69112,1,0,3:0:0:0:
251,266,69445,2,0,L|353:275,1,90,2|2,3:2|3:2,0:0:0:0:
376,246,69945,2,0,P|390:199|377:151,1,90,2|2,1:2|1:2,0:0:0:0:
349,128,70445,1,0,3:0:0:0:
273,79,70778,6,0,B|220:78|220:78|197:92|197:92|138:91,2,135,2|2|0,3:2|1:2|3:0,0:0:0:0:
345,25,72112,2,0,L|441:21,1,90,2|2,3:2|3:2,0:0:0:0:
492,90,72778,2,0,P|504:142|485:196,1,90,2|2,3:2|3:2,0:0:0:0:
457,258,73445,6,0,L|366:253,1,90,2|2,3:2|3:2,0:0:0:0:
331,280,73945,2,0,L|240:285,1,90,2|2,1:2|1:2,0:0:0:0:
196,290,74445,1,0,3:0:0:0:
106,301,74778,2,0,P|87:252|123:168,1,135,2|2,3:2|1:2,0:0:0:0:
227,104,75778,1,0,3:0:0:0:
281,176,76112,6,0,P|328:185|383:163,1,90,2|2,3:2|3:2,0:0:0:0:
404,146,76612,2,0,L|389:37,1,90,2|2,1:2|1:2,0:0:0:0:
385,12,77112,1,2,3:2:0:0:
296,27,77445,6,0,L|198:23,1,90,2|2,3:2|3:2,0:0:0:0:
141,86,78112,1,2,3:2:0:0:
192,159,78445,1,2,3:2:0:0:
133,227,78778,5,2,3:2:0:0:
256,192,78945,12,0,88112,0:0:0:0:
