osu file format v14

[General]
AudioFilename: audio.mp3
AudioLeadIn: 0
PreviewTime: 112972
Countdown: 0
SampleSet: Soft
StackLeniency: 0.7
Mode: 0
LetterboxInBreaks: 0
WidescreenStoryboard: 1

[Editor]
DistanceSpacing: 1.1
BeatDivisor: 4
GridSize: 16
TimelineZoom: 1

[Metadata]
Title:masterpiece (Cut Ver.)
TitleUnicode:masterpiece (Cut Ver.)
Artist:Hommarju feat. Latte
ArtistUnicode:Hommarju feat. Latte
Creator:Enon
Version:Hard
Source:とある魔術の禁書目録
Tags:Beomsan Nasmoeb Chinochan Bloxi Dailycare Morinaga Oriental Weeklycare To aru majutsu no index season 1 op opening remix Toaru Majutsu no Kinsho Mokuroku A Certain Magical Index Remix 川田まみ Kawada Mami Rock japanese anime j-pop jpop pop 井内舞子 Maiko Iuchi kagaku no railgun scientific とある科学の超電磁砲 Kamijou Touma 上条 当麻 Misaka Mikoto 御坂 美琴 Shirai Kuroko 白井 黒子 Himegami Aisa 姫神 秋沙 Tsukuyomi Komoe 月詠 小萌 Last Order 打ち止め sisters Accelerator 一方通行 Librorum
BeatmapID:4386403
BeatmapSetID:2092449

[Difficulty]
HPDrainRate:3
CircleSize:4
OverallDifficulty:6
ApproachRate:8
SliderMultiplier:1.3
SliderTickRate:1

[Events]
//Background and Video events
0,0,"bg.jpg",0,0
//Break Periods
2,159005,168721
//Storyboard Layer 0 (Background)
//Storyboard Layer 1 (Fail)
//Storyboard Layer 2 (Pass)
//Storyboard Layer 3 (Foreground)
//Storyboard Layer 4 (Overlay)
//Storyboard Sound Samples

[TimingPoints]
1473,333.333333333333,4,2,1,75,1,0
36139,333.333333333333,4,2,1,55,1,0
46805,-100,4,2,1,75,0,0
57472,-83.3333333333333,4,2,1,90,0,1
78805,-100,4,2,1,75,0,0
113472,333.333333333333,4,2,1,90,1,0
113472,-83.3333333333333,4,2,1,90,0,0
134805,-83.3333333333333,4,2,1,90,0,1
156138,-83.3333333333333,4,2,1,75,0,0
169805,-100,4,2,1,75,0,0
180138,333.333333333333,4,2,1,90,1,0
180138,-83.3333333333333,4,2,1,90,0,0
201471,-83.3333333333333,4,2,1,90,0,1
222804,-83.3333333333333,4,2,1,90,0,0

[Colours]
Combo1 : 87,147,81
Combo2 : 6,44,255
Combo3 : 255,77,5
Combo4 : 113,205,255
Combo5 : 242,178,212

[HitObjects]
119,367,12139,6,0,P|148:335|185:340,1,65,12|0,3:0|2:0,0:0:0:0:
219,336,12472,2,0,P|285:326|316:261,1,130,0|4,1:0|3:0,0:0:0:0:
292,173,13139,2,0,P|259:147|236:156,1,65,0|0,1:0|2:0,0:0:0:0:
195,180,13472,6,0,P|193:127|175:40,1,130,4|2,3:0|1:2,2:0:0:0:
140,15,13972,2,0,P|193:13|280:-5,1,130,4|4,3:0|3:0,2:0:0:0:
313,24,14472,1,0,1:2:0:0:
405,71,14806,6,0,P|407:124|425:211,1,130,4|0,3:0|1:0,2:0:0:0:
449,243,15306,2,0,P|396:245|309:263,1,130,4|4,3:0|3:0,2:0:0:0:
268,257,15806,2,0,L|276:321,1,65,0|0,1:0|2:0,2:0:0:0:
242,361,16139,6,0,B|199:394|148:369|140:327|140:327|131:284|80:259|38:293,1,260,4|4,3:0|3:0,2:0:0:0:
0,252,16972,1,4,3:0:0:0:
35,214,17139,2,0,L|26:141,1,65,2|0,1:2|2:0,0:0:0:0:
7,101,17472,6,0,P|40:98|72:93,1,65,12|0,3:0|2:0,2:0:0:0:
105,53,17806,2,0,P|148:101|126:165,1,130,0|4,1:0|3:0,2:0:0:0:
177,252,18472,2,0,P|210:249|242:244,1,65,0|0,1:0|2:0,0:0:0:0:
289,267,18806,6,0,P|336:260|439:255,1,130,4|0,3:0|1:0,2:0:0:0:
440,207,19306,2,0,P|433:160|428:57,1,130,4|4,3:0|3:0,2:0:0:0:
383,50,19806,2,0,P|350:54|318:57,1,65,0|4,1:0|3:0,0:0:0:0:
288,101,20139,6,0,P|240:92|184:152,1,130,6|0,1:2|1:0,2:0:0:0:
135,127,20639,2,0,P|72:131|32:83,1,130,2|2,2:0|2:0,2:0:0:0:
8,131,21139,1,2,1:2:0:0:
256,192,21472,12,0,22472,3:0:0:0:
24,194,22806,6,0,P|103:200|130:264,1,130,4|0,3:0|1:0,0:0:0:0:
171,266,23306,1,0,2:0:0:0:
203,225,23472,2,0,L|178:93,2,130,4|0|4,3:0|1:0|3:0,2:0:0:0:
303,251,24472,2,0,L|315:314,1,65,0|0,1:0|2:0,0:0:0:0:
357,345,24806,2,2,P|416:299|452:307,2,97.5,4|0|2,3:0|0:0|3:2,2:0:0:0:
321,382,25472,5,4,3:0:0:0:
220,355,25806,1,0,1:0:0:0:
214,250,26139,1,4,3:0:0:0:
312,211,26472,1,0,1:0:0:0:
379,291,26806,6,0,P|389:227|404:164,1,130,4|0,3:0|1:0,0:0:0:0:
372,123,27306,1,2,2:0:0:0:
404,82,27472,2,0,P|349:73|325:54,1,65,4|2,3:0|3:0,0:0:0:0:
297,96,27806,2,0,P|267:83|234:82,1,65,2|2,1:3|1:3,0:0:0:0:
190,55,28139,6,0,L|48:67,1,130,4|0,3:0|1:0,2:0:0:0:
31,109,28639,1,0,2:0:0:0:
69,144,28806,2,0,L|80:274,2,130,4|0|4,3:0|1:0|3:0,2:0:0:0:
172,135,29806,2,0,L|177:200,1,65,0|0,1:0|2:0,2:0:0:0:
220,230,30139,2,0,P|249:272|233:343,2,97.5,4|0|2,3:0|0:0|2:0,0:0:0:0:
256,192,30806,5,4,3:0:0:0:
312,104,31139,1,0,1:0:0:0:
412,130,31472,1,4,3:0:0:0:
418,233,31806,1,0,1:0:0:0:
321,270,32139,6,0,P|262:299|242:380,1,130,4|0,3:0|1:0,0:0:0:0:
189,340,32639,2,0,L|169:205,1,130,6|0,1:2|3:2,2:0:0:0:
199,168,33139,1,6,1:2:0:0:
256,192,33472,12,0,34806,3:0:0:0:
199,168,35639,6,0,P|234:160|281:159,1,65,0|4,3:0|1:0,0:0:0:0:
299,120,35972,1,0,0:0:0:0:
345,142,36139,2,0,P|337:102|334:8,1,130,4|2,2:1|2:0,2:0:0:0:
235,35,36805,1,2,2:0:0:0:
235,35,36972,1,2,2:0:0:0:
234,139,37305,6,0,P|235:236|255:331,1,195,2|2,2:0|2:0,2:0:0:0:
161,377,38139,1,2,2:0:0:0:
161,377,38305,1,2,2:0:0:0:
69,326,38639,6,0,P|68:229|48:134,1,195,2|2,2:0|2:0,2:0:0:0:
97,43,39472,1,2,2:0:0:0:
97,43,39639,1,2,2:0:0:0:
197,70,39972,6,0,P|262:65|325:49,2,130,2|2|2,2:0|2:0|2:0,0:0:0:0:
176,175,40972,1,2,2:0:0:0:
176,175,41138,2,0,P|184:206|186:238,1,65,0|2,2:0|2:0,2:0:0:0:
226,274,41472,5,0,2:0:0:0:
326,247,41805,1,2,2:0:0:0:
304,349,42138,2,0,P|239:354|176:370,1,130,2|0,2:0|0:0,0:0:0:0:
134,339,42638,6,0,P|133:242|113:147,1,195,2|2,2:0|2:0,2:0:0:0:
171,61,43472,1,2,2:0:0:0:
171,61,43638,1,2,2:0:0:0:
269,27,43972,6,0,P|270:190|304:351,1,325,2|0,2:0|0:0,0:0:0:0:
152,307,45305,6,0,P|147:242|131:179,1,130,2|2,2:0|2:0,0:0:0:0:
92,82,45972,2,0,P|157:77|220:61,1,130,2|2,2:0|2:0,0:0:0:0:
266,84,46472,2,0,P|268:116|276:147,1,65,2|2,2:0|2:0,0:0:0:0:
240,185,46805,5,0,2:0:0:0:
160,252,47138,1,2,2:0:0:0:
227,332,47472,1,2,2:0:0:0:
227,332,47638,1,2,2:0:0:0:
307,265,47972,6,0,P|401:241|498:233,1,195,2|2,2:0|2:0,2:0:0:0:
508,133,48805,1,2,2:0:0:0:
508,133,48972,1,2,2:0:0:0:
452,45,49305,6,0,P|390:61|325:66,1,130,2|2,2:0|2:0,2:0:0:0:
289,104,49805,1,2,2:0:0:0:
186,87,50138,2,0,P|183:54|175:23,2,65,2|2|0,2:0|2:0|2:0,0:0:0:0:
220,126,50638,6,0,P|224:190|240:253,1,130,2|2,2:0|2:0,2:0:0:0:
200,350,51305,2,0,P|136:354|73:370,1,130,2|2,2:0|2:0,2:0:0:0:
29,341,51805,2,0,P|27:308|19:277,1,65,2|2,2:0|2:0,2:0:0:0:
50,235,52138,5,0,2:0:0:0:
146,273,52472,1,2,2:0:0:0:
184,177,52805,1,2,2:0:0:0:
184,177,52972,1,2,2:0:0:0:
88,139,53305,6,0,P|185:132|281:108,1,195,2|2,2:0|2:0,0:0:0:0:
306,213,54138,1,2,2:0:0:0:
306,213,54305,2,0,P|314:245|315:277,1,65,2|0,2:0|2:0,2:0:0:0:
351,314,54638,2,0,P|494:251|447:99,1,325,2|0,3:2|0:0,0:0:0:0:
335,25,55972,5,2,0:0:0:0:
285,8,56138,2,0,P|222:24|157:28,1,130,4|2,1:0|0:0,0:0:0:0:
116,60,56638,2,0,P|132:123|136:188,1,130,2|0,0:0|0:0,0:0:0:0:
170,226,57138,2,0,P|202:218|234:217,1,65,2|0,2:0|0:0,0:0:0:0:
287,250,57472,5,6,1:3:0:0:
394,313,57805,2,0,P|385:260|383:224,1,77.999997619629,0|4,1:0|2:3,0:0:0:0:
400,175,58138,2,0,P|347:184|311:186,1,78,0|4,2:0|2:3,0:0:0:0:
266,158,58472,1,0,1:3:0:0:
283,98,58638,1,4,2:3:0:0:
233,59,58805,5,6,1:3:0:0:
343,0,59138,2,0,P|351:48|355:88,1,78,0|4,1:0|2:3,0:0:0:0:
396,123,59472,2,0,P|444:115|484:111,1,78,0|4,2:0|2:3,0:0:0:0:
507,163,59805,1,0,1:3:0:0:
469,212,59972,1,4,3:0:0:0:
500,265,60138,5,6,1:3:0:0:
433,370,60472,2,0,P|424:295|424:277,1,78,0|4,1:0|2:3,0:0:0:0:
369,264,60805,2,0,P|294:273|276:273,1,78,0|4,2:0|2:3,0:0:0:0:
241,235,61138,1,0,1:0:0:0:
268,179,61305,1,4,2:3:0:0:
232,128,61472,6,0,P|230:77|224:46,1,78,6|0,1:3|2:0,0:0:0:0:
271,8,61805,1,0,1:0:0:0:
331,23,61972,2,0,P|334:119|346:178,1,156,4|4,2:3|2:3,0:0:0:0:
308,227,62472,1,0,1:0:0:0:
268,179,62638,1,4,3:0:0:0:
241,235,62805,5,6,1:3:0:0:
137,166,63138,2,0,P|82:177|56:178,1,78,0|4,1:0|2:3,0:0:0:0:
29,232,63472,2,0,P|40:287|41:313,1,78,0|4,2:0|2:3,0:0:0:0:
87,351,63805,1,0,1:0:0:0:
132,308,63972,1,4,2:3:0:0:
185,340,64138,5,6,1:3:0:0:
305,371,64472,2,0,P|360:360|386:359,1,78,0|4,1:0|3:0,0:0:0:0:
413,305,64805,2,0,P|402:250|401:224,1,78,0|4,2:0|3:0,0:0:0:0:
353,187,65138,1,0,1:0:0:0:
387,135,65305,1,4,3:0:0:0:
350,84,65472,5,6,1:3:0:0:
252,6,65805,2,0,P|257:68|263:102,1,78,0|4,1:0|3:0,0:0:0:0:
238,142,66138,2,0,P|176:147|142:153,1,78,0|4,2:0|3:0,0:0:0:0:
128,203,66472,1,0,1:0:0:0:
164,253,66638,1,4,3:0:0:0:
134,308,66805,6,0,P|78:314|51:319,1,78,6|0,1:3|2:0,0:0:0:0:
7,278,67138,1,0,1:0:0:0:
36,223,67305,2,0,P|24:111|14:57,1,156,4|4,3:0|3:0,0:0:0:0:
50,16,67805,1,0,1:0:0:0:
104,45,67972,1,0,1:0:0:0:
156,10,68138,5,6,1:3:0:0:
258,81,68472,2,0,P|263:137|267:168,1,78,0|4,1:0|2:3,0:0:0:0:
232,211,68805,2,0,P|176:216|145:220,1,78,0|4,2:0|2:3,0:0:0:0:
118,269,69138,1,0,1:0:0:0:
159,316,69305,1,4,2:3:0:0:
134,373,69472,5,6,1:3:0:0:
248,322,69805,2,0,P|286:317|325:314,1,78,0|4,1:0|2:3,0:0:0:0:
384,334,70138,2,0,P|379:295|376:256,1,78,2|4,2:0|2:3,0:0:0:0:
332,211,70472,1,2,1:2:0:0:
371,162,70638,1,2,2:0:0:0:
346,104,70805,5,6,1:3:0:0:
240,37,71138,2,0,P|187:44|157:45,1,78,0|4,1:0|2:3,0:0:0:0:
117,88,71472,2,0,P|124:141|125:171,1,78,0|4,2:0|2:3,0:0:0:0:
169,209,71805,1,0,1:0:0:0:
226,184,71972,1,4,2:3:0:0:
271,226,72138,6,0,P|266:289|270:314,1,78,6|0,1:3|2:0,0:0:0:0:
230,353,72472,1,0,1:0:0:0:
170,333,72638,2,0,P|87:334|11:344,1,156,4|0,2:3|0:0,0:0:0:0:
39,286,73138,1,0,3:0:0:0:
1,236,73305,1,4,3:0:0:0:
35,183,73472,5,4,1:0:0:0:
158,202,73805,2,0,P|231:191|251:191,1,78,0|4,1:0|2:3,0:0:0:0:
280,148,74138,2,0,P|269:75|269:55,1,78,0|4,2:0|2:3,0:0:0:0:
219,32,74472,1,0,1:0:0:0:
171,72,74638,1,4,2:3:0:0:
116,41,74805,5,4,1:0:0:0:
17,118,75138,2,0,P|25:157|28:196,1,78,0|4,1:0|2:3,0:0:0:0:
71,241,75472,2,0,P|109:233|148:230,1,78,2|0,1:2|3:0,0:0:0:0:
194,188,75805,1,2,1:2:0:0:
256,192,75972,1,2,1:2:0:0:
318,196,76138,1,4,1:2:0:0:
256,192,76222,12,0,77138,2:0:0:0:
256,192,77472,12,2,78472,1:2:0:0:
318,196,78805,6,0,P|322:157|340:115,1,65,4|0,3:0|2:0,2:0:0:0:
301,89,79138,2,0,P|283:40|186:35,1,130,0|0,1:0|2:0,2:0:0:0:
108,16,79805,2,0,P|104:55|86:97,1,65,0|0,1:0|2:0,0:0:0:0:
124,122,80138,6,0,P|69:159|73:230,1,130,4|0,3:0|1:0,2:0:0:0:
93,262,80638,2,0,P|144:278|204:230,1,130,4|4,3:0|3:0,2:0:0:0:
253,238,81138,2,0,P|248:311|253:315,1,65,0|0,1:0|2:0,0:0:0:0:
276,330,81472,6,0,P|351:337|420:350,1,130,4|0,3:0|1:0,2:0:0:0:
436,305,81972,2,0,P|443:230|456:161,1,130,4|4,3:0|3:0,2:0:0:0:
482,133,82472,2,0,P|445:129|410:123,1,65,0|0,1:0|2:0,2:0:0:0:
371,147,82805,6,0,P|342:68|172:66,1,260,4|4,3:0|3:0,2:0:0:0:
139,28,83638,1,2,3:0:0:0:
139,28,83805,1,0,1:0:0:0:
153,142,84138,6,0,P|155:174|163:205,1,65,12|0,3:0|2:0,0:0:0:0:
188,251,84472,2,0,P|123:255|60:271,1,130,0|0,1:0|2:0,0:0:0:0:
9,180,85138,2,0,P|7:148|-1:117,1,65,0|0,1:0|2:0,0:0:0:0:
27,72,85472,6,0,P|87:56|131:99,1,130,4|0,3:0|1:0,2:0:0:0:
181,87,85972,2,0,P|225:130|285:114,1,130,4|4,3:0|3:0,2:0:0:0:
321,151,86472,2,0,P|283:192|280:221,1,65,0|4,1:0|3:0,0:0:0:0:
229,199,86805,6,0,P|237:263|242:328,1,130,4|0,3:0|1:0,2:0:0:0:
219,374,87305,2,0,P|283:365|348:360,1,130,4|4,3:0|3:0,2:0:0:0:
396,380,87805,1,0,1:0:0:0:
454,293,88138,6,0,P|479:257|467:223,2,65,0|0|0,3:0|3:0|1:0,0:0:0:0:
402,299,88638,1,0,3:0:0:0:
370,257,88805,2,0,L|384:184,1,65,4|0,1:0|3:0,0:0:0:0:
352,150,89138,1,4,1:0:0:0:
247,149,89472,6,0,P|205:145|187:122,2,65,4|0|0,1:0|3:0|1:0,0:0:0:0:
261,199,89972,2,0,P|284:254|262:333,1,130,0|0,3:0|3:0,0:0:0:0:
308,356,90472,2,0,P|326:322|362:308,1,65,0|0,1:0|3:0,2:0:0:0:
361,259,90805,6,0,L|517:229,1,130,0|0,3:0|1:0,2:0:0:0:
503,184,91305,2,0,L|478:56,1,130,0|0,3:0|3:0,0:0:0:0:
429,38,91805,2,0,L|365:50,1,65,0|0,1:0|3:0,2:0:0:0:
320,23,92138,6,0,P|258:57|255:119,1,130,0|0,3:0|1:0,0:0:0:0:
214,146,92638,2,0,P|206:194|269:251,1,130,0|0,3:0|1:0,2:0:0:0:
279,296,93138,2,0,P|304:330|302:368,1,65,0|0,3:0|0:0,2:0:0:0:
263,382,93472,5,0,3:0:0:0:
180,318,93805,1,0,1:0:0:0:
258,249,94138,1,0,0:0:0:0:
258,249,94305,2,0,L|392:256,1,130,0|0,3:0|1:0,0:0:0:0:
414,210,94805,6,0,P|452:200|490:212,2,65,0|0|0,3:0|1:0|1:0,0:0:0:0:
276,141,95638,2,0,P|238:151|200:139,2,65,0|0|0,1:0|3:0|1:0,0:0:0:0:
311,102,96138,6,0,P|322:50|253:3,1,130,0|0,3:0|1:0,2:0:0:0:
217,7,96638,2,0,P|169:40|202:121,1,130,0|0,3:0|3:0,0:0:0:0:
213,145,97138,2,0,P|222:180|192:217,1,65,0|0,1:0|3:0,2:0:0:0:
174,242,97472,6,0,P|129:233|36:223,1,130,0|0,3:0|1:0,0:0:0:0:
22,176,97972,2,0,P|31:131|41:38,1,130,0|0,3:0|3:0,0:0:0:0:
84,19,98472,1,0,1:0:0:0:
256,192,98805,12,4,99805,1:0:0:0:
139,346,100138,6,0,P|105:312|123:231,1,130,4|0,3:0|1:0,0:0:0:0:
152,198,100638,1,0,2:0:0:0:
198,221,100805,2,0,L|334:206,2,130,4|0|4,3:0|1:0|3:0,2:0:0:0:
169,120,101805,2,0,L|101:127,1,65,0|0,1:0|2:0,0:0:0:0:
62,95,102138,2,2,P|57:40|50:-8,2,97.5,4|0|2,3:0|0:0|3:2,2:0:0:0:
104,126,102805,5,4,3:0:0:0:
37,206,103138,1,0,1:0:0:0:
92,296,103472,1,4,3:0:0:0:
195,272,103805,1,0,1:0:0:0:
204,168,104138,6,0,P|257:176|311:120,1,130,4|0,3:0|1:0,0:0:0:0:
344,88,104638,1,2,2:0:0:0:
388,114,104805,2,0,P|384:146|384:178,1,65,4|2,3:0|3:0,0:0:0:0:
350,218,105138,2,0,P|349:250|345:282,1,65,2|2,1:3|1:3,0:0:0:0:
315,326,105472,6,0,L|456:339,1,130,4|0,3:0|1:0,2:0:0:0:
487,308,105972,1,0,2:0:0:0:
472,258,106138,2,0,L|483:128,2,130,4|0|4,3:0|1:0|3:0,2:0:0:0:
377,301,107138,2,0,L|372:366,1,65,0|0,1:0|2:0,2:0:0:0:
321,377,107472,2,0,P|285:351|234:349,2,97.5,4|0|2,3:0|0:0|2:0,0:0:0:0:
372,365,108138,5,4,3:0:0:0:
475,351,108472,1,0,1:0:0:0:
494,249,108805,1,4,3:0:0:0:
403,200,109138,1,0,1:0:0:0:
328,273,109472,6,0,P|260:271|231:214,1,130,4|0,3:0|1:0,0:0:0:0:
183,201,109972,2,0,P|148:148|86:149,1,130,6|0,1:2|3:2,2:0:0:0:
41,176,110472,1,6,1:2:0:0:
256,192,110805,12,0,111805,2:0:0:0:
41,176,112138,6,0,P|50:207|55:239,2,65,2|0|2,3:2|3:0|3:2,0:0:0:0:
79,141,112638,2,0,P|69:109|65:77,1,65,0|4,3:0|3:0,0:0:0:0:
101,39,112972,1,0,3:2:0:0:
144,67,113138,2,0,P|175:57|207:53,1,65,2|0,3:2|3:0,0:0:0:0:
259,17,113472,6,0,P|271:54|275:92,1,77.999997619629,6|0,2:1|3:0,0:0:0:0:
233,139,113805,2,0,P|236:177|248:214,1,77.999997619629,0|2,1:0|3:1,0:0:0:0:
295,256,114138,1,0,3:0:0:0:
295,256,114305,2,0,P|332:243|370:240,1,77.999997619629,4|2,3:0|1:0,0:0:0:0:
425,270,114638,1,0,3:0:0:0:
473,230,114805,6,0,P|469:191|457:154,1,77.999997619629,2|0,3:1|3:0,0:0:0:0:
494,104,115138,2,0,P|481:67|478:28,1,77.999997619629,0|2,1:0|3:1,0:0:0:0:
424,6,115472,1,4,3:0:0:0:
424,6,115638,1,2,0:0:0:0:
316,70,115972,1,2,3:0:0:0:
349,124,116138,6,0,P|361:161|364:200,1,77.999997619629,2|0,3:1|3:0,0:0:0:0:
420,228,116472,2,0,P|423:266|435:303,1,77.999997619629,0|2,1:0|3:1,0:0:0:0:
399,355,116805,1,4,3:0:0:0:
399,355,116972,2,0,P|360:358|323:370,1,77.999997619629,0|2,3:0|1:0,0:0:0:0:
264,347,117305,6,0,P|206:313|244:222,1,155.999995239258,4|0,3:0|3:0,0:0:0:0:
268,195,117805,1,0,1:0:0:0:
268,195,117972,2,0,P|285:123|224:83,1,155.999995239258,2|4,3:1|3:0,2:0:0:0:
166,98,118472,1,2,1:0:0:0:
166,98,118638,1,0,1:0:0:0:
136,42,118805,5,6,3:1:0:0:
13,66,119138,2,0,P|23:124|23:149,1,77.999997619629,0|2,1:0|3:1,0:0:0:0:
75,187,119472,1,4,3:0:0:0:
75,187,119638,2,0,P|133:177|158:177,1,77.999997619629,4|2,3:0|1:0,0:0:0:0:
200,216,119972,1,0,3:0:0:0:
256,192,120138,5,2,3:1:0:0:
355,116,120472,2,0,P|357:154|365:193,1,77.999997619629,0|2,1:0|3:1,0:0:0:0:
416,228,120805,1,4,3:0:0:0:
416,228,120971,2,0,P|377:230|338:238,1,77.999997619629,4|2,3:0|1:0,0:0:0:0:
300,287,121305,1,4,3:0:0:0:
250,249,121471,6,0,P|247:210|239:171,2,77.999997619629,2|0|0,3:1|3:0|1:0,0:0:0:0:
300,287,121971,1,2,3:1:0:0:
272,343,122138,2,0,P|233:351|194:353,1,77.999997619629,4|4,3:0|3:0,2:0:0:0:
147,312,122471,1,2,1:0:0:0:
89,337,122638,6,0,P|72:260|68:182,1,155.999995239258,4|0,3:0|3:0,0:0:0:0:
28,134,123138,1,0,1:0:0:0:
28,134,123305,2,0,P|104:117|182:113,1,155.999995239258,2|4,3:1|3:0,0:0:0:0:
235,78,123805,1,2,1:0:0:0:
235,78,123971,1,4,3:0:0:0:
294,95,124138,5,6,3:1:0:0:
309,218,124471,2,0,P|317:257|319:296,1,77.999997619629,0|2,1:0|3:1,0:0:0:0:
304,357,124805,1,4,3:0:0:0:
304,357,124971,2,0,P|343:349|382:347,1,77.999997619629,4|2,3:0|1:0,0:0:0:0:
441,364,125305,6,0,P|493:306|459:212,1,155.999995239258,0|0,3:0|3:0,0:0:0:0:
487,171,125805,2,0,P|456:131|415:129,1,77.999997619629,0|2,1:0|3:1,0:0:0:0:
401,71,126138,1,4,3:0:0:0:
401,71,126305,1,2,0:0:0:0:
283,29,126638,6,0,P|214:62|225:144,1,155.999995239258,4|0,3:0|3:0,0:0:0:0:
198,192,127138,2,0,P|176:163|133:163,1,77.999997619629,0|2,1:0|3:1,0:0:0:0:
82,187,127471,1,4,3:0:0:0:
82,187,127638,2,0,P|58:230|69:275,1,77.999997619629,0|2,3:0|1:0,0:0:0:0:
95,308,127971,6,0,P|149:320|206:228,1,155.999995239258,4|0,3:0|3:0,0:0:0:0:
256,209,128471,1,0,1:0:0:0:
303,250,128638,2,0,P|342:313|417:308,1,155.999995239258,2|4,3:1|3:0,2:0:0:0:
452,257,129138,1,2,1:0:0:0:
452,257,129305,1,0,1:0:0:0:
424,201,129471,5,6,3:1:0:0:
489,94,129805,2,0,P|438:99|405:99,1,77.999997619629,0|2,1:0|3:1,0:0:0:0:
356,79,130138,1,4,3:0:0:0:
356,79,130305,2,0,P|361:130|361:163,1,77.999997619629,4|2,3:0|1:0,0:0:0:0:
325,208,130638,6,0,P|247:209|218:299,1,155.999995239258,4|0,3:0|3:0,0:0:0:0:
168,316,131138,2,0,P|163:281|120:250,1,77.999997619629,0|2,1:0|3:1,0:0:0:0:
161,197,131471,1,4,3:0:0:0:
161,197,131638,2,0,L|153:111,1,77.999997619629,0|2,3:0|1:0,0:0:0:0:
173,59,131971,1,4,3:0:0:0:
126,17,132138,6,0,L|36:27,2,77.999997619629,4|0|0,1:0|3:0|1:0,0:0:0:0:
173,59,132638,1,2,3:1:0:0:
231,36,132805,2,0,L|321:26,1,77.999997619629,4|0,3:1|3:0,2:0:0:0:
361,60,133138,1,0,1:0:0:0:
413,25,133305,6,0,P|471:79|444:147,1,155.999995239258,6|2,1:0|1:0,0:0:0:0:
395,176,133805,1,0,1:0:0:0:
395,176,133971,2,0,P|337:230|364:298,1,155.999995239258,6|8,1:0|1:3,0:0:0:0:
400,348,134471,1,4,1:3:0:0:
400,348,134638,1,0,1:3:0:0:
456,322,134805,6,0,P|460:266|470:235,1,77.999997619629,4|0,1:0|1:0,0:0:0:0:
491,188,135138,1,2,1:3:0:0:
448,143,135305,2,0,P|392:139|361:129,1,77.999997619629,0|4,1:0|3:0,0:0:0:0:
323,173,135638,2,0,P|285:163|246:162,2,77.999997619629,2|0|0,1:3|1:0|3:0,0:0:0:0:
371,132,136138,6,0,P|375:76|385:45,1,77.999997619629,4|0,3:0|1:0,0:0:0:0:
333,15,136471,1,2,1:3:0:0:
270,23,136638,2,0,P|266:79|256:110,1,77.999997619629,0|4,1:0|3:0,0:0:0:0:
246,161,136971,2,0,P|207:160|169:150,2,77.999997619629,2|0|0,1:3|1:0|3:0,0:0:0:0:
285,209,137471,6,0,P|275:246|274:285,1,77.999997619629,4|0,3:0|1:0,0:0:0:0:
225,324,137805,1,2,1:3:0:0:
179,282,137971,2,0,P|141:272|102:271,1,77.999997619629,0|4,1:0|3:0,0:0:0:0:
75,214,138305,2,0,P|36:213|-1:203,2,77.999997619629,2|0|0,1:3|1:0|3:0,0:0:0:0:
118,168,138805,6,0,P|128:130|129:91,1,77.999997619629,2|0,3:1|1:0,0:0:0:0:
181,57,139138,1,2,1:0:0:0:
181,57,139305,1,0,1:0:0:0:
224,101,139471,2,0,P|214:139|213:178,1,77.999997619629,2|0,3:1|1:0,0:0:0:0:
258,227,139804,1,2,1:0:0:0:
258,227,139971,1,0,1:0:0:0:
296,177,140138,6,0,P|334:187|373:188,1,77.999997619629,4|0,1:0|1:0,0:0:0:0:
407,239,140471,1,2,1:3:0:0:
373,291,140638,2,0,P|335:281|296:280,1,77.999997619629,0|4,1:0|3:0,0:0:0:0:
243,312,140971,2,0,P|204:310|166:300,2,77.999997619629,2|0|0,1:3|1:0|3:0,0:0:0:0:
296,279,141471,6,0,P|305:241|307:202,1,77.999997619629,4|0,3:0|1:0,0:0:0:0:
358,166,141805,1,2,1:3:0:0:
415,188,141971,2,0,P|405:225|403:264,1,77.999997619629,0|4,1:0|3:0,0:0:0:0:
452,304,142305,2,0,P|450:342|440:380,2,77.999997619629,2|0|0,1:3|1:0|3:0,0:0:0:0:
403,264,142805,6,0,P|365:254|326:252,1,77.999997619629,4|0,3:0|1:0,0:0:0:0:
303,195,143138,1,2,1:3:0:0:
358,166,143305,2,0,P|395:175|434:177,1,77.999997619629,0|4,1:0|3:0,0:0:0:0:
495,162,143638,2,0,P|485:199|483:238,2,77.999997619629,2|0|0,1:3|1:0|3:0,0:0:0:0:
459,110,144138,6,0,P|468:72|470:33,1,77.999997619629,2|0,1:0|3:0,0:0:0:0:
415,2,144471,1,2,1:0:0:0:
415,2,144638,1,0,3:0:0:0:
358,29,144805,2,0,P|348:66|346:105,1,77.999997619629,2|0,3:1|1:0,0:0:0:0:
358,166,145138,1,2,1:3:0:0:
256,237,145471,6,0,P|265:199|267:160,1,77.999997619629,4|0,3:1|3:0,0:0:0:0:
222,116,145805,1,2,1:3:0:0:
159,116,145971,2,0,P|149:153|147:192,1,77.999997619629,0|4,1:0|3:0,0:0:0:0:
96,228,146305,2,0,P|94:266|84:304,2,77.999997619629,2|0|2,1:3|1:0|1:3,0:0:0:0:
147,192,146805,6,0,P|184:201|223:203,1,77.999997619629,4|0,3:0|3:0,0:0:0:0:
256,256,147138,1,2,1:3:0:0:
288,308,147305,2,0,P|327:310|365:320,1,77.999997619629,0|4,1:0|3:0,0:0:0:0:
413,281,147638,2,0,P|450:290|489:292,2,77.999997619629,2|0|2,1:3|1:0|1:3,0:0:0:0:
387,224,148138,6,0,P|389:185|399:147,1,77.999997619629,4|0,3:0|3:0,0:0:0:0:
365,94,148471,1,2,1:3:0:0:
304,109,148638,2,0,P|302:148|292:186,1,77.999997619629,0|4,1:0|3:0,0:0:0:0:
327,237,148971,2,0,P|317:274|315:313,2,77.999997619629,2|0|2,1:3|1:0|1:3,0:0:0:0:
292,185,149471,6,0,P|253:183|215:173,1,77.999997619629,2|0,3:1|1:0,0:0:0:0:
163,208,149805,1,2,1:0:0:0:
163,208,149971,1,0,1:0:0:0:
180,268,150138,2,0,P|219:270|257:280,1,77.999997619629,2|0,3:1|1:0,0:0:0:0:
315,313,150471,1,2,1:0:0:0:
315,313,150638,1,0,3:0:0:0:
374,294,150805,6,0,P|376:255|386:217,1,77.999997619629,4|0,3:1|1:0,0:0:0:0:
347,168,151138,1,2,1:3:0:0:
371,110,151305,2,0,P|332:108|294:98,1,77.999997619629,0|4,1:0|3:0,0:0:0:0:
249,141,151638,2,0,P|211:131|172:129,2,77.999997619629,2|0|0,1:3|1:0|3:0,0:0:0:0:
294,98,152138,6,0,P|296:59|306:21,1,77.999997619629,4|0,3:3|1:0,0:0:0:0:
246,2,152471,1,2,1:3:0:0:
193,36,152638,2,0,P|191:75|181:113,1,77.999997619629,0|4,1:0|3:0,0:0:0:0:
215,164,152971,2,0,P|205:201|203:240,2,77.999997619629,2|0|2,1:3|1:0|3:0,0:0:0:0:
181,112,153471,6,0,P|102:107|25:87,1,155.999995239258,6|0,1:2|1:0,0:0:0:0:
41,149,153971,2,0,P|36:227|16:304,1,155.999995239258,0|0,1:0|1:0,0:0:0:0:
78,289,154471,2,0,P|117:291|155:301,1,77.999997619629,0|0,1:0|1:0,2:0:0:0:
202,341,154805,6,0,P|204:301|214:263,1,77.999997619629,6|0,1:2|1:0,0:0:0:0:
265,228,155138,1,6,1:2:0:0:
265,228,155305,1,0,1:0:0:0:
255,166,155471,2,0,P|215:163|177:153,1,77.999997619629,6|0,1:2|1:0,0:0:0:0:
139,111,155805,1,6,1:2:0:0:
139,111,155971,1,0,1:0:0:0:
79,130,156138,5,4,1:0:0:0:
256,192,156221,12,0,158805,2:0:0:0:
79,68,169471,5,4,2:1:0:0:
43,166,169805,2,0,P|88:165|131:159,1,65,2|0,2:0|0:0,2:0:0:0:
141,123,170138,1,2,2:0:0:0:
182,154,170305,2,0,P|182:186|186:218,1,65,2|0,2:0|0:0,2:0:0:0:
160,264,170638,6,0,P|256:254|354:251,1,195,2|2,2:0|2:0,0:0:0:0:
395,155,171471,1,2,2:0:0:0:
358,117,171638,2,0,P|325:119|293:120,1,65,2|0,2:0|0:0,2:0:0:0:
255,156,171971,6,0,P|265:252|268:350,1,195,2|2,2:0|2:0,0:0:0:0:
369,376,172805,1,2,2:0:0:0:
410,345,172971,2,0,P|408:312|407:280,1,65,2|0,2:0|2:0,2:0:0:0:
384,232,173305,6,0,P|338:257|249:231,1,130,2|2,2:0|2:0,2:0:0:0:
236,199,173805,1,0,2:0:0:0:
254,150,173971,2,0,P|300:125|389:151,1,130,2|2,2:0|2:0,2:0:0:0:
413,105,174471,2,0,P|409:64|407:26,1,65,2|2,2:0|2:0,0:0:0:0:
362,12,174805,5,0,2:0:0:0:
263,44,175138,2,0,P|196:50|134:53,1,130,2|2,2:0|2:0,2:0:0:0:
109,100,175638,1,2,2:0:0:0:
7,78,175971,2,0,P|13:142|16:207,1,130,2|2,2:0|2:0,2:0:0:0:
57,239,176471,1,2,2:0:0:0:
28,339,176805,1,2,2:0:0:0:
28,339,176971,1,2,2:0:0:0:
256,192,177305,12,4,178805,3:1:0:0:
319,119,180138,6,0,P|273:125|228:128,1,77.999997619629,6|0,1:3|2:0,2:0:0:0:
181,109,180471,2,0,P|187:154|190:199,1,77.999997619629,2|4,1:2|2:3,0:0:0:0:
240,222,180804,1,4,3:0:0:0:
240,222,180971,2,0,P|243:260|248:299,1,77.999997619629,4|0,2:3|1:3,0:0:0:0:
210,349,181304,1,4,2:3:0:0:
164,306,181471,6,0,P|125:309|86:314,1,77.999997619629,6|0,1:3|2:0,0:0:0:0:
40,271,181804,2,0,P|36:232|31:193,1,77.999997619629,2|4,1:2|2:3,0:0:0:0:
71,145,182138,1,4,3:0:0:0:
71,145,182304,1,2,2:0:0:0:
189,186,182638,1,4,3:0:0:0:
235,144,182804,6,0,P|231:105|226:66,1,77.999997619629,6|0,1:3|2:0,0:0:0:0:
189,15,183138,2,0,P|228:11|267:6,1,77.999997619629,2|4,1:2|2:3,0:0:0:0:
322,34,183471,1,4,3:0:0:0:
322,34,183638,2,0,P|355:60|354:109,1,77.999997619629,4|0,2:3|1:0,0:0:0:0:
410,130,183971,6,0,L|394:287,1,155.999995239258,4|0,2:3|2:0,0:0:0:0:
427,338,184471,1,2,1:2:0:0:
427,338,184638,2,0,L|270:322,1,155.999995239258,4|4,2:3|1:3,0:0:0:0:
216,351,185138,1,0,1:0:0:0:
216,351,185304,1,4,1:3:0:0:
168,310,185471,5,6,1:3:0:0:
43,317,185804,2,0,P|47:278|51:239,1,77.999997619629,2|4,1:2|2:3,2:0:0:0:
27,181,186138,1,4,3:0:0:0:
27,181,186304,2,0,P|65:185|104:189,1,77.999997619629,0|0,1:0|1:0,0:0:0:0:
133,133,186638,6,0,P|168:180|265:168,1,155.999995239258,4|0,2:3|2:0,0:0:0:0:
295,124,187138,1,2,1:2:0:0:
417,145,187471,1,4,3:0:0:0:
417,145,187638,2,0,P|368:160|355:193,1,77.999997619629,4|0,3:0|1:0,0:0:0:0:
310,223,187971,1,4,3:0:0:0:
350,270,188138,6,0,P|353:308|358:347,2,77.999997619629,6|0|2,1:3|2:0|1:2,0:0:0:0:
310,223,188638,1,4,3:0:0:0:
259,259,188804,2,0,P|220:262|181:267,1,77.999997619629,4|4,3:0|3:0,0:0:0:0:
136,310,189138,1,0,1:0:0:0:
79,283,189304,6,0,P|26:255|32:151,1,155.999995239258,4|0,3:0|2:0,0:0:0:0:
63,122,189804,1,2,1:2:0:0:
63,122,189971,2,0,P|100:108|185:182,1,155.999995239258,4|4,3:0|3:0,0:0:0:0:
239,199,190471,2,0,P|251:142|271:126,1,77.999997619629,2|2,1:2|1:2,0:0:0:0:
226,79,190804,5,6,1:2:0:0:
336,21,191138,2,0,P|383:17|426:10,1,77.999997619629,2|4,1:2|2:3,2:0:0:0:
461,52,191471,1,4,3:0:0:0:
461,52,191638,2,0,P|465:99|472:142,1,77.999997619629,4|0,2:3|1:0,2:0:0:0:
441,185,191971,6,0,P|391:244|296:227,1,155.999995239258,4|0,2:3|2:0,2:0:0:0:
257,225,192471,2,0,P|280:269|271:309,1,77.999997619629,2|4,1:2|2:3,2:0:0:0:
242,347,192804,1,4,3:0:0:0:
242,347,192971,1,2,2:0:0:0:
117,338,193304,6,0,P|88:273|147:200,1,155.999995239258,2|0,2:0|2:0,0:0:0:0:
159,151,193804,2,0,P|97:185|81:179,1,77.999997619629,2|4,1:2|2:3,0:0:0:0:
42,160,194138,1,4,3:0:0:0:
42,160,194304,2,0,P|13:115|25:81,1,77.999997619629,4|0,2:3|1:0,2:0:0:0:
51,41,194637,6,0,P|134:32|169:106,1,155.999995239258,4|0,2:3|2:0,0:0:0:0:
226,111,195137,1,0,1:0:0:0:
226,111,195304,2,0,P|271:169|344:155,1,155.999995239258,4|4,2:3|1:3,0:0:0:0:
406,157,195804,2,0,P|362:201|359:241,1,77.999997619629,2|4,1:2|1:3,0:0:0:0:
305,247,196137,5,4,1:0:0:0:
261,364,196471,2,0,P|196:359|163:360,1,77.999997619629,2|4,1:2|2:3,2:0:0:0:
139,314,196804,1,4,3:0:0:0:
139,314,196971,2,0,P|144:249|143:216,1,77.999997619629,4|0,2:3|1:0,0:0:0:0:
179,184,197304,6,0,P|285:192|339:190,1,155.999995239258,4|0,3:0|2:0,0:0:0:0:
385,154,197804,1,2,1:2:0:0:
503,193,198137,1,4,3:0:0:0:
503,193,198304,2,0,P|498:231|498:270,1,77.999997619629,4|0,3:0|1:0,0:0:0:0:
457,318,198637,1,4,3:0:0:0:
395,304,198804,6,0,P|394:265|399:226,2,77.999997619629,4|0|0,3:2|3:2|1:2,0:0:0:0:
346,343,199304,1,0,3:2:0:0:
300,299,199471,2,0,P|261:293|222:294,1,77.999997619629,4|0,3:2|3:2,0:0:0:0:
176,251,199804,1,0,1:2:0:0:
205,195,199971,6,0,P|215:117|214:39,1,155.999995239258,0|0,3:2|0:0,0:0:0:0:
334,4,200637,2,0,P|323:81|324:159,1,155.999995239258,2|2,0:0|1:2,0:0:0:0:
265,180,201137,2,0,P|265:218|260:257,1,77.999997619629,0|0,1:2|1:2,0:0:0:0:
275,318,201471,5,6,1:2:0:0:
399,320,201804,2,0,P|454:315|485:314,1,78,2|2,1:2|1:2,0:0:0:0:
496,255,202137,2,0,P|491:200|490:169,1,78,4|2,3:0|1:2,0:0:0:0:
449,129,202471,1,0,1:0:0:0:
481,75,202637,1,0,1:0:0:0:
439,28,202804,5,2,1:2:0:0:
322,71,203137,2,0,P|267:76|236:77,1,78,2|2,1:2|1:2,0:0:0:0:
210,129,203471,2,0,P|215:184|216:215,1,78,4|0,3:0|0:0,0:0:0:0:
257,255,203804,1,2,3:2:0:0:
225,309,203971,1,0,1:0:0:0:
267,356,204137,5,2,1:2:0:0:
143,341,204471,2,0,P|88:336|57:335,1,78,2|2,1:2|1:2,0:0:0:0:
31,283,204804,2,0,P|36:228|37:197,1,78,4|2,3:2|1:2,0:0:0:0:
78,157,205137,1,0,1:0:0:0:
46,103,205304,1,0,1:0:0:0:
88,56,205471,6,0,P|149:66|177:67,1,78,2|0,1:2|1:0,0:0:0:0:
201,118,205804,1,2,1:2:0:0:
161,166,205971,2,0,P|154:243|139:320,1,156,2|0,1:2|0:0,0:0:0:0:
173,372,206471,1,0,1:0:0:0:
221,332,206637,1,2,1:2:0:0:
275,361,206804,5,4,1:0:0:0:
370,280,207137,2,0,P|373:241|380:202,1,78,2|2,1:2|1:2,0:0:0:0:
373,140,207471,2,0,P|334:136|295:129,1,78,4|2,3:0|1:2,0:0:0:0:
245,166,207804,1,0,1:0:0:0:
284,213,207971,1,0,1:0:0:0:
256,269,208137,5,2,1:2:0:0:
164,184,208471,2,0,P|160:145|153:106,1,78,2|2,1:2|1:2,0:0:0:0:
161,44,208804,2,0,P|199:40|238:33,1,78,4|2,3:0|1:2,0:0:0:0:
300,28,209137,1,0,1:0:0:0:
264,78,209304,1,2,1:2:0:0:
295,129,209471,5,2,1:2:0:0:
394,205,209804,2,0,P|432:203|471:197,1,78,2|2,1:2|1:2,0:0:0:0:
505,250,210137,2,0,P|506:288|512:327,1,78,4|0,3:0|1:0,0:0:0:0:
471,374,210471,1,0,1:0:0:0:
423,333,210637,1,0,1:0:0:0:
368,363,210804,6,0,P|329:364|290:370,1,78,4|0,1:0|1:0,0:0:0:0:
244,328,211137,1,0,1:0:0:0:
275,274,211304,2,0,P|271:196|260:118,1,156,0|0,1:0|0:0,0:0:0:0:
275,58,211804,1,0,1:0:0:0:
214,44,211971,1,2,1:2:0:0:
198,104,212137,5,4,1:0:0:0:
74,117,212471,2,0,P|69:155|63:194,1,78,2|2,1:2|1:2,0:0:0:0:
35,250,212804,2,0,P|73:254|112:260,1,78,4|2,3:0|1:2,0:0:0:0:
155,306,213137,1,0,1:0:0:0:
208,273,213304,1,0,1:0:0:0:
256,311,213471,5,2,1:2:0:0:
346,224,213804,2,0,P|384:228|423:234,1,78,2|2,1:2|1:2,0:0:0:0:
479,263,214137,2,0,P|483:224|489:185,1,78,4|0,3:0|0:0,0:0:0:0:
455,134,214471,1,0,1:0:0:0:
393,147,214637,1,2,1:2:0:0:
361,93,214804,5,4,3:0:0:0:
255,26,215137,2,0,P|201:32|169:31,1,78,2|2,1:2|1:2,0:0:0:0:
133,76,215471,2,0,P|139:130|138:162,1,78,4|2,3:0|1:2,0:0:0:0:
171,207,215804,1,0,1:0:0:0:
220,169,215971,1,0,1:0:0:0:
272,203,216137,6,0,P|272:241|277:280,1,78,2|0,1:2|1:0,0:0:0:0:
234,326,216471,1,2,1:2:0:0:
178,296,216637,2,0,P|100:296|22:307,1,156,2|0,1:2|0:0,0:0:0:0:
45,248,217137,1,0,1:0:0:0:
4,200,217304,1,2,1:2:0:0:
32,144,217471,5,4,1:0:0:0:
128,63,217804,2,0,P|185:59|214:54,1,78,2|2,1:2|1:2,0:0:0:0:
259,86,218137,2,0,P|263:143|268:172,1,78,4|2,3:0|1:2,0:0:0:0:
238,219,218471,1,0,1:0:0:0:
279,265,218637,1,0,1:0:0:0:
256,323,218804,5,6,1:2:0:0:
371,368,219137,2,0,P|419:361|462:362,1,78,0|2,1:0|1:2,0:0:0:0:
484,309,219471,2,0,P|477:261|478:218,1,78,4|0,3:0|0:0,0:0:0:0:
428,191,219804,1,0,1:0:0:0:
461,138,219971,1,2,1:2:0:0:
417,93,220137,5,6,1:2:0:0:
308,31,220471,2,0,P|245:36|214:36,1,78,0|0,1:0|1:0,0:0:0:0:
180,74,220804,2,0,P|185:137|185:168,1,78,4|0,1:2|1:0,0:0:0:0:
231,194,221137,1,0,1:0:0:0:
204,250,221304,1,0,1:0:0:0:
256,192,221471,12,4,222804,1:2:0:0:
