osu file format v14

[General]
AudioFilename: audio.mp3
AudioLeadIn: 0
PreviewTime: 112972
Countdown: 0
SampleSet: Soft
StackLeniency: 0.7
Mode: 0
LetterboxInBreaks: 0
WidescreenStoryboard: 0

[Editor]
Bookmarks: 22806,36139,46805,57472,68138,78805,89472,100138,113472,124138,134805,145471,158805,169471,180138,190804,201471,212137
DistanceSpacing: 1.1
BeatDivisor: 4
GridSize: 4
TimelineZoom: 2.3

[Metadata]
Title:masterpiece (Cut Ver.)
TitleUnicode:masterpiece (Cut Ver.)
Artist:Hommarju feat. Latte
ArtistUnicode:Hommarju feat. Latte
Creator:Enon
Version:Collab Expert
Source:とある魔術の禁書目録
Tags:Beomsan Nasmoeb Chinochan Bloxi Dailycare Morinaga Oriental Weeklycare To aru majutsu no index season 1 op opening remix Toaru Majutsu no Kinsho Mokuroku A Certain Magical Index Remix 川田まみ Kawada Mami Rock japanese anime j-pop jpop pop 井内舞子 Maiko Iuchi kagaku no railgun scientific とある科学の超電磁砲 Kamijou Touma 上条 当麻 Misaka Mikoto 御坂 美琴 Shirai Kuroko 白井 黒子 Himegami Aisa 姫神 秋沙 Tsukuyomi Komoe 月詠 小萌 Last Order 打ち止め sisters Accelerator 一方通行 Librorum
BeatmapID:4404069
BeatmapSetID:2092449

[Difficulty]
HPDrainRate:5
CircleSize:4
OverallDifficulty:8
ApproachRate:9
SliderMultiplier:1.7
SliderTickRate:1

[Events]
//Background and Video events
0,0,"bg.jpg",0,0
//Break Periods
2,36339,46205
2,159005,168871
//Storyboard Layer 0 (Background)
//Storyboard Layer 1 (Fail)
//Storyboard Layer 2 (Pass)
//Storyboard Layer 3 (Foreground)
//Storyboard Layer 4 (Overlay)
//Storyboard Sound Samples

[TimingPoints]
1473,333.333333333333,4,2,1,75,1,0
11806,-142.857142857143,4,2,1,75,0,0
12139,-100,4,2,1,75,0,0
21472,-142.857142857143,4,2,1,75,0,0
22806,-90.9090909090909,4,2,1,75,0,0
35389,-142.857142857143,4,2,1,75,0,0
36139,333.333333333333,4,2,1,55,1,0
46805,-142.857142857143,4,2,1,75,0,0
57472,-100,4,2,1,75,0,0
68138,-90.9090909090909,4,2,1,75,0,0
78472,-142.857142857143,4,2,1,75,0,0
78805,-100,4,2,1,75,0,0
98805,-142.857142857143,4,2,1,75,0,0
100138,-90.9090909090909,4,2,1,75,0,0
112305,-142.857142857143,4,2,1,75,0,0
113472,333.333333333333,4,2,1,90,1,0
133471,-142.857142857143,4,2,1,75,0,0
134805,-100,4,2,1,75,0,0
169471,-142.857142857143,4,2,1,75,0,0
180138,333.333333333333,4,2,1,90,1,0
200137,-111.111111111111,4,2,1,75,0,0
201471,-100,4,2,1,75,0,0
212137,-90.9090909090909,4,2,1,75,0,0

[Colours]
Combo1 : 87,147,81
Combo2 : 6,44,255
Combo3 : 255,77,5
Combo4 : 113,205,255
Combo5 : 242,178,212

[HitObjects]
393,29,11639,5,2,2:0:0:0:
393,29,11806,2,0,B|367:64|386:54|349:100,1,59.4999981842042,2|0,2:0|2:0,2:0:0:0:
439,225,12139,6,0,B|448:184|491:165|491:165|498:113|452:84,1,170,12|0,3:0|1:0,2:0:0:0:
291,142,12639,2,0,P|316:219|345:322,1,170,0|4,2:0|3:0,2:0:0:0:
142,384,13139,1,0,1:0:0:0:
248,284,13306,1,0,2:0:0:0:
411,355,13472,6,0,P|454:353|498:304,1,85,4|0,3:0|3:0,3:0:0:0:
406,210,13806,1,2,1:2:0:0:
493,70,13972,2,0,P|433:55|380:155,1,170,4|4,3:0|3:0,2:0:0:0:
227,201,14472,1,0,1:2:0:0:
151,69,14639,1,2,2:0:0:0:
285,3,14806,6,0,P|312:51|274:115,1,127.5,4|0,3:0|2:0,2:0:0:0:
272,115,15139,1,0,1:0:0:0:
83,21,15306,2,0,L|0:38,1,85,4|0,3:0|2:0,2:0:0:0:
195,145,15639,1,4,3:0:0:0:
62,251,15806,2,0,L|119:188,1,85,0|0,1:0|2:0,2:0:0:0:
266,281,16139,6,0,L|276:389,1,85,4|0,3:0|2:0,2:0:0:0:
161,337,16472,2,0,L|182:250,1,85,0|0,1:0|2:0,2:0:0:0:
337,194,16806,1,4,3:0:0:0:
194,120,16972,5,4,3:0:0:0:
273,273,17139,1,2,1:2:0:0:
422,201,17306,1,2,2:0:0:0:
128,187,17472,6,0,P|51:203|4:122,1,170,12|0,3:0|1:0,2:0:0:0:
139,1,17972,2,0,P|209:40|202:120,1,170,0|4,3:0|3:0,2:0:0:0:
267,262,18472,1,0,1:0:0:0:
134,190,18639,1,0,2:0:0:0:
302,84,18806,6,0,P|337:103|405:111,1,85,4|0,3:0|2:0,3:0:0:0:
214,201,19139,1,0,1:0:0:0:
369,334,19306,2,0,B|398:301|461:310|461:310|498:291|511:243,1,170,4|4,3:0|3:0,2:0:0:0:
463,99,19806,1,0,1:0:0:0:
338,194,19972,1,4,3:0:0:0:
242,12,20139,6,0,B|139:32|192:58|84:83,1,170,6|0,1:2|1:0,2:0:0:0:
55,327,20639,2,0,B|73:334|92:352|92:352|166:312|120:221,1,170,2|2,2:0|2:0,2:0:0:0:
3,52,21139,1,2,1:2:0:0:
47,243,21306,1,0,3:0:0:0:
236,139,21472,6,0,L|300:129,1,59.4999981842042,6|0,1:2|2:0,2:0:0:0:
274,278,21806,2,0,L|338:288,1,59.4999981842042,0|0,1:0|2:0,2:0:0:0:
373,98,22139,5,4,3:0:0:0:
477,257,22306,1,0,2:0:0:0:
512,152,22472,1,0,1:0:0:0:
416,316,22639,1,0,2:0:0:0:
287,124,22806,6,0,P|293:75|331:8,1,93.5000028533936,4|2,3:0|2:0,2:0:0:0:
139,251,23139,2,0,P|133:202|95:135,1,93.5000028533936,0|0,1:0|2:0,2:0:0:0:
234,254,23472,1,4,3:0:0:0:
71,324,23639,1,2,2:0:0:0:
105,76,23806,2,0,P|157:87|219:96,1,93.5000028533936,0|0,1:0|2:0,2:0:0:0:
332,242,24139,2,0,P|280:253|218:262,1,93.5000028533936,4|2,3:0|2:0,2:0:0:0:
47,229,24472,5,0,1:0:0:0:
202,343,24639,1,0,2:0:0:0:
0,289,24806,1,4,3:0:0:0:
189,187,24972,2,0,P|210:180|266:169,2,46.7500014266968,0|0|0,2:0|2:0|1:0,2:0:0:0:
72,329,25306,1,2,3:2:0:0:
4,160,25472,6,0,P|4:105|36:58,1,93.5000028533936,4|2,3:0|2:0,2:0:0:0:
258,15,25806,2,0,P|277:56|275:103,1,93.5000028533936,0|0,1:0|2:0,2:0:0:0:
148,246,26139,2,0,P|105:236|39:227,1,93.5000028533936,4|2,3:0|2:0,2:0:0:0:
244,373,26472,2,0,P|287:363|353:354,1,93.5000028533936,0|0,1:0|2:0,2:0:0:0:
503,214,26806,5,4,3:0:0:0:
413,325,26972,1,2,2:0:0:0:
333,164,27139,1,0,1:0:0:0:
413,325,27306,1,2,2:0:0:0:
487,124,27472,5,4,3:0:0:0:
353,258,27639,1,0,3:0:0:0:
353,258,27722,1,0,3:0:0:0:
353,258,27806,2,0,P|306:251|261:240,1,93.5000028533936,2|2,1:0|1:0,2:0:0:0:
74,81,28139,6,0,P|85:123|97:181,1,93.5000028533936,4|2,3:0|2:0,2:0:0:0:
297,11,28472,2,0,P|285:53|274:111,1,93.5000028533936,0|0,1:0|2:0,2:0:0:0:
131,16,28806,1,4,3:0:0:0:
218,165,28972,1,2,2:0:0:0:
367,70,29139,2,0,P|401:53|485:65,1,93.5000028533936,0|0,1:0|2:0,2:0:0:0:
512,305,29472,2,0,P|465:306|423:287,1,93.5000028533936,4|2,3:0|2:0,2:0:0:0:
223,171,29806,5,0,1:0:0:0:
435,131,29972,1,0,2:0:0:0:
261,92,30139,1,4,3:0:0:0:
350,217,30306,2,0,P|375:208|417:200,2,46.7500014266968,0|0|0,3:0|3:0|1:0,2:0:0:0:
196,279,30639,1,2,2:0:0:0:
395,370,30806,6,0,P|418:326|405:259,1,93.5000028533936,4|4,3:0|3:0,2:0:0:0:
241,140,31139,2,0,P|261:200|275:274,1,93.5000028533936,0|0,1:0|2:0,2:0:0:0:
83,372,31472,2,0,P|103:312|117:238,1,93.5000028533936,4|4,3:0|3:0,2:0:0:0:
44,37,31806,2,0,P|21:81|34:148,1,93.5000028533936,0|0,1:0|2:0,2:0:0:0:
190,248,32139,5,4,3:0:0:0:
117,101,32306,1,4,3:0:0:0:
117,101,32389,1,0,3:0:0:0:
117,101,32472,1,0,1:0:0:0:
0,223,32639,2,0,P|49:205|103:191,1,93.5000028533936,6|0,1:2|3:0,2:0:0:0:
284,113,32972,1,0,3:2:0:0:
182,34,33139,5,6,1:2:0:0:
271,197,33306,1,2,2:0:0:0:
423,98,33472,1,4,3:1:0:0:
256,192,33556,12,0,34472,2:0:0:0:
423,98,34806,5,0,3:0:0:0:
311,176,34972,1,0,3:0:0:0:
311,176,35056,1,0,3:0:0:0:
311,176,35139,1,0,1:0:0:0:
221,64,35306,1,0,3:0:0:0:
221,64,35389,2,0,L|209:114,1,29.7499990921021,0|4,1:0|3:0,2:0:0:0:
148,142,35556,1,0,1:0:0:0:
148,142,35639,1,0,3:0:0:0:
25,34,35806,5,4,1:0:0:0:
12,199,35972,5,0,1:0:0:0:
12,199,36056,1,0,1:0:0:0:
12,199,36139,1,4,2:1:0:0:
12,199,46805,6,0,B|26:231|26:231|30:266|44:316,1,118.999996368408,2|2,2:0|2:0,2:0:0:0:
154,58,47472,2,0,B|140:90|140:90|135:125|122:175,1,118.999996368408,2|0,2:0|2:0,2:0:0:0:
177,232,47972,2,0,P|200:195|325:198,1,178.499994552612,2|2,2:0|2:0,2:0:0:0:
459,305,48805,1,2,2:0:0:0:
412,372,48972,2,0,P|418:332|433:293,1,59.4999981842042,2|0,2:0|2:0,2:0:0:0:
504,241,49305,6,0,B|495:220|498:196|498:196|488:152|451:135,1,118.999996368408,2|2,2:0|2:0,2:0:0:0:
401,80,49805,2,0,B|418:52|418:52|444:22,1,59.4999981842042,2|0,2:0|2:0,2:0:0:0:
303,167,50138,1,2,2:0:0:0:
379,158,50305,2,0,B|350:173|350:173|313:182,1,59.4999981842042,2|0,2:0|2:0,2:0:0:0:
249,237,50638,6,0,P|224:201|151:197,2,118.999996368408,2|2|2,2:0|2:0|2:0,2:0:0:0:
74,253,51638,1,2,2:0:0:0:
118,316,51805,2,0,P|106:271|86:240,1,59.4999981842042,2|2,2:0|2:0,2:0:0:0:
20,196,52138,6,0,B|21:179|18:159|18:159|50:73,1,118.999996368408,2|2,2:0|2:0,2:0:0:0:
197,318,52805,2,0,B|196:301|199:281|199:281|167:195,1,118.999996368408,2|0,2:0|2:0,2:0:0:0:
126,144,53305,2,0,P|172:155|265:64,1,178.499994552612,2|2,2:0|2:0,2:0:0:0:
423,143,54138,1,2,2:0:0:0:
507,140,54305,2,0,P|474:125|440:120,1,59.4999981842042,2|0,2:0|2:0,2:0:0:0:
351,173,54638,1,2,2:0:0:0:
273,76,54805,5,2,2:0:0:0:
256,192,54888,12,0,55805,2:0:0:0:
256,192,56138,5,4,3:1:0:0:
256,192,56222,12,2,57138,2:0:0:0:
239,308,57472,6,0,B|176:323|176:323|148:369|90:388,1,170,6|0,1:3|1:0,2:0:0:0:
16,126,57972,2,0,B|57:95|57:95|127:132|99:218,1,170,4|4,2:3|2:3,2:0:0:0:
245,303,58472,1,0,1:3:0:0:
23,219,58638,1,4,2:3:0:0:
170,80,58805,6,0,B|194:83|211:101|211:101|257:74|238:1,1,127.5,6|0,1:3|2:0,2:0:0:0:
235,23,59138,1,0,1:0:0:0:
198,200,59305,2,0,P|242:183|337:165,1,127.5,4|0,2:3|2:0,2:0:0:0:
334,163,59638,1,4,2:3:0:0:
467,331,59805,1,0,1:3:0:0:
322,253,59972,1,4,3:0:0:0:
462,105,60138,6,0,B|488:142|488:142|501:196,1,85,6|0,1:3|2:0,2:0:0:0:
407,276,60472,1,0,1:0:0:0:
312,77,60638,2,0,B|321:38|321:38|347:1,1,85,4|0,2:3|2:0,2:0:0:0:
416,192,60972,1,4,2:3:0:0:
253,290,61138,1,0,1:0:0:0:
416,192,61305,1,4,2:3:0:0:
231,103,61472,6,0,L|134:85,1,85,6|0,1:3|2:0,2:0:0:0:
198,359,61805,1,0,1:0:0:0:
29,344,61972,2,0,L|126:326,1,85,4|0,2:3|2:0,2:0:0:0:
317,182,62305,2,0,L|240:167,1,42.5,4|0,2:3|2:0,2:0:0:0:
79,135,62472,1,0,1:0:0:0:
185,224,62638,1,4,3:0:0:0:
336,73,62805,6,0,B|396:69|443:34|443:34|513:50,1,170,6|0,1:3|1:0,2:0:0:0:
239,101,63305,2,0,B|213:91|183:96|183:96|150:40|72:21,1,170,4|4,2:3|2:3,2:0:0:0:
287,179,63805,1,0,1:0:0:0:
107,264,63972,1,4,2:3:0:0:
297,375,64138,6,0,P|328:330|418:344,1,127.5,6|0,1:3|2:0,2:0:0:0:
407,335,64472,1,0,1:0:0:0:
229,237,64638,2,0,P|167:237|129:188,1,127.5,4|0,3:0|2:0,2:0:0:0:
131,175,64972,1,4,3:0:0:0:
32,285,65138,1,0,1:0:0:0:
216,158,65305,1,4,3:0:0:0:
28,35,65472,6,0,B|10:58|10:58|13:86|-15:146,1,85,6|0,1:3|2:0,2:0:0:0:
119,266,65805,1,0,1:0:0:0:
294,186,65972,2,0,B|312:209|312:209|309:237|337:297,1,85,4|0,3:0|2:0,2:0:0:0:
141,359,66305,1,4,3:0:0:0:
214,165,66472,1,0,1:0:0:0:
141,359,66638,1,4,3:0:0:0:
352,332,66805,6,0,L|444:351,1,85,6|0,1:3|2:0,2:0:0:0:
366,143,67138,1,0,1:0:0:0:
510,78,67305,2,0,P|481:110|440:160,1,85,4|0,3:0|2:0,2:0:0:0:
253,302,67638,1,4,3:0:0:0:
253,302,67722,1,0,3:0:0:0:
253,302,67805,1,0,1:0:0:0:
417,218,67972,1,0,1:0:0:0:
206,157,68138,6,0,P|152:145|83:114,1,93.5000028533936,6|0,1:3|2:0,2:0:0:0:
298,192,68472,1,0,1:0:0:0:
109,325,68638,2,0,B|132:286|132:286|191:240,1,93.5000028533936,4|4,2:3|3:0,2:0:0:0:
208,64,68972,1,4,2:3:0:0:
76,210,69138,1,0,1:0:0:0:
15,35,69305,1,4,2:3:0:0:
203,167,69472,6,0,P|251:151|330:140,1,93.5000028533936,6|0,1:3|2:0,2:0:0:0:
503,107,69805,1,0,1:0:0:0:
327,13,69972,1,4,2:3:0:0:
327,13,70055,1,0,3:0:0:0:
327,13,70138,1,4,3:0:0:0:
386,230,70305,1,4,2:3:0:0:
453,33,70472,1,2,1:2:0:0:
287,134,70638,1,2,2:0:0:0:
469,217,70805,6,0,B|489:261|489:261|497:339,1,93.5000028533936,6|0,1:3|2:0,2:0:0:0:
280,225,71138,1,0,1:0:0:0:
306,384,71305,2,0,B|310:339|310:339|330:295,1,93.5000028533936,4|4,2:3|3:0,2:0:0:0:
363,113,71638,1,4,2:3:0:0:
476,222,71805,1,0,1:0:0:0:
277,131,71972,1,4,2:3:0:0:
466,23,72138,6,0,L|438:143,1,93.5000028533936,6|0,1:3|2:0,2:0:0:0:
240,210,72472,1,0,1:0:0:0:
136,80,72638,2,0,L|164:200,1,93.5000028533936,4|0,2:3|3:0,2:0:0:0:
16,365,72972,1,0,1:0:0:0:
16,365,73055,1,2,1:2:0:0:
16,365,73138,1,2,1:0:0:0:
166,255,73305,1,2,1:0:0:0:
350,317,73472,6,0,B|399:319|399:319|454:290,1,93.5000028533936,4|0,1:0|2:0,2:0:0:0:
316,188,73805,1,0,1:0:0:0:
264,384,73972,2,0,P|252:337|227:275,1,93.5000028533936,4|4,2:3|3:0,2:0:0:0:
124,85,74305,1,4,2:3:0:0:
237,215,74472,1,0,1:0:0:0:
92,303,74638,1,4,2:3:0:0:
206,130,74805,6,0,P|218:83|243:21,1,93.5000028533936,4|0,1:0|2:0,2:0:0:0:
34,224,75138,2,0,P|22:177|-3:115,1,93.5000028533936,0|4,1:0|2:3,2:0:0:0:
229,223,75472,1,4,3:0:0:0:
29,358,75638,1,0,3:0:0:0:
120,144,75805,1,2,1:2:0:0:
248,301,75972,1,2,1:2:0:0:
28,229,76138,5,4,1:2:0:0:
256,192,76222,12,4,78138,3:0:0:0:
29,227,78472,6,0,B|66:242|43:246|95:271,1,59.4999981842042,2|2,1:2|1:2,2:0:0:0:
258,383,78805,6,0,P|255:330|156:283,1,170,4|0,3:0|1:0,2:0:0:0:
18,143,79305,2,0,B|49:130|67:101|67:101|118:73|174:94,1,170,0|4,3:0|3:0,2:0:0:0:
301,256,79805,1,0,1:0:0:0:
130,172,79972,1,0,2:0:0:0:
289,18,80138,6,0,P|306:59|318:110,1,85,4|0,3:0|2:0,2:0:0:0:
218,240,80472,1,0,1:0:0:0:
370,371,80638,2,0,P|428:336|422:237,1,170,4|4,3:0|3:0,2:0:0:0:
308,107,81138,1,0,1:0:0:0:
460,47,81305,1,0,2:0:0:0:
502,226,81472,6,0,P|454:213|314:190,1,170,4|0,3:0|1:0,2:0:0:0:
205,27,81972,2,0,P|169:44|96:37,1,85,4|0,3:0|2:0,2:0:0:0:
205,187,82305,1,4,3:0:0:0:
46,162,82472,2,0,P|74:190|145:208,1,85,0|0,1:0|2:0,2:0:0:0:
326,278,82805,6,0,P|320:320|293:352,1,85,4|0,3:0|2:0,2:0:0:0:
202,384,83138,2,0,P|174:352|168:310,1,85,0|0,1:0|2:0,2:0:0:0:
313,192,83472,1,4,3:0:0:0:
397,320,83638,5,2,3:0:0:0:
250,245,83805,1,0,1:0:0:0:
315,93,83972,1,2,3:0:0:0:
308,339,84138,6,0,B|272:348|237:328|237:328|184:327|148:380,1,170,12|0,3:0|1:0,2:0:0:0:
0,147,84638,2,0,B|67:203|67:203|174:179,1,170,0|4,3:0|3:0,2:0:0:0:
303,106,85138,1,0,1:0:0:0:
410,228,85305,1,0,2:0:0:0:
234,312,85472,6,0,P|215:266|241:203,1,85,4|0,3:0|2:0,2:0:0:0:
310,111,85805,1,0,1:0:0:0:
162,27,85972,2,0,P|114:61|-23:51,1,170,4|4,3:0|3:0,2:0:0:0:
240,161,86472,1,0,1:0:0:0:
113,95,86638,1,4,3:0:0:0:
267,0,86805,6,0,P|323:26|290:137,1,170,4|0,3:0|1:0,2:0:0:0:
156,244,87305,2,0,P|119:227|43:215,1,85,4|0,3:0|2:0,2:0:0:0:
326,305,87638,1,4,3:0:0:0:
215,384,87805,1,0,1:0:0:0:
298,217,87972,1,4,3:0:0:0:
458,312,88138,6,0,P|511:277|484:152,2,170,4|0|4,3:0|1:0|3:0,2:0:0:0:
287,216,88972,2,0,B|302:257|302:257|309:298,1,85,0|0,3:0|1:0,2:0:0:0:
366,122,89305,2,0,L|346:168,1,42.5,0|0,3:0|2:0,2:0:0:0:
228,297,89472,6,0,B|213:338|213:338|206:379,1,85,4|0,1:0|3:0,2:0:0:0:
206,378,89722,1,0,1:0:0:0:
206,378,89805,1,0,1:0:0:0:
178,225,89972,2,0,B|128:253|128:253|2:292,1,170,0|0,1:0|3:0,2:0:0:0:
64,187,90472,1,0,1:0:0:0:
38,180,90555,1,0,1:0:0:0:
12,173,90638,1,0,3:0:0:0:
161,105,90805,5,4,3:0:0:0:
61,26,90972,1,0,3:0:0:0:
72,50,91055,1,0,3:0:0:0:
83,74,91138,1,0,1:0:0:0:
237,160,91305,5,0,3:0:0:0:
248,155,91388,2,0,B|267:115|267:115|264:53,1,85,0|0,3:0|2:0,2:0:0:0:
272,62,91638,1,0,3:0:0:0:
429,109,91805,1,0,1:0:0:0:
343,141,91972,1,0,3:0:0:0:
411,16,92138,6,0,B|452:17|452:17|503:40,1,85,4|0,3:0|2:0,2:0:0:0:
512,175,92472,1,0,1:0:0:0:
412,299,92638,2,0,B|384:262|384:262|358:169|358:169|333:140,1,170,0|0,3:0|1:0,2:0:0:0:
278,314,93138,1,0,1:0:0:0:
289,290,93221,1,0,1:0:0:0:
300,266,93304,1,0,3:0:0:0:
201,350,93472,6,0,B|159:359|159:359|91:392,1,85,4|0,3:0|2:0,2:0:0:0:
82,169,93805,1,0,1:0:0:0:
0,242,93972,1,0,3:0:0:0:
8,256,94055,2,0,B|45:274|45:274|87:283,1,85,0|0,3:0|2:0,2:0:0:0:
100,293,94305,1,0,3:0:0:0:
243,197,94472,2,0,B|236:158|236:158|216:103,1,85,0|0,1:0|1:0,2:0:0:0:
75,68,94805,5,4,3:0:0:0:
163,203,94972,1,0,1:0:0:0:
312,123,95138,1,0,1:0:0:0:
412,215,95305,2,0,B|440:180|440:180|512:123|512:123|526:81,1,170,0|0,3:0|3:0,2:0:0:0:
412,17,95805,1,0,1:0:0:0:
423,41,95888,1,0,1:0:0:0:
434,65,95971,1,0,3:0:0:0:
303,132,96138,5,4,3:0:0:0:
282,25,96305,1,0,3:0:0:0:
306,36,96388,1,0,3:0:0:0:
330,47,96472,1,0,1:0:0:0:
215,144,96638,5,0,3:0:0:0:
205,151,96722,2,0,B|160:153|160:153|87:123,1,85,0|0,3:0|2:0,2:0:0:0:
116,123,96972,1,0,3:0:0:0:
23,272,97138,1,0,1:0:0:0:
114,228,97305,1,0,3:0:0:0:
30,113,97472,6,0,B|16:71|16:71|11:19,1,85,4|0,3:0|2:0,2:0:0:0:
197,147,97805,1,0,1:0:0:0:
281,0,97972,2,0,B|276:41|276:41|263:82,1,85,0|4,3:0|3:0,2:0:0:0:
403,264,98305,1,0,3:0:0:0:
283,179,98472,1,0,1:0:0:0:
283,179,98555,1,0,1:0:0:0:
283,179,98638,1,0,3:0:0:0:
469,95,98805,6,0,L|479:36,1,59.4999981842042,4|0,3:0|2:0,2:0:0:0:
371,183,99138,2,0,L|361:124,1,59.4999981842042,0|0,1:0|3:0,2:0:0:0:
355,120,99388,1,0,1:0:0:0:
349,114,99472,1,4,3:0:0:0:
276,193,99638,1,0,3:0:0:0:
203,39,99805,2,0,L|193:98,1,59.4999981842042,4|0,1:0|3:0,2:0:0:0:
122,295,100138,6,0,P|77:312|20:313,1,93.5000028533936,4|2,3:1|2:0,2:0:0:0:
11,106,100472,2,0,P|57:108|100:125,1,93.5000028533936,0|0,1:0|2:0,2:0:0:0:
226,263,100805,1,4,3:0:0:0:
356,198,100972,1,2,2:0:0:0:
211,43,101138,2,0,P|187:107|179:153,1,93.5000028533936,0|0,1:0|2:0,2:0:0:0:
312,296,101472,2,0,P|336:232|344:186,1,93.5000028533936,4|2,3:0|2:0,2:0:0:0:
456,115,101805,5,0,1:0:0:0:
318,37,101972,1,0,2:0:0:0:
427,193,102138,1,4,3:0:0:0:
256,218,102305,2,0,P|229:222|200:236,2,46.7500014266968,0|0|0,3:0|3:0|1:0,2:0:0:0:
374,100,102638,1,2,3:2:0:0:
500,235,102805,6,0,B|493:282|493:282|469:332,1,93.5000028533936,4|2,3:0|2:0,2:0:0:0:
325,379,103138,2,0,B|305:337|305:337|298:290,1,93.5000028533936,0|0,1:0|2:0,2:0:0:0:
440,147,103472,2,0,B|451:111|451:111|453:100|453:100|470:51,1,93.5000028533936,4|2,3:0|2:0,2:0:0:0:
218,12,103805,2,0,B|229:47|229:47|231:58|231:58|248:108,1,93.5000028533936,0|0,1:0|2:0,2:0:0:0:
214,295,104138,5,4,3:0:0:0:
336,167,104305,1,2,2:0:0:0:
148,102,104472,1,0,1:0:0:0:
336,167,104638,1,2,2:0:0:0:
129,300,104805,5,4,3:0:0:0:
252,185,104972,1,2,2:0:0:0:
211,384,105138,1,2,1:0:0:0:
64,240,105305,1,2,1:0:0:0:
287,256,105472,6,0,B|332:272|332:272|394:313,1,93.5000028533936,4|2,3:0|2:0,2:0:0:0:
512,170,105805,2,0,B|467:154|467:154|428:128,1,93.5000028533936,0|0,1:0|2:0,2:0:0:0:
261,44,106138,1,4,3:0:0:0:
341,175,106305,1,2,2:0:0:0:
445,5,106472,2,0,P|392:17|347:39,1,93.5000028533936,0|0,1:0|2:0,2:0:0:0:
157,158,106805,2,0,P|199:176|245:186,1,93.5000028533936,4|2,3:0|2:0,2:0:0:0:
444,266,107138,5,0,1:0:0:0:
256,340,107305,1,0,2:0:0:0:
345,185,107472,1,4,3:0:0:0:
431,351,107638,2,0,P|459:357|505:370,2,46.7500014266968,0|0|0,3:0|3:0|1:0,2:0:0:0:
300,261,107972,1,2,2:0:0:0:
168,368,108138,6,0,P|119:372|60:330,1,93.5000028533936,4|4,3:0|3:0,2:0:0:0:
0,155,108472,2,0,P|42:133|88:135,1,93.5000028533936,0|0,1:0|2:0,2:0:0:0:
226,246,108805,2,0,P|240:294|257:365,1,93.5000028533936,4|4,3:0|3:0,2:0:0:0:
437,219,109138,2,0,P|448:173|461:128,1,93.5000028533936,0|0,1:0|2:0,2:0:0:0:
268,47,109472,5,4,3:0:0:0:
222,234,109638,1,4,3:0:0:0:
222,234,109722,1,0,3:0:0:0:
222,234,109805,1,0,1:0:0:0:
367,167,109972,2,0,P|324:146|280:131,1,93.5000028533936,6|0,1:2|3:0,2:0:0:0:
95,94,110305,1,0,3:2:0:0:
15,198,110472,5,6,1:2:0:0:
200,132,110638,1,0,1:0:0:0:
0,14,110805,1,4,3:0:0:0:
256,192,110888,12,0,111804,2:0:0:0:
7,215,112138,5,6,3:2:0:0:
71,145,112305,2,0,L|83:200,1,29.7499990921021,0|0,3:0|2:0,2:0:0:0:
155,183,112472,1,0,1:2:0:0:
198,282,112638,2,0,L|210:227,1,29.7499990921021,2|0,3:2|2:0,2:0:0:0:
282,317,112805,2,0,L|275:287,1,29.7499990921021,4|0,3:0|2:0,2:0:0:0:
361,305,112972,1,2,3:2:0:0:
512,251,113138,1,2,1:2:0:0:
419,367,113305,1,0,3:0:0:0:
336,225,113472,6,0,B|342:192|342:192|364:139,1,85,6|0,2:1|3:0,2:0:0:0:
176,17,113805,2,0,B|195:64|195:64|201:97,1,85,0|2,1:0|3:1,2:0:0:0:
273,24,114138,1,4,3:0:0:0:
90,194,114305,2,0,B|50:204|50:204|0:226,1,85,4|2,3:0|1:0,2:0:0:0:
247,247,114638,1,0,3:0:0:0:
50,109,114805,5,4,3:0:0:0:
181,187,114971,1,0,3:0:0:0:
26,304,115138,1,0,1:0:0:0:
130,122,115305,1,2,3:1:0:0:
252,239,115472,1,4,3:0:0:0:
85,200,115638,1,4,3:0:0:0:
232,18,115805,2,0,B|217:60|217:60|208:107,1,85,2|4,1:0|3:0,2:0:0:0:
319,292,116138,6,0,P|359:277|424:267,1,85,4|0,3:0|3:0,2:0:0:0:
188,181,116472,2,0,P|148:166|83:156,1,85,0|2,1:0|3:1,2:0:0:0:
233,324,116805,1,4,3:0:0:0:
308,155,116972,1,4,3:0:0:0:
233,324,117138,1,2,1:0:0:0:
37,218,117305,6,0,P|17:175|24:113,1,85,0|4,3:0|3:0,2:0:0:0:
225,18,117638,2,0,P|245:61|238:123,1,85,0|0,3:0|1:0,2:0:0:0:
311,348,117972,2,0,P|346:357|399:367,1,85,2|4,3:1|3:0,2:0:0:0:
510,181,118305,1,4,3:0:0:0:
363,274,118472,1,2,1:0:0:0:
491,358,118638,5,0,1:0:0:0:
500,354,118722,1,0,1:0:0:0:
509,349,118805,2,0,B|510:305|510:305|497:255,1,85,6|0,3:1|3:0,2:0:0:0:
324,126,119138,2,0,B|310:164|310:164|307:208,1,85,0|2,1:0|3:1,2:0:0:0:
407,112,119472,1,4,3:0:0:0:
174,234,119638,2,0,B|134:225|134:225|80:206,1,85,4|2,3:0|1:0,2:0:0:0:
4,51,119972,5,0,3:0:0:0:
4,51,120055,1,0,3:0:0:0:
4,51,120138,1,4,3:0:0:0:
142,143,120305,1,0,3:0:0:0:
39,274,120472,1,0,1:0:0:0:
110,66,120638,1,2,3:1:0:0:
252,192,120805,1,4,3:0:0:0:
15,192,120971,1,4,3:0:0:0:
186,16,121138,2,0,B|205:57|205:57|216:98,1,85,2|4,1:0|3:0,2:0:0:0:
344,275,121471,6,0,P|331:332|317:388,1,85,4|0,3:0|2:0,2:0:0:0:
129,233,121805,2,0,P|142:176|156:120,1,85,0|2,1:0|3:1,2:0:0:0:
323,124,122138,1,4,3:0:0:0:
210,272,122305,1,4,3:0:0:0:
323,124,122471,1,2,1:0:0:0:
141,155,122638,6,0,P|100:144|58:135,1,85,4|2,3:0|3:1,2:0:0:0:
289,224,122971,2,0,P|330:213|371:204,1,85,0|0,3:0|1:0,2:0:0:0:
156,301,123305,2,0,P|141:347|130:389,1,85,2|4,3:1|3:0,2:0:0:0:
279,318,123638,5,4,3:0:0:0:
161,211,123805,1,2,1:0:0:0:
310,137,123972,1,4,3:0:0:0:
167,11,124138,6,0,P|182:57|193:99,1,85,6|0,3:1|3:0,2:0:0:0:
199,102,124388,1,0,3:0:0:0:
205,110,124471,1,0,1:0:0:0:
320,36,124638,1,2,3:1:0:0:
421,190,124805,2,0,P|461:207|512:207,1,85,4|4,3:0|3:0,2:0:0:0:
480,1,125138,2,0,P|437:3|398:19,1,85,2|0,1:0|3:0,2:0:0:0:
338,215,125471,5,4,3:0:0:0:
224,90,125638,1,0,3:0:0:0:
224,90,125721,1,0,3:0:0:0:
224,90,125805,1,0,1:0:0:0:
273,264,125971,1,2,3:1:0:0:
374,114,126138,1,4,3:0:0:0:
282,279,126305,1,4,3:0:0:0:
141,177,126471,1,2,1:0:0:0:
376,224,126638,6,0,B|390:269|390:269|393:321,1,85,4|4,3:0|3:0,2:0:0:0:
266,382,126971,1,0,3:0:0:0:
266,382,127055,1,0,3:0:0:0:
266,382,127138,1,0,1:0:0:0:
155,268,127305,1,2,3:1:0:0:
0,341,127471,2,0,B|2:303|2:303|16:258,1,85,4|4,3:0|3:0,2:0:0:0:
147,169,127805,1,2,1:0:0:0:
370,230,127971,6,0,P|413:233|476:201,1,85,4|4,3:0|3:0,2:0:0:0:
266,83,128305,2,0,P|251:130|244:176,1,85,0|0,3:0|1:0,2:0:0:0:
295,382,128638,2,0,P|310:335|317:289,1,85,2|4,3:1|3:0,2:0:0:0:
342,119,128971,1,4,3:0:0:0:
212,249,129138,1,2,1:0:0:0:
65,169,129305,5,0,1:0:0:0:
73,162,129388,1,0,1:0:0:0:
81,155,129471,2,0,B|68:115|68:115|40:58,1,85,6|0,3:1|3:0,2:0:0:0:
52,68,129721,1,0,1:0:0:0:
56,58,129805,1,0,1:0:0:0:
176,0,129971,1,2,3:1:0:0:
237,171,130138,2,0,L|215:260,1,85,4|4,3:0|3:0,2:0:0:0:
442,329,130471,2,0,L|421:246,1,85,2|4,1:0|3:0,2:0:0:0:
464,38,130805,5,4,3:0:0:0:
337,211,130971,1,0,3:0:0:0:
337,211,131055,1,0,3:0:0:0:
337,211,131138,1,0,1:0:0:0:
504,125,131305,1,2,3:1:0:0:
311,52,131471,1,4,3:0:0:0:
408,246,131638,1,4,3:0:0:0:
470,45,131805,1,2,1:0:0:0:
276,145,131971,1,4,3:0:0:0:
116,17,132138,6,0,P|71:1|23:1,1,85,4|0,3:0|2:0,2:0:0:0:
0,242,132471,2,0,P|42:239|81:224,1,85,0|0,1:0|2:0,2:0:0:0:
269,137,132805,2,0,P|279:91|294:41,1,85,4|0,3:0|2:0,2:0:0:0:
166,111,133138,1,0,1:0:0:0:
285,298,133305,1,6,1:0:0:0:
492,209,133471,6,0,B|486:171|486:171|476:142|476:142|465:86,2,118.999996368408,4|0|4,3:0|1:0|3:0,2:0:0:0:
394,153,134305,1,8,1:3:0:0:
284,291,134471,2,0,L|302:210,1,59.4999981842042,4|0,1:3|2:0,2:0:0:0:
227,75,134805,6,0,B|202:89|202:89|173:78|131:77,1,85,4|0,1:0|1:0,2:0:0:0:
137,70,135055,1,0,1:0:0:0:
129,62,135138,1,2,1:3:0:0:
365,18,135305,2,0,B|340:4|340:4|311:15|269:16,1,85,0|4,1:0|3:0,2:0:0:0:
90,140,135638,1,2,1:3:0:0:
0,0,135805,2,0,B|21:35|21:35|31:87,1,85,0|0,1:0|3:0,2:0:0:0:
178,208,136138,6,0,B|169:251|169:251|148:286,1,85,4|0,3:0|1:0,2:0:0:0:
139,289,136388,1,0,1:0:0:0:
129,292,136471,1,2,1:3:0:0:
275,377,136638,2,0,B|237:366|237:366|184:363,1,85,0|4,1:0|3:0,2:0:0:0:
256,273,136971,1,2,1:3:0:0:
0,235,137138,2,0,B|45:232|45:232|83:221,1,85,0|0,1:0|3:0,2:0:0:0:
313,119,137471,6,0,B|353:113|375:89|375:89|435:84|477:152,1,170,4|2,3:0|1:3,2:0:0:0:
507,368,137971,2,0,P|469:373|429:337,1,85,0|4,1:0|3:0,2:0:0:0:
392,180,138305,1,2,1:3:0:0:
181,253,138471,2,0,P|155:207|166:163,1,85,0|0,1:0|3:0,2:0:0:0:
300,0,138805,6,0,B|317:20|348:24|348:24|375:103|280:139,1,170,2|2,1:0|1:0,2:0:0:0:
184,39,139305,1,0,1:0:0:0:
184,39,139388,1,0,1:0:0:0:
184,39,139471,2,0,L|83:61,1,85,4|0,3:0|1:0,2:0:0:0:
84,200,139805,2,0,L|-17:222,1,85,2|0,1:0|1:0,2:0:0:0:
261,273,140138,6,0,P|283:318|283:360,1,85,4|0,1:0|1:0,2:0:0:0:
275,361,140388,1,0,1:0:0:0:
265,370,140471,1,2,1:3:0:0:
55,275,140638,2,0,P|58:232|78:195,1,85,0|4,1:0|3:0,2:0:0:0:
133,339,140971,1,2,1:3:0:0:
283,191,141138,2,0,P|279:156|254:104,1,85,0|0,1:0|3:0,2:0:0:0:
429,19,141471,6,0,B|398:44|398:44|364:100,1,85,4|0,3:0|1:0,2:0:0:0:
377,94,141721,1,0,1:0:0:0:
381,106,141805,1,2,1:3:0:0:
206,21,141971,2,0,B|249:20|249:20|326:-1,1,85,0|4,1:0|3:0,2:0:0:0:
157,100,142305,1,2,1:3:0:0:
372,199,142471,2,0,B|331:187|331:187|288:186,1,85,0|0,1:0|3:0,2:0:0:0:
231,379,142805,6,0,B|297:367|297:367|338:368|338:368|438:351,1,170,4|2,3:0|1:3,2:0:0:0:
469,217,143305,1,0,1:0:0:0:
277,275,143471,2,0,B|272:234|272:234|286:182,1,85,4|2,3:0|1:3,2:0:0:0:
502,65,143805,2,0,B|513:107|513:107|508:148,1,85,0|0,1:0|3:0,2:0:0:0:
273,78,144138,6,0,P|352:95|408:37,2,170,2|2|2,1:0|1:0|1:0,2:0:0:0:
30,128,144971,1,2,1:0:0:0:
181,54,145138,1,2,1:0:0:0:
50,219,145305,1,2,1:0:0:0:
12,41,145471,6,0,P|76:29|124:10,1,85,4|0,1:0|3:0,2:0:0:0:
276,226,145805,2,0,B|255:240|240:266|240:266|175:286|129:198,1,170,2|4,1:3|3:0,2:0:0:0:
329,156,146305,1,2,1:3:0:0:
329,156,146388,1,0,1:0:0:0:
329,156,146471,1,0,1:0:0:0:
410,288,146638,1,2,1:3:0:0:
206,165,146805,6,0,P|211:125|225:78,1,85,4|0,3:0|3:0,2:0:0:0:
218,72,147055,1,0,1:0:0:0:
213,62,147138,1,2,1:3:0:0:
18,211,147305,2,0,P|64:251|53:338,1,127.5,0|0,1:0|2:0,2:0:0:0:
84,349,147638,1,2,1:3:0:0:
70,354,147721,1,0,1:0:0:0:
56,359,147805,1,0,1:0:0:0:
175,229,147971,1,2,1:3:0:0:
330,300,148138,6,0,B|425:294|387:358|502:350,1,170,4|2,3:0|1:3,2:0:0:0:
288,147,148638,2,0,L|267:232,1,85,0|4,1:0|3:0,2:0:0:0:
368,78,148971,1,2,1:3:0:0:
188,319,149138,2,0,L|167:234,1,85,0|2,1:0|1:3,2:0:0:0:
6,78,149471,5,2,1:0:0:0:
127,19,149638,1,0,1:0:0:0:
209,127,149805,1,2,1:0:0:0:
86,191,149971,1,0,1:0:0:0:
53,16,150138,5,2,1:0:0:0:
135,134,150305,1,0,1:0:0:0:
268,70,150471,1,2,1:0:0:0:
342,183,150638,1,0,1:0:0:0:
495,118,150805,6,0,P|508:77|506:5,1,85,4|0,1:0|1:0,2:0:0:0:
507,23,151055,1,0,1:0:0:0:
503,11,151138,1,2,1:3:0:0:
334,176,151305,2,0,P|336:218|349:258,1,85,0|4,1:0|3:0,2:0:0:0:
383,99,151638,1,2,1:3:0:0:
492,318,151805,2,0,B|449:328|449:328|384:360,1,85,0|0,1:0|3:0,2:0:0:0:
250,224,152138,6,0,B|207:214|207:214|142:182,1,85,4|0,3:0|1:0,2:0:0:0:
163,186,152388,1,0,1:0:0:0:
156,175,152471,1,2,1:3:0:0:
16,332,152638,2,0,B|59:320|59:320|120:307,1,85,0|4,1:0|3:0,2:0:0:0:
255,234,152971,1,2,1:3:0:0:
73,158,153138,1,0,1:0:0:0:
168,358,153305,1,2,3:0:0:0:
345,235,153471,6,0,B|381:221|395:194|395:194|465:178|509:260,1,170,6|0,1:2|1:0,2:0:0:0:
251,104,153971,1,0,1:0:0:0:
261,98,154055,1,0,1:0:0:0:
271,93,154138,2,0,P|257:52|256:10,1,85,6|0,3:2|1:0,2:0:0:0:
177,274,154471,2,0,P|130:300|85:305,1,85,0|0,1:0|1:0,2:0:0:0:
6,72,154805,5,6,1:2:0:0:
197,181,154971,1,0,1:0:0:0:
28,271,155138,1,0,1:0:0:0:
161,100,155305,1,0,1:0:0:0:
227,339,155471,5,4,3:0:0:0:
79,209,155638,1,0,1:0:0:0:
280,98,155805,1,0,1:0:0:0:
79,209,155971,1,0,1:0:0:0:
306,367,156138,5,4,1:0:0:0:
256,192,156221,12,0,158805,2:0:0:0:
306,367,169471,6,0,B|306:346|323:323|323:323|331:281|278:246,1,118.999996368408,4|2,2:1|2:0,2:0:0:0:
52,137,170138,2,0,B|52:158|69:181|69:181|77:223|24:258,1,118.999996368408,2|0,2:0|2:0,2:0:0:0:
123,274,170638,2,0,L|319:249,1,178.499994552612,2|2,2:0|2:0,2:0:0:0:
429,163,171471,1,2,2:0:0:0:
503,196,171638,2,0,B|472:193|472:193|426:182,1,59.4999981842042,2|0,2:0|2:0,2:0:0:0:
364,118,171971,6,0,P|357:70|419:16,1,118.999996368408,2|0,2:0|2:0,2:0:0:0:
453,83,172471,2,0,L|532:67,1,59.4999981842042,2|0,2:0|2:0,2:0:0:0:
287,164,172804,1,2,2:0:0:0:
354,201,172971,2,0,L|275:185,1,59.4999981842042,2|0,2:0|2:0,2:0:0:0:
219,119,173304,6,0,B|141:124|192:160|94:166,2,118.999996368408,2|2|2,2:0|2:0|2:0,2:0:0:0:
35,220,174304,1,2,2:0:0:0:
79,283,174471,2,0,P|67:238|47:207,1,59.4999981842042,2|2,2:0|2:0,2:0:0:0:
0,145,174805,6,0,P|-3:93|47:41,1,118.999996368408,2|2,2:0|2:0,2:0:0:0:
197,341,175471,2,0,P|200:289|150:237,1,118.999996368408,2|0,2:0|2:0,2:0:0:0:
237,197,175971,2,0,P|276:226|350:217,1,118.999996368408,2|2,2:0|2:0,2:0:0:0:
412,171,176471,1,2,2:0:0:0:
487,201,176638,1,0,2:0:0:0:
412,171,176804,1,2,2:0:0:0:
471,108,176971,2,0,P|465:137|461:166,1,59.4999981842042,2|0,2:0|2:0,2:0:0:0:
352,233,177304,1,2,2:0:0:0:
290,97,177471,5,0,2:0:0:0:
256,192,177554,12,0,178471,2:0:0:0:
290,97,178805,5,4,3:1:0:0:
135,62,178971,1,0,3:0:0:0:
135,62,179055,1,0,3:0:0:0:
135,62,179138,1,0,1:0:0:0:
235,178,179305,1,0,3:0:0:0:
235,178,179388,2,0,L|247:228,1,29.7499990921021,0|4,1:0|3:0,2:0:0:0:
196,276,179555,1,0,1:0:0:0:
196,276,179638,1,0,3:0:0:0:
311,345,179805,5,4,1:2:0:0:
109,374,179971,5,0,1:0:0:0:
109,374,180055,1,0,1:0:0:0:
109,374,180138,2,0,B|90:335|90:335|51:291,1,85,6|0,1:3|2:0,2:0:0:0:
296,144,180471,2,0,B|268:175|268:175|249:214,1,85,2|4,1:2|2:3,2:0:0:0:
211,85,180804,1,4,3:0:0:0:
339,256,180971,2,0,B|383:266|383:266|428:289,1,85,4|0,2:3|1:3,2:0:0:0:
244,374,181304,5,4,2:3:0:0:
494,339,181471,2,0,P|513:299|441:200,1,170,4|2,3:0|1:2,2:0:0:0:
239,102,181971,1,4,2:3:0:0:
229,97,182054,1,0,3:0:0:0:
219,90,182138,2,0,P|224:45|249:-5,1,85,4|4,3:0|2:3,2:0:0:0:
314,171,182471,1,0,1:3:0:0:
164,240,182638,1,4,3:0:0:0:
2,79,182804,6,0,P|35:37|169:49,1,170,4|2,3:0|1:2,2:0:0:0:
262,242,183304,1,4,2:3:0:0:
262,242,183388,1,0,3:0:0:0:
262,242,183471,1,4,3:0:0:0:
132,115,183638,1,4,2:3:0:0:
315,38,183804,1,0,1:0:0:0:
421,227,183971,6,0,B|379:249|379:249|348:291,1,85,4|4,2:3|3:0,2:0:0:0:
242,98,184304,6,0,L|219:-4,1,85,2|0,2:0|1:0,2:0:0:0:
190,285,184638,6,0,L|167:387,1,85,4|4,2:3|3:0,2:0:0:0:
72,176,184971,5,4,1:3:0:0:
10,348,185138,5,0,1:0:0:0:
194,279,185304,1,4,1:3:0:0:
96,92,185471,2,0,B|52:95|52:95|-4:119,1,85,6|0,1:3|2:0,2:0:0:0:
108,308,185804,6,0,B|152:305|152:305|208:281,1,85,2|4,1:2|2:3,2:0:0:0:
18,255,186138,1,4,3:0:0:0:
260,375,186304,2,0,B|275:333|275:333|299:289,1,85,4|0,2:3|1:0,2:0:0:0:
171,142,186638,5,4,2:3:0:0:
337,9,186804,2,0,B|356:32|389:42|389:42|401:114|318:135,1,170,4|2,3:0|1:2,2:0:0:0:
149,223,187304,1,4,3:0:0:0:
139,227,187388,1,0,3:0:0:0:
128,230,187471,2,0,P|86:217|36:213,1,85,4|4,3:0|3:0,2:0:0:0:
139,63,187804,1,0,1:0:0:0:
275,186,187971,1,4,3:0:0:0:
459,107,188138,6,0,P|488:148|409:246,1,170,4|0,3:0|1:0,2:0:0:0:
305,374,188638,1,0,1:0:0:0:
305,374,188721,1,0,1:0:0:0:
305,374,188804,1,4,3:0:0:0:
363,190,188971,1,2,2:0:0:0:
501,310,189138,1,0,1:0:0:0:
238,299,189304,6,0,B|235:253|235:253|250:198,1,85,4|6,3:0|1:3,2:0:0:0:
402,40,189638,2,0,B|363:65|363:65|308:80,1,85,0|2,2:0|1:2,2:0:0:0:
106,99,189971,2,0,B|147:119|147:119|187:159,1,85,4|4,3:0|3:0,2:0:0:0:
100,20,190304,1,4,3:0:0:0:
358,191,190471,5,2,1:2:0:0:
220,51,190638,1,2,1:2:0:0:
67,171,190804,6,0,L|-18:191,1,85,6|0,1:3|2:0,2:0:0:0:
249,352,191138,2,0,B|263:308|263:308|252:236,1,85,2|4,1:2|2:3,2:0:0:0:
149,371,191471,1,4,3:0:0:0:
356,291,191638,2,0,B|398:306|398:306|441:311,1,85,4|0,2:3|1:0,2:0:0:0:
195,209,191971,5,4,2:3:0:0:
366,52,192138,2,0,B|407:77|404:124|404:124|351:147|345:222,1,170,4|2,3:0|1:2,2:0:0:0:
141,97,192638,1,4,2:3:0:0:
130,92,192721,1,0,3:0:0:0:
119,86,192804,2,0,P|126:41|134:-8,1,85,4|4,3:0|3:0,2:0:0:0:
245,141,193138,1,0,1:2:0:0:
68,207,193304,6,0,P|29:189|-15:178,1,85,2|4,2:0|3:0,2:0:0:0:
151,279,193638,1,0,2:0:0:0:
251,137,193804,2,0,P|258:181|266:231,1,85,2|4,1:2|2:3,2:0:0:0:
273,230,194054,1,0,3:0:0:0:
283,239,194138,1,4,3:0:0:0:
436,90,194304,2,0,P|428:134|421:184,1,85,4|0,2:3|1:0,2:0:0:0:
433,362,194637,6,0,B|461:361|482:371|482:371|507:354|540:340,1,85,4|4,2:3|3:0,2:0:0:0:
340,160,194971,6,0,B|368:161|389:151|389:151|414:168|447:182,1,85,2|0,2:0|1:0,2:0:0:0:
198,338,195304,6,0,B|241:328|241:328|297:322,1,85,4|4,2:3|3:0,2:0:0:0:
118,263,195637,5,4,1:3:0:0:
352,383,195804,5,2,1:2:0:0:
208,231,195971,1,4,1:3:0:0:
46,347,196137,2,0,B|30:309|30:309|26:247,1,85,4|0,1:0|3:0,2:0:0:0:
225,74,196471,6,0,B|241:112|241:112|245:174,1,85,2|4,1:2|2:3,2:0:0:0:
326,18,196804,1,4,3:0:0:0:
156,147,196971,2,0,B|117:128|117:128|50:118,1,85,4|0,2:3|1:0,2:0:0:0:
275,275,197304,5,4,3:0:0:0:
3,173,197471,2,0,P|-16:118|56:38,1,170,4|2,3:0|1:2,2:0:0:0:
245,157,197971,1,4,2:3:0:0:
258,150,198054,1,0,3:0:0:0:
270,145,198137,2,0,B|314:148|314:148|380:170,1,85,4|4,3:0|3:0,2:0:0:0:
167,244,198471,1,0,1:0:0:0:
259,60,198637,1,4,3:0:0:0:
442,189,198804,6,0,B|449:151|484:122|484:122|504:75|465:15,1,170,4|0,3:0|1:0,2:0:0:0:
295,251,199304,1,0,2:0:0:0:
407,362,199471,2,0,L|379:274,1,85,4|0,3:0|2:0,2:0:0:0:
243,162,199804,1,0,1:2:0:0:
194,341,199971,1,0,3:2:0:0:
454,230,200137,6,0,B|466:169|466:169|426:78,2,152.999995330811,4|4|4,1:2|1:2|3:0,2:0:0:0:
348,92,200971,1,2,1:2:0:0:
512,174,201137,1,0,1:2:0:0:
377,267,201304,1,2,2:0:0:0:
274,44,201471,6,0,B|226:38|196:63|196:63|183:105|125:124,1,170,6|2,1:2|1:2,2:0:0:0:
11,308,201971,2,0,B|52:339|52:339|122:302|94:216,1,170,2|2,1:2|1:2,2:0:0:0:
112,33,202471,1,0,1:0:0:0:
13,217,202637,1,0,1:0:0:0:
190,279,202804,6,0,P|223:247|307:247,1,127.5,4|0,3:0|2:0,2:0:0:0:
313,254,203137,1,2,1:2:0:0:
451,378,203304,1,2,1:2:0:0:
263,319,203471,1,4,3:0:0:0:
396,241,203637,1,2,2:0:0:0:
220,155,203804,1,2,1:2:0:0:
329,372,203971,1,0,1:0:0:0:
484,217,204137,6,0,B|488:176|488:176|464:99,1,85,4|0,1:0|1:0,2:0:0:0:
392,253,204471,1,2,1:2:0:0:
329,34,204637,2,0,B|303:71|303:71|294:110,1,85,2|4,1:2|3:0,2:0:0:0:
255,325,204971,1,2,1:2:0:0:
144,184,205137,1,0,1:0:0:0:
255,325,205304,1,0,1:0:0:0:
383,149,205471,6,0,P|426:136|480:131,1,85,4|0,3:0|1:0,2:0:0:0:
225,248,205804,1,2,1:2:0:0:
424,365,205971,2,0,P|380:352|327:347,1,85,2|0,1:2|3:0,2:0:0:0:
98,186,206304,2,0,L|175:171,1,42.5,0|2,2:0|1:2,2:0:0:0:
299,116,206471,1,2,1:0:0:0:
215,255,206637,1,2,1:0:0:0:
13,176,206804,6,0,B|5:92|5:92|57:14,1,170,4|2,1:0|1:2,2:0:0:0:
268,191,207304,2,0,B|248:255|248:255|229:283|229:283|210:353,1,170,2|2,1:2|1:2,2:0:0:0:
92,200,207804,1,0,1:0:0:0:
291,114,207971,1,0,1:0:0:0:
143,286,208137,6,0,P|92:285|25:318,1,127.5,4|0,3:0|2:0,2:0:0:0:
18,328,208471,1,2,1:2:0:0:
179,209,208637,1,2,1:2:0:0:
99,373,208804,1,4,3:0:0:0:
5,124,208971,1,2,1:2:0:0:
133,281,209137,1,0,1:0:0:0:
232,61,209304,1,2,1:2:0:0:
81,220,209471,6,0,B|38:216|38:216|-23:191,1,85,4|0,3:0|1:0,2:0:0:0:
291,128,209804,1,2,1:2:0:0:
126,16,209971,2,0,B|136:61|136:61|158:99,1,85,2|4,1:2|3:0,2:0:0:0:
308,283,210304,1,0,1:0:0:0:
392,102,210471,1,0,1:0:0:0:
308,283,210637,1,0,1:0:0:0:
181,183,210804,6,0,B|193:118|193:118|195:77|195:77|209:-3,2,170,4|0|4,3:1|1:0|3:0,2:0:0:0:
343,188,211637,1,0,3:0:0:0:
343,188,211721,1,0,3:0:0:0:
343,188,211804,1,0,1:0:0:0:
151,94,211971,1,0,2:0:0:0:
319,285,212137,6,0,B|362:268|362:268|408:259,1,93.5000028533936,4|0,1:0|1:0,2:0:0:0:
174,188,212471,1,2,1:2:0:0:
337,18,212637,2,0,B|327:68|327:68|297:129,1,93.5000028533936,2|4,1:2|3:0,2:0:0:0:
241,334,212971,1,2,1:2:0:0:
347,176,213137,1,0,1:0:0:0:
148,114,213304,1,0,1:0:0:0:
398,250,213471,6,0,B|443:251|443:251|524:229,1,93.5000028533936,4|0,3:0|1:0,2:0:0:0:
246,159,213804,1,2,1:2:0:0:
359,330,213971,1,2,1:2:0:0:
359,330,214054,1,0,1:0:0:0:
359,330,214137,1,4,3:0:0:0:
418,116,214304,1,2,2:0:0:0:
267,285,214471,1,0,1:0:0:0:
492,333,214637,1,2,1:2:0:0:
332,163,214804,6,0,L|353:33,1,93.5000028533936,4|0,3:0|1:0,2:0:0:0:
139,257,215137,1,2,1:2:0:0:
280,374,215304,2,0,B|276:329|276:329|256:285,1,93.5000028533936,2|4,1:2|3:0,2:0:0:0:
96,114,215637,1,2,1:2:0:0:
260,206,215804,1,0,1:0:0:0:
64,309,215971,1,0,1:0:0:0:
4,122,216137,6,0,P|9:84|25:30,1,93.5000028533936,4|0,3:0|1:0,2:0:0:0:
181,242,216471,1,2,1:2:0:0:
316,80,216637,2,0,P|330:124|337:170,1,93.5000028533936,2|0,1:2|3:0,2:0:0:0:
348,181,216887,1,2,1:0:0:0:
358,191,216971,1,0,2:0:0:0:
368,201,217054,1,2,1:2:0:0:
378,212,217137,1,2,1:0:0:0:
490,64,217304,1,2,1:0:0:0:
452,285,217471,6,0,P|405:296|333:332,1,93.5000028533936,4|0,1:0|1:0,2:0:0:0:
118,186,217804,1,2,1:2:0:0:
221,384,217971,2,0,P|240:348|257:289,1,93.5000028533936,2|4,1:2|3:0,2:0:0:0:
164,103,218304,1,2,1:2:0:0:
5,213,218471,1,0,1:0:0:0:
177,277,218637,1,0,1:0:0:0:
86,46,218804,6,0,B|62:88|62:88|50:141,1,93.5000028533936,6|0,1:2|1:0,2:0:0:0:
263,305,219137,2,0,L|359:282,1,93.5000028533936,0|2,1:0|1:2,2:0:0:0:
496,158,219471,1,4,3:0:0:0:
476,149,219554,1,0,1:0:0:0:
453,142,219637,1,0,3:0:0:0:
434,135,219721,1,0,1:0:0:0:
413,126,219804,1,0,1:0:0:0:
465,259,219971,1,2,1:2:0:0:
356,32,220137,6,0,P|320:83|278:128,1,93.5000028533936,6|0,1:2|1:0,2:0:0:0:
146,302,220471,1,0,1:0:0:0:
304,210,220637,2,0,P|257:187|193:167,1,93.5000028533936,0|4,1:0|3:0,2:0:0:0:
56,115,220971,1,0,1:0:0:0:
231,46,221137,1,0,1:0:0:0:
87,240,221304,1,0,1:0:0:0:
6,38,221471,6,0,P|45:1|152:18,1,140.25000428009,6|0,1:2|2:0,2:0:0:0:
139,9,221804,1,6,1:2:0:0:
323,192,221971,6,0,B|275:195|254:226|254:226|188:251|136:163,1,187.000005706787,4|0,1:0|2:0,2:0:0:0:
154,184,222387,1,0,1:0:0:0:
149,170,222471,1,0,1:0:0:0:
344,99,222637,5,0,1:0:0:0:
472,258,222804,5,4,3:1:0:0:
