osu file format v14

[General]
AudioFilename: audio.mp3
AudioLeadIn: 0
PreviewTime: 179611
Countdown: 1
SampleSet: None
StackLeniency: 0.5
Mode: 0
LetterboxInBreaks: 0
WidescreenStoryboard: 1

[Editor]
Bookmarks: 112111
DistanceSpacing: 1
BeatDivisor: 4
GridSize: 8
TimelineZoom: 1

[Metadata]
Title:Masterpiece
TitleUnicode:Masterpiece
Artist:Hommarju feat. Latte
ArtistUnicode:Hommarju feat. Latte
Creator:AlexTroIIPsy
Version:Expert: Lv. 6
Source:
Tags:
BeatmapID:2014456
BeatmapSetID:868188

[Difficulty]
HPDrainRate:6
CircleSize:4
OverallDifficulty:9
ApproachRate:9
SliderMultiplier:1.7
SliderTickRate:1

[Events]
//Background and Video events
0,0,"Bg index.jpg",0,0
//Break Periods
2,36310,45278
//Storyboard Layer 0 (Background)
//Storyboard Layer 1 (Fail)
//Storyboard Layer 2 (Pass)
//Storyboard Layer 3 (Foreground)
//Storyboard Sound Samples

[TimingPoints]
111,333.333333333333,4,1,1,50,1,0
944,-100,4,1,1,20,0,0
1445,333.333333333333,4,1,1,30,1,0
12111,-80,4,1,1,50,0,0
20111,-66.6666666666667,4,1,1,55,0,0
22778,-66.6666666666667,4,1,1,50,0,0
30778,-66.6666666666667,4,1,1,50,0,0
34778,-100,4,1,1,40,0,0
36111,-133.333333333333,4,1,1,20,0,0
52111,-133.333333333333,4,1,1,30,0,0
57444,-66.6666666666667,4,1,1,60,0,1
77444,-100,4,1,1,60,0,1
78778,-80,4,1,1,50,0,0
89444,-133.333333333333,4,1,1,40,0,0
100111,-66.6666666666667,4,1,1,50,0,0
108111,-66.6666666666667,4,1,1,40,0,0
112111,-66.6666666666667,4,1,1,40,0,0
113444,-100,4,1,1,60,0,1
134778,-100,4,1,1,55,0,0
158278,-133.333333333333,4,1,1,50,0,0
178778,-100,4,1,1,40,0,0
180111,-66.6666666666667,4,1,1,60,0,1
201444,-100,4,1,1,50,0,0
214778,-100,4,1,1,40,0,0
221444,-133.333333333333,4,1,1,30,0,0

[Colours]
Combo1 : 255,11,11
Combo2 : 106,106,106
Combo3 : 212,212,212
Combo4 : 255,128,64
Combo5 : 0,128,0
Combo6 : 141,71,71
Combo7 : 191,128,128
Combo8 : 150,10,10

[HitObjects]
91,363,944,54,0,L|209:363,2,85
252,323,1445,102,0,L|312:324,1,42.5,6|0,0:0|0:0,0:0:0:0:
289,250,1611,2,0,L|349:251,1,42.5,2|0,0:0|0:0,0:0:0:0:
326,177,1778,2,0,L|386:178,5,42.5,2|0|0|0|0|0,0:0|0:0|0:0|0:0|0:0|0:0,0:0:0:0:
331,104,2278,2,0,L|271:105,3,42.5,2|0|0|0,0:0|0:0|0:0|0:0,0:0:0:0:
325,31,2611,2,0,L|385:32,1,42.5,2|2,0:0|0:0,0:0:0:0:
441,75,2778,6,0,L|492:105,3,42.5
415,156,3111,2,0,L|363:186,5,42.5,2|0|0|0|0|0,0:0|0:0|0:0|0:0|0:0|0:0,0:0:0:0:
441,237,3611,2,0,L|492:267,5,42.5,2|0|0|0|0|0,0:0|0:0|0:0|0:0|0:0|0:0,0:0:0:0:
415,318,4111,102,0,L|363:348,3,42.5,6|0|0|0,0:0|0:0|0:0|0:0,0:0:0:0:
319,279,4444,2,0,L|267:248,1,42.5,2|0,0:0|0:0,0:0:0:0:
223,318,4611,2,0,L|171:348,3,42.5,2|0|0|0,0:0|0:0|0:0|0:0,0:0:0:0:
143,257,4944,2,0,L|85:243,1,42.5,2|0,0:0|0:0,0:0:0:0:
130,159,5111,2,0,L|99:107,1,42.5,2|0,0:0|0:0,0:0:0:0:
190,79,5278,2,0,L|204:21,1,42.5,2|0,0:0|0:0,0:0:0:0:
262,124,5444,6,0,L|283:160,3,42.5,2|0|0|0,0:0|0:0|0:0|0:0,0:0:0:0:
258,237,5778,2,0,L|279:273,7,42.5,2|0|0|0|0|0|0|0,0:0|0:0|0:0|0:0|0:0|0:0|0:0|0:0,0:0:0:0:
254,348,6444,2,0,L|275:384,3,42.5,2|0|0|0,0:0|0:0|0:0|0:0,0:0:0:0:
166,351,6778,101,6,0:0:0:0:
161,347,6861,1,0,0:0:0:0:
157,345,6944,1,0,0:0:0:0:
152,342,7027,1,0,0:0:0:0:
147,340,7111,1,2,0:0:0:0:
142,337,7194,1,0,0:0:0:0:
138,336,7277,1,0,0:0:0:0:
132,334,7361,1,0,0:0:0:0:
127,333,7444,1,0,0:0:0:0:
122,332,7527,1,0,0:0:0:0:
117,331,7611,1,2,0:0:0:0:
112,330,7694,1,0,0:0:0:0:
106,330,7777,1,0,0:0:0:0:
101,330,7861,1,0,0:0:0:0:
96,331,7944,1,2,0:0:0:0:
90,331,8027,1,0,0:0:0:0:
85,333,8111,1,2,0:0:0:0:
77,325,8194,1,0,0:0:0:0:
71,316,8277,1,0,0:0:0:0:
65,308,8361,1,0,0:0:0:0:
59,299,8444,1,2,0:0:0:0:
55,289,8527,1,0,0:0:0:0:
51,279,8611,1,2,0:0:0:0:
48,269,8694,1,0,0:0:0:0:
46,258,8777,1,0,0:0:0:0:
45,248,8861,1,0,0:0:0:0:
44,237,8944,1,2,0:0:0:0:
45,227,9027,1,0,0:0:0:0:
46,216,9111,1,0,0:0:0:0:
48,206,9194,1,0,0:0:0:0:
51,195,9277,1,0,0:0:0:0:
55,185,9361,1,0,0:0:0:0:
59,175,9444,1,6,0:0:0:0:
77,185,9527,1,0,0:0:0:0:
97,192,9610,1,0,0:0:0:0:
118,196,9694,1,0,0:0:0:0:
139,197,9777,1,2,0:0:0:0:
160,194,9860,1,0,0:0:0:0:
180,188,9944,1,2,0:0:0:0:
200,179,10027,1,0,0:0:0:0:
217,167,10110,1,0,0:0:0:0:
232,152,10194,1,0,0:0:0:0:
245,135,10277,1,2,0:0:0:0:
255,116,10360,1,0,0:0:0:0:
261,96,10444,1,2,0:0:0:0:
265,75,10527,1,0,0:0:0:0:
265,54,10610,1,2,0:0:0:0:
261,33,10694,1,0,0:0:0:0:
253,11,10777,85,4,0:0:0:0:
437,333,11111,2,0,L|309:341,1,127.5,2|0,0:0|0:0,0:0:0:0:
283,259,11444,2,0,L|395:265,1,85,2|0,0:0|0:0,0:0:0:0:
224,350,11778,1,8,0:0:0:0:
179,252,11944,1,8,0:0:0:0:
15,353,12111,86,0,P|72:364|141:351,1,106.25,4|0,0:0|0:0,0:0:0:0:
208,233,12444,2,0,P|155:227|103:238,1,106.25,8|0,0:0|0:0,0:0:0:0:
288,356,12778,2,0,P|345:367|414:354,1,106.25,8|0,0:0|0:0,0:0:0:0:
440,215,13111,1,8,0:0:0:0:
348,264,13278,1,0,0:0:0:0:
488,344,13444,5,8,0:0:0:0:
426,217,13611,1,0,0:0:0:0:
495,108,13778,2,0,L|353:88,1,106.25,8|0,0:0|0:0,0:0:0:0:
295,170,14111,1,8,0:0:0:0:
411,322,14278,2,0,L|431:180,1,106.25,0|8,0:0|0:0,0:0:0:0:
308,282,14611,1,0,0:0:0:0:
135,137,14778,102,0,P|196:153|239:208,1,106.25,12|0,0:0|0:0,0:0:0:0:
54,296,15111,2,0,P|37:235|63:170,1,106.25,8|0,0:0|0:0,0:0:0:0:
233,287,15444,2,0,P|188:331|119:341,1,106.25,8|0,0:0|0:0,0:0:0:0:
31,289,15778,1,8,0:0:0:0:
141,242,15944,1,0,0:0:0:0:
118,376,16111,5,8,0:0:0:0:
8,279,16278,1,0,0:0:0:0:
93,187,16444,2,0,L|103:47,1,106.25,8|0,0:0|0:0,0:0:0:0:
225,242,16778,1,8,0:0:0:0:
141,325,16944,1,0,0:0:0:0:
189,142,17111,2,0,L|329:152,1,106.25,8|0,0:0|0:0,0:0:0:0:
379,237,17444,101,12,0:0:0:0:
380,243,17527,1,0,0:0:0:0:
381,250,17610,1,0,0:0:0:0:
382,256,17693,1,0,0:0:0:0:
384,263,17777,1,8,0:0:0:0:
385,269,17860,1,0,0:0:0:0:
386,276,17943,1,0,0:0:0:0:
388,282,18027,1,0,0:0:0:0:
389,289,18110,1,8,0:0:0:0:
390,295,18193,1,0,0:0:0:0:
391,302,18277,1,0,0:0:0:0:
393,308,18360,1,0,0:0:0:0:
394,315,18443,1,8,0:0:0:0:
395,321,18527,1,0,0:0:0:0:
397,328,18610,1,0,0:0:0:0:
398,334,18693,1,0,0:0:0:0:
399,341,18778,1,8,0:0:0:0:
423,331,18861,1,0,0:0:0:0:
446,317,18944,1,0,0:0:0:0:
464,298,19027,1,0,0:0:0:0:
477,275,19111,1,8,0:0:0:0:
485,249,19194,1,0,0:0:0:0:
486,223,19277,1,0,0:0:0:0:
482,197,19361,1,0,0:0:0:0:
470,172,19444,1,8,0:0:0:0:
455,149,19527,1,0,0:0:0:0:
448,124,19610,1,0,0:0:0:0:
447,97,19693,1,0,0:0:0:0:
453,72,19778,2,0,L|390:58,1,53.125,8|0,0:0|0:0,0:0:0:0:
243,174,19944,2,0,L|306:159,1,53.125,0|0,0:0|0:0,0:0:0:0:
164,70,20111,5,12,0:0:0:0:
138,103,20194,1,0,0:0:0:0:
123,143,20277,1,0,0:0:0:0:
119,185,20360,1,0,0:0:0:0:
128,227,20444,1,8,0:0:0:0:
147,264,20527,1,0,0:0:0:0:
181,291,20611,1,0,0:0:0:0:
216,238,20694,1,0,0:0:0:0:
226,176,20777,1,8,0:0:0:0:
208,115,20860,1,0,0:0:0:0:
165,69,20944,2,0,P|114:59|75:62,1,63.7500024318696,0|0,0:0|0:0,0:0:0:0:
62,188,21111,2,0,P|30:191|0:199,1,63.7500024318696,8|0,0:0|0:0,0:0:0:0:
143,347,21278,2,0,P|91:336|52:339,1,63.7500024318696,0|0,0:0|0:0,0:0:0:0:
203,170,21444,101,12,0:0:0:0:
258,141,21527,1,0,0:0:0:0:
319,153,21610,1,0,0:0:0:0:
358,202,21693,1,0,0:0:0:0:
358,265,21777,1,8,0:0:0:0:
318,312,21860,1,0,0:0:0:0:
256,324,21943,1,0,0:0:0:0:
201,294,22027,1,0,0:0:0:0:
178,236,22111,1,8,0:0:0:0:
198,176,22194,1,0,0:0:0:0:
187,114,22277,1,0,0:0:0:0:
148,65,22360,1,0,0:0:0:0:
89,41,22444,2,0,L|14:33,1,63.7500024318696,8|0,0:0|0:0,0:0:0:0:
95,248,22611,2,0,L|170:239,1,63.7500024318696,0|0,0:0|0:0,0:0:0:0:
341,58,22778,85,12,0:0:0:0:
368,200,22944,1,8,0:0:0:0:
408,38,23111,2,0,L|267:11,1,127.500004863739,2|0,0:0|0:0,0:0:0:0:
267,176,23444,1,8,0:0:0:0:
361,285,23610,1,8,0:0:0:0:
315,125,23777,2,0,L|179:172,1,127.500004863739,2|0,0:0|0:0,0:0:0:0:
261,315,24112,1,8,0:0:0:0:
397,362,24278,1,8,0:0:0:0:
277,247,24445,2,0,L|183:355,1,127.500004863739,2|0,0:0|0:0,0:0:0:0:
423,250,24778,5,2,0:0:0:0:
436,227,24861,1,0,0:0:0:0:
328,148,25028,1,2,0:0:0:0:
315,125,25111,1,0,0:0:0:0:
423,46,25278,1,2,0:0:0:0:
177,3,25444,101,12,0:0:0:0:
71,83,25611,1,8,0:0:0:0:
88,209,25778,2,0,L|71:83,1,127.500004863739,2|0,0:0|0:0,0:0:0:0:
203,73,26111,1,8,0:0:0:0:
309,153,26278,1,8,0:0:0:0:
291,279,26445,1,2,0:0:0:0:
299,215,26528,1,0,0:0:0:0:
308,152,26611,1,0,0:0:0:0:
176,142,26777,1,8,0:0:0:0:
70,222,26944,1,8,0:0:0:0:
88,348,27111,1,2,0:0:0:0:
79,284,27194,1,0,0:0:0:0:
70,221,27277,1,0,0:0:0:0:
195,357,27444,5,2,0:0:0:0:
230,354,27528,2,0,L|302:352,1,63.7500024318696
451,274,27694,1,2,0:0:0:0:
416,271,27778,2,0,L|344:269,1,63.7500024318696
248,167,27944,1,2,0:0:0:0:
440,32,28111,101,12,0:0:0:0:
364,135,28278,1,8,0:0:0:0:
284,36,28444,1,2,0:0:0:0:
220,32,28527,1,0,0:0:0:0:
156,29,28610,1,0,0:0:0:0:
73,128,28778,1,8,0:0:0:0:
149,231,28945,1,8,0:0:0:0:
229,132,29111,1,2,0:0:0:0:
292,128,29194,1,0,0:0:0:0:
356,125,29277,1,0,0:0:0:0:
440,224,29445,1,8,0:0:0:0:
364,327,29612,1,8,0:0:0:0:
284,228,29778,1,2,0:0:0:0:
220,224,29861,1,0,0:0:0:0:
156,221,29944,1,0,0:0:0:0:
51,308,30111,6,0,L|57:377,2,63.7500024318696,2|0|0,0:0|0:0|0:0,0:0:0:0:
9,169,30361,2,0,L|3:238,2,63.7500024318696,2|0|0,0:0|0:0|0:0,0:0:0:0:
75,68,30611,1,2,0:0:0:0:
176,150,30778,101,12,0:0:0:0:
190,156,30861,1,0,0:0:0:0:
206,159,30944,1,0,0:0:0:0:
221,157,31027,1,0,0:0:0:0:
236,150,31111,1,8,0:0:0:0:
248,140,31194,1,0,0:0:0:0:
257,127,31277,1,0,0:0:0:0:
261,112,31361,1,0,0:0:0:0:
262,96,31444,1,8,0:0:0:0:
257,80,31527,1,0,0:0:0:0:
249,67,31611,1,0,0:0:0:0:
237,56,31694,1,0,0:0:0:0:
223,50,31778,1,8,0:0:0:0:
207,47,31861,1,0,0:0:0:0:
191,49,31944,1,0,0:0:0:0:
177,55,32027,1,0,0:0:0:0:
161,66,32111,1,8,0:0:0:0:
187,84,32194,1,0,0:0:0:0:
216,97,32277,1,0,0:0:0:0:
247,104,32360,1,0,0:0:0:0:
278,105,32444,1,8,0:0:0:0:
310,101,32527,1,0,0:0:0:0:
340,90,32611,1,0,0:0:0:0:
380,78,32694,1,0,0:0:0:0:
420,89,32778,1,8,0:0:0:0:
449,120,32861,1,0,0:0:0:0:
456,162,32944,1,0,0:0:0:0:
440,200,33027,1,0,0:0:0:0:
406,225,33111,2,0,P|392:264|392:327,1,63.7500024318696,8|0,0:0|0:0,0:0:0:0:
300,353,33278,2,0,P|285:314|285:251,1,63.7500024318696,8|0,0:0|0:0,0:0:0:0:
466,363,33444,5,12,0:0:0:0:
16,95,34778,37,8,0:0:0:0:
103,243,34944,2,0,L|171:243,1,42.5
232,95,35111,1,8,0:0:0:0:
319,243,35278,6,0,L|387:243,1,42.5,0|0,0:0|0:0,0:0:0:0:
232,95,35444,2,0,L|189:95,1,42.5,8|0,0:0|0:0,0:0:0:0:
103,243,35611,1,0,0:0:0:0:
16,95,35778,1,8,0:0:0:0:
319,243,35944,101,0,0:0:0:0:
340,243,36027,1,0,0:0:0:0:
361,243,36110,1,12,0:0:0:0:
421,43,46778,22,0,L|482:36,7,31.8750012159348
367,130,47444,2,0,L|306:123,5,31.8750012159348,0|0|0|0|0|0,0:0|0:0|0:0|0:0|0:0|0:0,0:0:0:0:
421,217,47944,2,0,L|482:210,15,31.8750012159348,0|0|0|0|0|0|0|0|0|0|0|0|0|0|0|0,0:0|0:0|0:0|0:0|0:0|0:0|0:0|0:0|0:0|0:0|0:0|0:0|0:0|0:0|0:0|0:0,0:0:0:0:
367,304,49278,2,0,L|306:297,13,31.8750012159348,0|0|0|0|0|0|0|0|0|0|0|0|0|0,0:0|0:0|0:0|0:0|0:0|0:0|0:0|0:0|0:0|0:0|0:0|0:0|0:0|0:0,0:0:0:0:
248,359,50444,5,0,0:0:0:0:
247,355,50527,1,0,0:0:0:0:
247,352,50610,1,0,0:0:0:0:
246,349,50694,1,0,0:0:0:0:
246,346,50777,1,0,0:0:0:0:
246,343,50860,1,0,0:0:0:0:
245,340,50944,1,0,0:0:0:0:
245,336,51027,1,0,0:0:0:0:
245,333,51110,1,0,0:0:0:0:
244,330,51194,1,0,0:0:0:0:
244,327,51277,1,0,0:0:0:0:
243,324,51360,1,0,0:0:0:0:
243,321,51444,1,0,0:0:0:0:
243,317,51527,1,0,0:0:0:0:
242,314,51610,1,0,0:0:0:0:
242,311,51694,1,0,0:0:0:0:
242,308,51777,1,0,0:0:0:0:
241,305,51860,1,0,0:0:0:0:
241,302,51944,1,0,0:0:0:0:
241,298,52027,1,0,0:0:0:0:
241,295,52111,101,0,0:0:0:0:
239,279,52194,1,0,0:0:0:0:
235,263,52277,1,0,0:0:0:0:
229,249,52361,1,0,0:0:0:0:
219,236,52444,1,0,0:0:0:0:
208,225,52527,1,0,0:0:0:0:
194,216,52611,1,0,0:0:0:0:
180,210,52694,1,0,0:0:0:0:
162,206,52778,1,0,0:0:0:0:
148,197,52861,1,0,0:0:0:0:
137,186,52944,1,0,0:0:0:0:
128,173,53028,1,0,0:0:0:0:
122,158,53111,1,0,0:0:0:0:
119,142,53194,1,0,0:0:0:0:
120,126,53278,1,0,0:0:0:0:
124,111,53361,1,0,0:0:0:0:
132,96,53444,1,0,0:0:0:0:
150,111,53527,1,0,0:0:0:0:
170,124,53610,1,0,0:0:0:0:
192,134,53694,1,0,0:0:0:0:
214,142,53777,1,0,0:0:0:0:
238,146,53860,1,0,0:0:0:0:
261,148,53944,1,0,0:0:0:0:
285,148,54027,1,0,0:0:0:0:
309,144,54110,1,0,0:0:0:0:
332,137,54194,1,0,0:0:0:0:
354,128,54277,1,0,0:0:0:0:
375,116,54360,1,0,0:0:0:0:
394,102,54444,1,0,0:0:0:0:
411,86,54527,1,0,0:0:0:0:
426,67,54610,1,0,0:0:0:0:
439,47,54694,1,0,0:0:0:0:
449,24,54778,1,0,0:0:0:0:
417,26,54861,1,0,0:0:0:0:
386,35,54944,1,0,0:0:0:0:
358,49,55028,1,0,0:0:0:0:
332,68,55111,1,0,0:0:0:0:
311,92,55194,1,0,0:0:0:0:
294,119,55278,1,0,0:0:0:0:
282,148,55361,1,0,0:0:0:0:
276,180,55444,1,0,0:0:0:0:
276,212,55528,1,0,0:0:0:0:
282,243,55611,1,0,0:0:0:0:
293,273,55694,1,0,0:0:0:0:
310,300,55778,1,0,0:0:0:0:
331,323,55861,1,0,0:0:0:0:
357,343,55944,1,0,0:0:0:0:
385,357,56028,1,0,0:0:0:0:
416,366,56111,1,4,0:0:0:0:
22,61,57444,86,0,P|72:43|161:55,1,127.500004863739,12|0,0:0|0:0,0:0:0:0:
175,184,57778,1,8,0:0:0:0:
40,252,57944,2,0,P|49:199|104:128,1,127.500004863739,8|0,0:0|0:0,0:0:0:0:
242,54,58278,1,8,0:0:0:0:
242,225,58444,1,0,0:0:0:0:
90,139,58611,1,8,0:0:0:0:
314,133,58778,6,0,L|466:128,1,127.500004863739,8|0,0:0|0:0,0:0:0:0:
286,226,59111,1,0,0:0:0:0:
384,55,59278,2,0,L|511:50,1,127.500004863739,8|0,0:0|0:0,0:0:0:0:
323,222,59611,1,8,0:0:0:0:
208,85,59778,1,0,0:0:0:0:
384,55,59944,1,8,0:0:0:0:
255,161,60111,6,0,P|237:211|249:300,1,127.500004863739,12|0,0:0|0:0,0:0:0:0:
378,314,60445,1,0,0:0:0:0:
446,179,60611,2,0,P|393:188|322:243,1,127.500004863739,8|0,0:0|0:0,0:0:0:0:
248,381,60945,1,8,0:0:0:0:
419,381,61111,1,0,0:0:0:0:
333,229,61278,1,8,0:0:0:0:
233,283,61444,6,0,L|81:288,1,127.500004863739,8|0,0:0|0:0,0:0:0:0:
261,190,61777,1,0,0:0:0:0:
163,361,61944,2,0,L|35:365,1,127.500004863739,8|0,0:0|0:0,0:0:0:0:
74,174,62278,1,8,0:0:0:0:
233,283,62444,1,0,0:0:0:0:
392,174,62611,1,8,0:0:0:0:
277,7,62778,6,0,L|263:158,1,127.500004863739,12|0,0:0|0:0,0:0:0:0:
303,263,63111,1,0,0:0:0:0:
149,203,63278,2,0,L|160:76,1,127.500004863739,8|0,0:0|0:0,0:0:0:0:
329,34,63611,1,8,0:0:0:0:
284,198,63777,1,0,0:0:0:0:
160,76,63944,1,8,0:0:0:0:
364,140,64111,6,0,P|445:155|498:141,1,127.500004863739,8|0,0:0|0:0,0:0:0:0:
342,51,64444,1,0,0:0:0:0:
301,199,64611,2,0,P|347:266|395:294,1,127.500004863739,8|0,0:0|0:0,0:0:0:0:
511,172,64944,1,8,0:0:0:0:
346,119,65110,1,0,0:0:0:0:
384,290,65277,1,8,0:0:0:0:
431,138,65444,6,0,L|426:4,1,127.500004863739,12|0,0:0|0:0,0:0:0:0:
326,181,65778,1,0,0:0:0:0:
214,13,65944,2,0,L|219:141,1,127.500004863739,8|0,0:0|0:0,0:0:0:0:
226,315,66278,1,8,0:0:0:0:
71,235,66444,1,0,0:0:0:0:
219,141,66611,1,8,0:0:0:0:
122,348,66778,6,0,P|48:357|-4:336,1,127.500004863739,8|0,0:0|0:0,0:0:0:0:
193,264,67111,1,0,0:0:0:0:
286,348,67278,2,0,L|422:352,1,127.500004863739,8|0,0:0|0:0,0:0:0:0:
393,154,67611,1,8,0:0:0:0:
346,264,67778,1,0,0:0:0:0:
496,122,67944,1,8,0:0:0:0:
354,21,68111,6,0,L|287:10,3,63.7500024318696,12|0|0|0,0:0|0:0|0:0|0:0,0:0:0:0:
241,89,68444,2,0,L|241:170,1,63.7500024318696
194,9,68611,2,0,L|132:20,3,63.7500024318696,8|0|0|0,0:0|0:0|0:0|0:0,0:0:0:0:
96,106,68944,2,0,L|96:187,1,63.7500024318696,8|0,0:0|0:0,0:0:0:0:
16,304,69111,2,0,L|16:241,1,63.7500024318696
119,136,69278,2,0,L|119:217,1,63.7500024318696,8|0,0:0|0:0,0:0:0:0:
158,363,69444,6,0,L|225:374,3,63.7500024318696,8|0|0|0,0:0|0:0|0:0|0:0,0:0:0:0:
271,295,69777,2,0,L|271:214,1,63.7500024318696,0|0,0:0|0:0,0:0:0:0:
317,374,69944,2,0,L|380:364,3,63.7500024318696,8|0|0|0,0:0|0:0|0:0|0:0,0:0:0:0:
416,278,70277,2,0,L|416:197,1,63.7500024318696,8|0,0:0|0:0,0:0:0:0:
512,112,70444,2,0,L|512:175,1,63.7500024318696,0|0,0:0|0:0,0:0:0:0:
419,63,70611,2,0,L|419:-18,1,63.7500024318696,8|0,0:0|0:0,0:0:0:0:
314,93,70778,6,0,L|247:82,3,63.7500024318696,12|0|0|0,0:0|0:0|0:0|0:0,0:0:0:0:
172,120,71111,2,0,L|172:195,1,63.7500024318696,0|0,0:0|0:0,0:0:0:0:
254,260,71278,2,0,L|254:185,3,63.7500024318696,8|0|0|0,0:0|0:0|0:0|0:0,0:0:0:0:
172,293,71611,2,0,L|172:368,1,63.7500024318696,8|0,0:0|0:0,0:0:0:0:
94,240,71778,2,0,L|94:315,1,63.7500024318696,0|0,0:0|0:0,0:0:0:0:
16,187,71944,2,0,L|16:262,1,63.7500024318696,8|0,0:0|0:0,0:0:0:0:
17,93,72111,6,0,L|79:103,3,63.7500024318696,8|0|0|0,0:0|0:0|0:0|0:0,0:0:0:0:
161,49,72444,2,0,L|223:38,1,63.7500024318696,0|0,0:0|0:0,0:0:0:0:
305,93,72611,2,0,L|367:103,3,63.7500024318696,8|0|0|0,0:0|0:0|0:0|0:0,0:0:0:0:
409,189,72944,2,0,L|409:266,1,63.7500024318696,8|0,0:0|0:0,0:0:0:0:
449,102,73111,2,0,L|511:91,1,63.7500024318696
503,320,73278,2,0,L|440:330,1,63.7500024318696,8|0,0:0|0:0,0:0:0:0:
291,253,73444,5,12,0:0:0:0:
283,250,73527,1,0,0:0:0:0:
275,248,73610,1,0,0:0:0:0:
267,247,73693,1,0,0:0:0:0:
259,246,73777,1,0,0:0:0:0:
251,246,73860,1,0,0:0:0:0:
244,246,73943,1,8,0:0:0:0:
236,247,74027,1,0,0:0:0:0:
228,249,74110,1,0,0:0:0:0:
220,251,74193,1,0,0:0:0:0:
213,254,74277,1,8,0:0:0:0:
206,258,74360,1,0,0:0:0:0:
199,262,74443,1,0,0:0:0:0:
192,266,74527,1,0,0:0:0:0:
186,271,74610,1,8,0:0:0:0:
180,277,74693,1,0,0:0:0:0:
176,283,74778,1,8,0:0:0:0:
161,290,74861,1,0,0:0:0:0:
146,295,74944,1,0,0:0:0:0:
130,297,75027,1,0,0:0:0:0:
114,296,75111,1,0,0:0:0:0:
99,293,75194,1,0,0:0:0:0:
84,287,75277,1,8,0:0:0:0:
71,279,75361,1,0,0:0:0:0:
59,268,75444,1,0,0:0:0:0:
49,256,75527,1,0,0:0:0:0:
41,242,75611,1,8,0:0:0:0:
36,227,75694,1,0,0:0:0:0:
33,211,75777,1,0,0:0:0:0:
33,195,75861,1,0,0:0:0:0:
36,180,75944,1,8,0:0:0:0:
41,165,76027,1,0,0:0:0:0:
48,150,76111,1,12,0:0:0:0:
67,175,76194,1,0,0:0:0:0:
91,196,76277,1,0,0:0:0:0:
117,213,76360,1,0,0:0:0:0:
147,226,76444,1,0,0:0:0:0:
178,233,76527,1,0,0:0:0:0:
209,235,76610,1,8,0:0:0:0:
241,231,76694,1,0,0:0:0:0:
272,222,76777,1,0,0:0:0:0:
300,209,76860,1,0,0:0:0:0:
326,190,76944,1,8,0:0:0:0:
349,167,77027,1,0,0:0:0:0:
367,141,77110,1,0,0:0:0:0:
380,112,77194,1,0,0:0:0:0:
389,82,77277,1,8,0:0:0:0:
392,50,77360,1,0,0:0:0:0:
384,16,77444,6,0,B|312:72|336:168|336:168|256:200|256:200|176:168|176:168|200:72|128:16,1,510,8|0,0:0|0:0,0:0:0:0:
24,356,78778,6,0,L|145:349,1,106.25,12|0,0:0|0:0,0:0:0:0:
256,224,79111,2,0,L|135:231,1,106.25,8|0,0:0|0:0,0:0:0:0:
274,104,79444,2,0,L|381:98,1,106.25,8|0,0:0|0:0,0:0:0:0:
479,239,79778,1,8,0:0:0:0:
376,211,79944,1,0,0:0:0:0:
473,95,80111,5,8,0:0:0:0:
505,243,80278,1,0,0:0:0:0:
376,117,80444,2,0,L|381:8,1,106.25,8|0,0:0|0:0,0:0:0:0:
266,138,80778,1,8,0:0:0:0:
368,243,80944,2,0,L|514:241,1,106.25,0|8,0:0|0:0,0:0:0:0:
398,124,81278,1,0,0:0:0:0:
275,304,81444,102,0,P|201:316|159:299,1,106.25,12|0,0:0|0:0,0:0:0:0:
167,132,81778,2,0,P|214:190|220:234,1,106.25,8|0,0:0|0:0,0:0:0:0:
73,312,82111,2,0,P|99:241|135:214,1,106.25,8|0,0:0|0:0,0:0:0:0:
220,156,82444,1,8,0:0:0:0:
172,306,82611,1,0,0:0:0:0:
52,176,82778,5,8,0:0:0:0:
225,138,82944,1,0,0:0:0:0:
127,5,83111,2,0,L|129:156,1,106.25,8|0,0:0|0:0,0:0:0:0:
265,210,83444,1,8,0:0:0:0:
250,89,83611,1,0,0:0:0:0:
136,241,83778,2,0,L|252:236,1,106.25,8|0,0:0|0:0,0:0:0:0:
371,371,84111,102,0,P|318:320|305:267,1,106.25,4|0,0:0|0:0,0:0:0:0:
468,198,84444,2,0,P|445:245|404:278,1,106.25,8|0,0:0|0:0,0:0:0:0:
301,94,84778,2,0,P|354:145|367:198,1,106.25,8|0,0:0|0:0,0:0:0:0:
278,299,85111,1,8,0:0:0:0:
266,186,85278,1,0,0:0:0:0:
382,264,85444,5,8,0:0:0:0:
268,329,85611,1,0,0:0:0:0:
452,344,85778,2,0,L|473:232,1,106.25,8|0,0:0|0:0,0:0:0:0:
389,136,86111,1,8,0:0:0:0:
279,247,86278,2,0,L|405:239,1,106.25,0|8,0:0|0:0,0:0:0:0:
280,122,86611,1,0,0:0:0:0:
195,235,86778,102,0,L|205:297,3,53.125,4|0|0|0,0:0|0:0|0:0|0:0,0:0:0:0:
106,304,87111,2,0,L|96:366,3,53.125,8|0|0|0,0:0|0:0|0:0|0:0,0:0:0:0:
12,239,87444,2,0,L|22:301,3,53.125,8|0|0|0,0:0|0:0|0:0|0:0,0:0:0:0:
108,188,87778,2,0,L|118:126,1,53.125,8|0,0:0|0:0,0:0:0:0:
25,33,87944,2,0,L|35:95,1,53.125,0|0,0:0|0:0,0:0:0:0:
193,168,88111,5,12,0:0:0:0:
206,166,88194,1,0,0:0:0:0:
219,165,88277,1,0,0:0:0:0:
232,164,88360,1,0,0:0:0:0:
245,163,88444,1,8,0:0:0:0:
252,215,88527,1,0,0:0:0:0:
259,268,88610,1,0,0:0:0:0:
266,320,88693,1,0,0:0:0:0:
336,338,88778,1,8,0:0:0:0:
328,285,88861,1,0,0:0:0:0:
321,232,88944,1,0,0:0:0:0:
314,180,89027,1,0,0:0:0:0:
309,148,89111,2,0,L|369:146,3,53.125,8|0|0|0,0:0|0:0|0:0|0:0,0:0:0:0:
426,65,89444,5,12,0:0:0:0:
292,65,89611,1,0,0:0:0:0:
158,65,89778,1,8,0:0:0:0:
362,146,89944,1,0,0:0:0:0:
228,146,90111,1,8,0:0:0:0:
94,146,90278,2,0,L|41:147,1,31.8750012159348
158,65,90444,2,0,L|105:66,1,31.8750012159348,8|0,0:0|0:0,0:0:0:0:
228,146,90611,1,0,0:0:0:0:
426,65,90778,5,12,0:0:0:0:
362,146,90944,2,0,L|309:147,1,31.8750012159348,0|0,0:0|0:0,0:0:0:0:
292,65,91111,1,8,0:0:0:0:
126,65,91278,2,0,L|179:66,1,31.8750012159348,0|0,0:0|0:0,0:0:0:0:
228,146,91444,2,0,L|175:147,1,31.8750012159348,8|0,0:0|0:0,0:0:0:0:
94,146,91611,1,0,0:0:0:0:
158,65,91778,1,8,0:0:0:0:
228,146,91944,1,0,0:0:0:0:
29,229,92111,101,12,0:0:0:0:
163,229,92278,1,0,0:0:0:0:
297,229,92445,1,8,0:0:0:0:
93,310,92611,1,0,0:0:0:0:
227,310,92778,1,8,0:0:0:0:
361,310,92945,2,0,L|414:311,1,31.8750012159348,0|0,0:0|0:0,0:0:0:0:
297,229,93111,2,0,L|350:230,1,31.8750012159348,8|0,0:0|0:0,0:0:0:0:
227,310,93278,1,0,0:0:0:0:
29,229,93445,5,12,0:0:0:0:
93,310,93611,2,0,L|146:311,1,31.8750012159348,0|0,0:0|0:0,0:0:0:0:
163,229,93778,1,8,0:0:0:0:
329,229,93945,2,0,L|276:230,1,31.8750012159348,0|0,0:0|0:0,0:0:0:0:
227,310,94111,2,0,L|280:311,1,31.8750012159348,8|0,0:0|0:0,0:0:0:0:
361,310,94278,1,0,0:0:0:0:
297,229,94445,1,8,0:0:0:0:
227,310,94611,1,0,0:0:0:0:
416,231,94778,101,12,0:0:0:0:
345,126,94944,1,0,0:0:0:0:
231,70,95111,1,8,0:0:0:0:
341,296,95278,1,0,0:0:0:0:
270,191,95444,1,8,0:0:0:0:
156,135,95611,2,0,L|105:115,1,31.8750012159348,0|0,0:0|0:0,0:0:0:0:
345,126,95778,2,0,L|310:83,1,31.8750012159348,8|0,0:0|0:0,0:0:0:0:
270,191,95944,1,0,0:0:0:0:
416,231,96111,5,12,0:0:0:0:
345,126,96277,1,0,0:0:0:0:
231,70,96444,1,8,0:0:0:0:
340,295,96611,2,0,L|360:320,1,31.8750012159348,0|0,0:0|0:0,0:0:0:0:
345,126,96778,2,0,L|364:150,1,31.8750012159348,8|0,0:0|0:0,0:0:0:0:
156,135,96944,1,0,0:0:0:0:
270,191,97111,1,8,0:0:0:0:
231,70,97278,1,0,0:0:0:0:
80,243,97444,101,12,0:0:0:0:
90,336,97611,1,0,0:0:0:0:
24,177,97778,1,8,0:0:0:0:
163,225,97944,1,0,0:0:0:0:
173,318,98111,1,8,0:0:0:0:
107,159,98278,1,0,0:0:0:0:
246,207,98444,2,0,L|302:215,1,31.8750012159348,8|0,0:0|0:0,0:0:0:0:
256,300,98611,2,0,L|306:308,1,31.8750012159348,0|0,0:0|0:0,0:0:0:0:
190,141,98778,5,12,0:0:0:0:
190,131,98861,1,0,0:0:0:0:
191,121,98944,1,0,0:0:0:0:
193,111,99027,1,0,0:0:0:0:
196,102,99111,1,8,0:0:0:0:
200,92,99194,1,0,0:0:0:0:
205,84,99277,1,0,0:0:0:0:
211,76,99361,1,0,0:0:0:0:
218,69,99444,1,8,0:0:0:0:
226,62,99527,1,0,0:0:0:0:
234,57,99611,1,0,0:0:0:0:
243,52,99694,1,0,0:0:0:0:
252,48,99777,1,8,0:0:0:0:
261,45,99861,1,0,0:0:0:0:
271,44,99944,1,0,0:0:0:0:
281,43,100027,1,0,0:0:0:0:
291,43,100111,37,12,0:0:0:0:
361,215,100278,1,8,0:0:0:0:
252,102,100444,2,0,L|373:22,1,127.500004863739,2|0,0:0|0:0,0:0:0:0:
404,227,100778,1,8,0:0:0:0:
233,297,100945,1,8,0:0:0:0:
346,188,101111,2,0,L|426:309,1,127.500004863739,2|0,0:0|0:0,0:0:0:0:
220,340,101444,1,8,0:0:0:0:
151,169,101611,1,8,0:0:0:0:
260,282,101777,2,0,L|139:362,1,127.500004863739,2|0,0:0|0:0,0:0:0:0:
61,258,102111,5,2,0:0:0:0:
56,241,102194,1,0,0:0:0:0:
151,169,102361,1,2,0:0:0:0:
156,152,102444,1,0,0:0:0:0:
61,69,102611,1,2,0:0:0:0:
299,20,102778,101,12,0:0:0:0:
195,149,102944,1,8,0:0:0:0:
171,27,103111,2,0,L|332:18,1,127.500004863739,2|0,0:0|0:0,0:0:0:0:
288,117,103444,1,8,0:0:0:0:
392,246,103610,1,8,0:0:0:0:
416,124,103777,2,0,L|255:115,1,127.500004863739,2|0,0:0|0:0,0:0:0:0:
292,227,104111,1,8,0:0:0:0:
188,356,104277,1,8,0:0:0:0:
164,234,104444,1,2,0:0:0:0:
227,230,104527,1,0,0:0:0:0:
291,226,104610,1,0,0:0:0:0:
75,352,104778,5,2,0:0:0:0:
75,352,104861,2,0,L|53:282,1,63.7500024318696,0|0,0:0|0:0,0:0:0:0:
164,234,105028,1,2,0:0:0:0:
164,234,105111,2,0,L|186:164,1,63.7500024318696,0|0,0:0|0:0,0:0:0:0:
50,105,105278,1,2,0:0:0:0:
166,343,105444,101,12,0:0:0:0:
258,258,105611,1,8,0:0:0:0:
363,349,105778,1,2,0:0:0:0:
426,349,105861,1,0,0:0:0:0:
490,349,105944,1,0,0:0:0:0:
493,176,106111,1,8,0:0:0:0:
401,261,106278,1,8,0:0:0:0:
296,170,106444,1,2,0:0:0:0:
232,170,106527,1,0,0:0:0:0:
168,170,106610,1,0,0:0:0:0:
166,343,106778,1,8,0:0:0:0:
258,258,106945,1,8,0:0:0:0:
363,349,107111,1,2,0:0:0:0:
426,349,107194,1,0,0:0:0:0:
490,349,107277,1,0,0:0:0:0:
364,196,107444,5,2,0:0:0:0:
366,174,107528,1,0,0:0:0:0:
464,100,107694,1,2,0:0:0:0:
462,78,107778,1,0,0:0:0:0:
370,8,107944,1,2,0:0:0:0:
268,93,108111,101,12,0:0:0:0:
262,98,108194,1,0,0:0:0:0:
256,103,108277,1,0,0:0:0:0:
249,108,108360,1,0,0:0:0:0:
242,112,108444,1,8,0:0:0:0:
235,115,108527,1,0,0:0:0:0:
228,118,108610,1,0,0:0:0:0:
220,120,108694,1,0,0:0:0:0:
212,122,108777,1,8,0:0:0:0:
204,123,108860,1,0,0:0:0:0:
196,124,108944,1,0,0:0:0:0:
188,124,109027,1,0,0:0:0:0:
181,123,109110,1,8,0:0:0:0:
173,121,109194,1,0,0:0:0:0:
165,119,109277,1,0,0:0:0:0:
158,117,109360,1,0,0:0:0:0:
149,113,109444,1,8,0:0:0:0:
128,106,109527,1,0,0:0:0:0:
107,104,109610,1,0,0:0:0:0:
86,107,109693,1,0,0:0:0:0:
67,116,109777,1,8,0:0:0:0:
50,129,109860,1,0,0:0:0:0:
37,147,109944,1,0,0:0:0:0:
70,173,110027,1,0,0:0:0:0:
91,209,110110,1,8,0:0:0:0:
99,251,110193,1,0,0:0:0:0:
93,292,110277,1,0,0:0:0:0:
72,329,110360,1,0,0:0:0:0:
39,356,110444,2,0,L|-31:357,1,63.7500024318696,8|0,0:0|0:0,0:0:0:0:
227,317,110611,2,0,L|157:318,1,63.7500024318696,8|0,0:0|0:0,0:0:0:0:
380,281,110778,1,12,0:0:0:0:
32,14,112111,53,8,0:0:0:0:
83,226,112278,1,0,0:0:0:0:
83,226,112444,1,8,0:0:0:0:
213,87,112611,5,8,0:0:0:0:
151,296,112778,1,0,0:0:0:0:
151,296,112944,1,8,0:0:0:0:
12,160,113111,101,8,0:0:0:0:
124,51,113278,1,0,0:0:0:0:
218,217,113444,5,12,0:0:0:0:
142,141,113611,1,0,0:0:0:0:
218,66,113778,1,8,0:0:0:0:
293,141,113944,1,0,0:0:0:0:
368,65,114111,1,8,0:0:0:0:
444,141,114278,1,0,0:0:0:0:
368,216,114445,1,8,0:0:0:0:
293,141,114611,1,8,0:0:0:0:
224,313,114778,101,8,0:0:0:0:
359,306,114944,1,0,0:0:0:0:
494,299,115111,1,8,0:0:0:0:
288,227,115278,1,0,0:0:0:0:
153,220,115444,1,8,0:0:0:0:
18,213,115611,1,0,0:0:0:0:
288,368,115778,1,8,0:0:0:0:
483,73,116111,5,12,0:0:0:0:
308,78,116278,1,0,0:0:0:0:
308,78,116444,1,8,0:0:0:0:
397,84,116611,1,0,0:0:0:0:
242,0,116778,1,8,0:0:0:0:
242,0,116944,1,0,0:0:0:0:
87,80,117111,1,8,0:0:0:0:
182,71,117278,1,8,0:0:0:0:
24,23,117444,101,8,0:0:0:0:
47,176,117611,1,0,0:0:0:0:
47,176,117778,1,8,0:0:0:0:
140,310,117944,1,0,0:0:0:0:
163,157,118111,1,8,0:0:0:0:
163,157,118278,1,0,0:0:0:0:
72,342,118444,1,8,0:0:0:0:
97,89,118611,1,8,0:0:0:0:
304,137,118778,5,12,0:0:0:0:
394,227,118944,1,0,0:0:0:0:
304,317,119111,1,8,0:0:0:0:
213,227,119278,1,0,0:0:0:0:
304,137,119444,1,8,0:0:0:0:
213,47,119611,1,0,0:0:0:0:
123,137,119778,1,8,0:0:0:0:
213,227,119944,1,8,0:0:0:0:
394,227,120111,101,8,0:0:0:0:
304,137,120278,1,0,0:0:0:0:
213,47,120444,1,8,0:0:0:0:
123,137,120611,1,0,0:0:0:0:
213,227,120778,1,8,0:0:0:0:
304,317,120944,1,0,0:0:0:0:
213,47,121111,1,8,0:0:0:0:
142,354,121444,5,12,0:0:0:0:
142,226,121611,1,0,0:0:0:0:
31,290,121778,1,8,0:0:0:0:
271,227,121944,1,0,0:0:0:0:
206,116,122111,1,8,0:0:0:0:
142,226,122278,1,0,0:0:0:0:
336,338,122444,1,8,0:0:0:0:
207,337,122611,1,8,0:0:0:0:
364,248,122778,101,8,0:0:0:0:
415,105,122944,1,0,0:0:0:0:
415,105,123111,1,8,0:0:0:0:
425,305,123278,1,0,0:0:0:0:
345,58,123444,1,8,0:0:0:0:
345,58,123611,1,0,0:0:0:0:
301,188,123778,1,8,0:0:0:0:
483,156,123944,1,8,0:0:0:0:
339,27,124111,5,12,0:0:0:0:
173,27,124278,1,0,0:0:0:0:
173,192,124444,1,8,0:0:0:0:
339,192,124611,1,0,0:0:0:0:
339,357,124778,1,8,0:0:0:0:
173,357,124945,1,0,0:0:0:0:
173,192,125111,1,8,0:0:0:0:
339,192,125278,1,8,0:0:0:0:
339,27,125444,101,8,0:0:0:0:
173,192,125611,1,0,0:0:0:0:
339,357,125778,1,8,0:0:0:0:
173,357,125944,1,0,0:0:0:0:
339,192,126111,1,8,0:0:0:0:
173,27,126278,1,0,0:0:0:0:
256,276,126444,1,8,0:0:0:0:
476,118,126778,5,12,0:0:0:0:
306,67,126944,1,0,0:0:0:0:
306,67,127111,1,8,0:0:0:0:
373,141,127278,1,0,0:0:0:0:
415,37,127444,1,8,0:0:0:0:
415,37,127611,1,0,0:0:0:0:
143,0,127778,1,8,0:0:0:0:
337,249,127944,1,8,0:0:0:0:
190,334,128111,101,8,0:0:0:0:
190,163,128278,1,0,0:0:0:0:
337,249,128444,1,8,0:0:0:0:
140,247,128611,1,0,0:0:0:0:
140,76,128778,1,8,0:0:0:0:
287,162,128944,1,0,0:0:0:0:
140,247,129111,1,8,0:0:0:0:
190,163,129278,1,8,0:0:0:0:
293,339,129444,6,0,L|372:341,3,42.5,12|0|0|0,0:0|0:0|0:0|0:0,0:0:0:0:
377,267,129778,2,0,L|456:269,3,42.5,8|0|0|0,0:0|0:0|0:0|0:0,0:0:0:0:
461,195,130111,2,0,L|540:197,3,42.5,8|0|0|0,0:0|0:0|0:0|0:0,0:0:0:0:
366,114,130444,2,0,L|287:116,3,42.5,8|0|0|0,0:0|0:0|0:0|0:0,0:0:0:0:
219,45,130778,102,0,L|140:43,3,42.5,8|0|0|0,0:0|0:0|0:0|0:0,0:0:0:0:
135,117,131112,2,0,L|56:115,3,42.5,8|0|0|0,0:0|0:0|0:0|0:0,0:0:0:0:
51,189,131445,2,0,L|-28:187,3,42.5,8|0|0|0,0:0|0:0|0:0|0:0,0:0:0:0:
146,270,131778,2,0,L|225:268,3,42.5,8|0|0|0,0:0|0:0|0:0|0:0,0:0:0:0:
256,342,132111,5,12,0:0:0:0:
406,191,132278,1,0,0:0:0:0:
255,41,132444,1,8,0:0:0:0:
105,192,132611,1,0,0:0:0:0:
255,41,132778,1,12,0:0:0:0:
406,191,132944,1,0,0:0:0:0:
256,342,133111,1,8,0:0:0:0:
256,192,133278,1,8,0:0:0:0:
391,346,133444,101,12,0:0:0:0:
425,321,133527,1,0,0:0:0:0:
448,285,133610,1,0,0:0:0:0:
457,244,133694,1,0,0:0:0:0:
450,202,133777,1,8,0:0:0:0:
429,166,133860,1,0,0:0:0:0:
396,139,133944,1,0,0:0:0:0:
371,106,134027,1,0,0:0:0:0:
371,64,134110,1,8,0:0:0:0:
398,32,134194,1,0,0:0:0:0:
438,23,134278,1,0,0:0:0:0:
435,79,134361,1,0,0:0:0:0:
410,130,134444,1,8,0:0:0:0:
367,167,134528,1,0,0:0:0:0:
314,185,134611,1,0,0:0:0:0:
258,181,134694,1,0,0:0:0:0:
207,155,134778,22,8,L|92:142,2,85,12|0|8,0:0|0:0|0:0,0:0:0:0:
192,310,135278,2,0,L|307:297,2,85,0|8|0,0:0|0:0|0:0,0:0:0:0:
74,324,135778,1,8,0:0:0:0:
388,288,135944,1,0,0:0:0:0:
366,136,136111,6,8,P|331:100|282:88,2,85,8|0|8,0:0|0:0|0:0,0:0:0:0:
311,329,136611,2,0,P|346:365|395:377,2,85,0|8|0,0:0|0:0|0:0,0:0:0:0:
288,173,137111,1,8,0:0:0:0:
388,288,137278,1,0,0:0:0:0:
193,117,137444,102,8,L|188:24,2,85,12|0|8,0:0|0:0|0:0,0:0:0:0:
103,260,137944,2,0,L|98:353,2,85,0|8|0,0:0|0:0|0:0,0:0:0:0:
36,152,138444,1,8,0:0:0:0:
179,373,138611,1,0,0:0:0:0:
283,211,138778,6,0,L|397:197,1,85,8|0,0:0|0:0,0:0:0:0:
477,182,139111,1,8,0:0:0:0:
334,332,139278,2,0,L|220:318,1,85,0|8,0:0|0:0,0:0:0:0:
140,303,139611,1,0,0:0:0:0:
145,74,139777,1,8,0:0:0:0:
372,81,139944,1,0,0:0:0:0:
363,308,140111,102,8,L|474:324,2,85,12|0|8,0:0|0:0|0:0,0:0:0:0:
188,239,140611,2,0,L|77:254,2,85,0|8|0,0:0|0:0|0:0,0:0:0:0:
298,215,141111,1,8,0:0:0:0:
6,268,141278,1,0,0:0:0:0:
86,100,141444,6,8,P|134:68|172:67,2,85,8|0|8,0:0|0:0|0:0,0:0:0:0:
73,322,141944,2,0,P|25:354|-13:355,2,85,0|8|0,0:0|0:0|0:0,0:0:0:0:
156,148,142444,1,8,0:0:0:0:
6,268,142611,1,0,0:0:0:0:
217,380,142778,102,0,L|192:298,1,85,12|0,0:0|0:0,0:0:0:0:
153,187,143112,1,8,0:0:0:0:
297,35,143278,2,0,L|272:117,1,85,0|8,0:0|0:0,0:0:0:0:
233,228,143611,1,0,0:0:0:0:
187,98,143778,1,8,0:0:0:0:
299,287,143944,1,0,0:0:0:0:
446,39,144111,5,12,0:0:0:0:
446,39,144444,1,8,0:0:0:0:
446,39,144778,101,8,0:0:0:0:
382,133,144944,1,8,0:0:0:0:
441,230,145111,1,8,0:0:0:0:
377,324,145277,1,8,0:0:0:0:
256,336,145444,21,12,0:0:0:0:
111,191,145611,1,0,0:0:0:0:
256,47,145778,1,8,0:0:0:0:
400,192,145944,1,0,0:0:0:0:
154,294,146111,1,8,0:0:0:0:
154,89,146278,1,0,0:0:0:0:
358,90,146445,1,8,0:0:0:0:
357,294,146611,1,0,0:0:0:0:
111,191,146778,5,12,0:0:0:0:
154,294,146944,1,0,0:0:0:0:
257,47,147111,1,8,0:0:0:0:
154,90,147277,1,0,0:0:0:0:
401,193,147444,1,8,0:0:0:0:
358,90,147610,1,0,0:0:0:0:
255,337,147777,1,8,0:0:0:0:
358,294,147943,1,0,0:0:0:0:
153,294,148111,5,12,0:0:0:0:
111,191,148278,1,0,0:0:0:0:
153,89,148444,1,8,0:0:0:0:
255,47,148611,1,0,0:0:0:0:
358,89,148778,1,8,0:0:0:0:
400,192,148944,1,0,0:0:0:0:
358,294,149111,1,8,0:0:0:0:
255,336,149278,1,0,0:0:0:0:
359,294,149444,5,12,0:0:0:0:
401,191,149611,1,0,0:0:0:0:
359,89,149777,1,8,0:0:0:0:
257,47,149944,1,0,0:0:0:0:
154,89,150111,1,8,0:0:0:0:
112,192,150277,1,0,0:0:0:0:
154,294,150444,1,8,0:0:0:0:
257,336,150611,1,0,0:0:0:0:
401,191,150778,5,12,0:0:0:0:
403,195,150861,1,0,0:0:0:0:
406,200,150944,1,0,0:0:0:0:
408,204,151028,1,0,0:0:0:0:
410,209,151111,1,8,0:0:0:0:
412,214,151194,1,0,0:0:0:0:
414,219,151278,1,0,0:0:0:0:
415,224,151361,1,0,0:0:0:0:
417,230,151444,1,8,0:0:0:0:
417,235,151528,1,0,0:0:0:0:
418,240,151611,1,0,0:0:0:0:
418,245,151694,1,0,0:0:0:0:
418,251,151778,1,8,0:0:0:0:
418,256,151861,1,0,0:0:0:0:
418,261,151944,1,0,0:0:0:0:
417,267,152028,1,0,0:0:0:0:
415,273,152111,1,8,0:0:0:0:
410,263,152194,1,0,0:0:0:0:
406,253,152277,1,0,0:0:0:0:
400,244,152361,1,0,0:0:0:0:
395,235,152444,1,8,0:0:0:0:
389,226,152527,1,0,0:0:0:0:
382,218,152611,1,0,0:0:0:0:
375,210,152694,1,0,0:0:0:0:
368,202,152777,1,8,0:0:0:0:
360,195,152861,1,0,0:0:0:0:
352,188,152944,1,0,0:0:0:0:
343,182,153027,1,0,0:0:0:0:
334,176,153111,1,8,0:0:0:0:
325,171,153194,1,0,0:0:0:0:
316,166,153277,1,0,0:0:0:0:
306,161,153361,1,0,0:0:0:0:
294,157,153444,1,12,0:0:0:0:
274,194,153527,1,0,0:0:0:0:
241,220,153610,1,0,0:0:0:0:
200,230,153694,1,0,0:0:0:0:
158,222,153777,1,8,0:0:0:0:
124,198,153860,1,0,0:0:0:0:
102,162,153944,1,0,0:0:0:0:
61,172,154027,1,0,0:0:0:0:
30,200,154110,1,8,0:0:0:0:
14,239,154194,1,0,0:0:0:0:
17,281,154278,1,0,0:0:0:0:
55,262,154361,1,0,0:0:0:0:
84,231,154444,1,8,0:0:0:0:
103,193,154528,1,0,0:0:0:0:
108,151,154611,1,0,0:0:0:0:
99,110,154694,1,0,0:0:0:0:
78,73,154778,1,8,0:0:0:0:
124,48,154861,1,0,0:0:0:0:
175,33,154944,1,0,0:0:0:0:
228,29,155028,1,0,0:0:0:0:
281,36,155111,1,8,0:0:0:0:
331,53,155194,1,0,0:0:0:0:
376,81,155278,1,0,0:0:0:0:
415,117,155361,1,0,0:0:0:0:
445,160,155444,1,8,0:0:0:0:
399,186,155527,1,0,0:0:0:0:
349,202,155610,1,0,0:0:0:0:
296,206,155694,1,0,0:0:0:0:
243,200,155777,1,8,0:0:0:0:
193,182,155860,1,0,0:0:0:0:
148,155,155944,1,0,0:0:0:0:
110,118,156027,1,0,0:0:0:0:
80,74,156110,1,12,0:0:0:0:
432,224,158278,21,2,2:0:0:0:
432,224,158444,1,2,2:0:0:0:
432,224,158611,2,0,B|368:208|368:240|304:224,1,127.500004863739,2|0,2:0|2:0,2:0:0:0:
256,128,159111,1,2,2:0:0:0:
206,224,159444,1,2,2:0:0:0:
256,320,159611,1,2,2:0:0:0:
96,240,159944,6,0,B|112:176|80:176|96:112,1,127.500004863739,2|0,2:0|2:0,2:0:0:0:
192,64,160444,1,2,2:0:0:0:
96,14,160777,1,2,2:0:0:0:
0,64,160944,1,2,2:0:0:0:
192,176,161278,102,0,B|256:160|256:192|319:176,1,127.500004863739,2|0,2:0|2:0,2:0:0:0:
368,80,161778,1,2,2:0:0:0:
418,176,162111,1,2,2:0:0:0:
368,272,162278,1,2,2:0:0:0:
496,368,162611,5,2,2:0:0:0:
256,304,162944,1,2,2:0:0:0:
16,368,163278,1,2,2:0:0:0:
376,280,163611,101,2,2:0:0:0:
256,248,163778,1,2,2:0:0:0:
136,280,163944,1,2,2:0:0:0:
448,32,164444,5,2,2:0:0:0:
400,112,164778,1,2,2:0:0:0:
448,192,164944,1,2,2:0:0:0:
304,128,165278,2,0,B|242:143|242:111|178:127,1,127.500004863739,2|0,2:0|2:0,2:0:0:0:
112,192,165778,1,2,2:0:0:0:
178,257,166111,1,2,2:0:0:0:
32,192,166278,1,2,2:0:0:0:
256,80,166611,102,0,B|289:215|222:215|256:350,1,255.000009727478,2|0,2:0|2:0,2:0:0:0:
486,131,167944,5,2,2:0:0:0:
256,192,168278,1,2,2:0:0:0:
26,253,168611,1,2,2:0:0:0:
371,222,168944,101,2,2:0:0:0:
256,192,169111,1,2,2:0:0:0:
141,161,169278,1,2,2:0:0:0:
302,335,169444,85,4,0:0:0:0:
305,335,169527,1,0,0:0:0:0:
309,335,169610,1,0,0:0:0:0:
313,335,169694,1,0,0:0:0:0:
317,335,169777,1,0,0:0:0:0:
321,335,169860,1,0,0:0:0:0:
325,335,169944,1,0,0:0:0:0:
329,335,170027,1,0,0:0:0:0:
333,335,170110,1,0,0:0:0:0:
337,335,170194,1,0,0:0:0:0:
341,335,170277,1,0,0:0:0:0:
345,335,170360,1,0,0:0:0:0:
349,335,170444,1,0,0:0:0:0:
353,335,170527,1,0,0:0:0:0:
357,335,170610,1,0,0:0:0:0:
361,335,170694,1,0,0:0:0:0:
365,334,170778,1,0,0:0:0:0:
372,330,170861,1,0,0:0:0:0:
379,326,170944,1,0,0:0:0:0:
385,321,171028,1,0,0:0:0:0:
391,316,171111,1,0,0:0:0:0:
397,310,171194,1,0,0:0:0:0:
401,304,171278,1,0,0:0:0:0:
406,297,171361,1,0,0:0:0:0:
409,290,171444,1,0,0:0:0:0:
412,283,171528,1,0,0:0:0:0:
414,275,171611,1,0,0:0:0:0:
416,267,171694,1,0,0:0:0:0:
416,259,171778,1,0,0:0:0:0:
416,251,171861,1,0,0:0:0:0:
415,243,171944,1,0,0:0:0:0:
413,236,172028,1,0,0:0:0:0:
411,227,172111,1,0,0:0:0:0:
398,217,172194,1,0,0:0:0:0:
387,205,172277,1,0,0:0:0:0:
378,192,172361,1,0,0:0:0:0:
371,178,172444,1,0,0:0:0:0:
367,163,172527,1,0,0:0:0:0:
365,147,172611,1,0,0:0:0:0:
366,131,172694,1,0,0:0:0:0:
369,115,172777,1,0,0:0:0:0:
375,100,172861,1,0,0:0:0:0:
383,87,172944,1,0,0:0:0:0:
394,75,173027,1,0,0:0:0:0:
406,64,173111,1,0,0:0:0:0:
419,56,173194,1,0,0:0:0:0:
434,50,173277,1,0,0:0:0:0:
450,47,173361,1,0,0:0:0:0:
465,46,173444,1,0,0:0:0:0:
455,68,173527,1,0,0:0:0:0:
443,88,173610,1,0,0:0:0:0:
427,106,173694,1,0,0:0:0:0:
409,122,173777,1,0,0:0:0:0:
389,134,173860,1,0,0:0:0:0:
367,143,173944,1,0,0:0:0:0:
344,149,174027,1,0,0:0:0:0:
320,151,174110,1,0,0:0:0:0:
296,149,174194,1,0,0:0:0:0:
273,144,174277,1,0,0:0:0:0:
251,135,174360,1,0,0:0:0:0:
230,122,174444,1,0,0:0:0:0:
212,107,174527,1,0,0:0:0:0:
196,89,174610,1,0,0:0:0:0:
183,69,174694,1,0,0:0:0:0:
173,46,174778,1,0,0:0:0:0:
142,36,174861,1,0,0:0:0:0:
111,35,174944,1,0,0:0:0:0:
80,43,175028,1,0,0:0:0:0:
53,60,175111,1,0,0:0:0:0:
32,83,175194,1,0,0:0:0:0:
18,112,175278,1,0,0:0:0:0:
13,143,175361,1,0,0:0:0:0:
17,175,175444,1,0,0:0:0:0:
30,204,175528,1,0,0:0:0:0:
51,228,175611,1,0,0:0:0:0:
78,245,175694,1,0,0:0:0:0:
108,254,175778,1,0,0:0:0:0:
140,254,175861,1,0,0:0:0:0:
171,244,175944,1,0,0:0:0:0:
197,227,176028,1,0,0:0:0:0:
217,203,176111,1,0,0:0:0:0:
246,175,176194,1,0,0:0:0:0:
282,159,176277,1,0,0:0:0:0:
322,157,176361,1,0,0:0:0:0:
360,169,176444,1,0,0:0:0:0:
391,194,176527,1,0,0:0:0:0:
412,227,176611,1,0,0:0:0:0:
419,266,176694,1,0,0:0:0:0:
413,305,176777,1,0,0:0:0:0:
393,340,176861,1,0,0:0:0:0:
363,365,176944,1,0,0:0:0:0:
325,378,177027,1,0,0:0:0:0:
286,377,177111,1,0,0:0:0:0:
249,363,177194,1,0,0:0:0:0:
220,336,177277,1,0,0:0:0:0:
201,301,177361,1,0,0:0:0:0:
196,262,177444,1,0,0:0:0:0:
233,232,177527,1,0,0:0:0:0:
257,191,177610,1,0,0:0:0:0:
266,144,177694,1,0,0:0:0:0:
257,97,177777,1,0,0:0:0:0:
233,56,177860,1,0,0:0:0:0:
196,26,177944,1,0,0:0:0:0:
151,11,178027,1,0,0:0:0:0:
104,12,178110,1,0,0:0:0:0:
60,30,178194,1,0,0:0:0:0:
24,62,178277,1,0,0:0:0:0:
3,104,178360,1,0,0:0:0:0:
0,151,178444,1,0,0:0:0:0:
8,198,178527,1,0,0:0:0:0:
34,237,178610,1,0,0:0:0:0:
73,265,178694,1,0,0:0:0:0:
118,278,178778,5,12,0:0:0:0:
205,130,178945,2,0,L|273:130,1,42.5
334,278,179112,1,8,0:0:0:0:
421,130,179279,102,0,L|489:130,1,42.5
334,278,179445,2,0,L|291:278,1,42.5,8|0,0:0|0:0,0:0:0:0:
205,130,179612,1,0,0:0:0:0:
118,278,179779,1,8,0:0:0:0:
421,130,179945,5,0,0:0:0:0:
442,130,180028,1,0,0:0:0:0:
464,129,180111,6,0,P|482:179|470:268,1,127.500004863739,12|0,0:0|0:0,0:0:0:0:
367,330,180444,1,0,0:0:0:0:
275,69,180611,2,0,P|327:78|398:133,1,127.500004863739,8|0,0:0|0:0,0:0:0:0:
400,253,180944,1,8,0:0:0:0:
286,192,181111,1,0,0:0:0:0:
387,119,181278,1,8,0:0:0:0:
311,275,181444,6,0,L|173:270,1,127.500004863739,8|0,0:0|0:0,0:0:0:0:
130,189,181778,1,0,0:0:0:0:
138,379,181944,2,0,L|79:260,1,127.500004863739,8|0,0:0|0:0,0:0:0:0:
85,114,182278,1,8,0:0:0:0:
224,188,182444,1,0,0:0:0:0:
81,264,182611,1,8,0:0:0:0:
188,87,182778,6,0,P|137:22|53:10,1,127.500004863739,12|0,0:0|0:0,0:0:0:0:
97,173,183111,1,0,0:0:0:0:
224,209,183278,2,0,P|291:153|320:70,1,127.500004863739,8|0,0:0|0:0,0:0:0:0:
222,7,183611,1,8,0:0:0:0:
155,131,183778,1,0,0:0:0:0:
309,118,183944,1,8,0:0:0:0:
141,50,184111,6,0,L|9:54,1,127.500004863739,8|0,0:0|0:0,0:0:0:0:
188,142,184444,1,0,0:0:0:0:
64,228,184611,2,0,L|196:232,1,127.500004863739,8|0,0:0|0:0,0:0:0:0:
292,384,184944,1,8,0:0:0:0:
191,231,185111,1,0,0:0:0:0:
273,67,185278,1,8,0:0:0:0:
414,297,185444,6,0,L|268:289,1,127.500004863739,12|0,0:0|0:0,0:0:0:0:
190,333,185778,1,0,0:0:0:0:
164,113,185944,2,0,L|142:251,1,127.500004863739,8|0,0:0|0:0,0:0:0:0:
261,362,186278,1,8,0:0:0:0:
301,207,186444,1,0,0:0:0:0:
143,238,186611,1,8,0:0:0:0:
286,290,186778,6,0,P|382:299|442:272,1,127.500004863739,8|0,0:0|0:0,0:0:0:0:
492,182,187111,1,0,0:0:0:0:
343,197,187278,2,0,P|339:134|362:74,1,127.500004863739,8|0,0:0|0:0,0:0:0:0:
512,103,187611,1,8,0:0:0:0:
422,232,187778,1,0,0:0:0:0:
362,74,187944,1,8,0:0:0:0:
492,182,188111,6,0,L|496:338,1,127.500004863739,12|0,0:0|0:0,0:0:0:0:
397,158,188444,1,0,0:0:0:0:
394,360,188611,2,0,L|398:204,1,127.500004863739,8|0,0:0|0:0,0:0:0:0:
326,90,188944,1,8,0:0:0:0:
247,230,189111,1,0,0:0:0:0:
397,232,189278,1,8,0:0:0:0:
251,131,189444,6,0,P|156:115|110:131,1,127.500004863739,8|0,0:0|0:0,0:0:0:0:
52,222,189778,1,0,0:0:0:0:
205,330,189944,2,0,P|266:255|275:207,1,127.500004863739,8|0,0:0|0:0,0:0:0:0:
191,94,190278,1,8,0:0:0:0:
273,227,190444,1,0,0:0:0:0:
428,255,190611,1,8,0:0:0:0:
323,374,190778,6,0,P|242:346|170:348,1,127.500004863739,12|0,0:0|0:0,0:0:0:0:
81,375,191111,1,0,0:0:0:0:
288,277,191278,2,0,P|231:212|168:177,1,127.500004863739,8|0,0:0|0:0,0:0:0:0:
68,156,191611,1,8,0:0:0:0:
105,283,191778,1,0,0:0:0:0:
196,190,191944,1,8,0:0:0:0:
24,249,192111,6,0,L|17:384,1,127.500004863739,8|0,0:0|0:0,0:0:0:0:
151,304,192444,1,0,0:0:0:0:
152,165,192611,2,0,L|-5:158,1,127.500004863739,8|0,0:0|0:0,0:0:0:0:
42,4,192944,1,8,0:0:0:0:
151,91,193111,1,0,0:0:0:0:
24,159,193278,1,8,0:0:0:0:
126,14,193444,6,0,P|214:10|285:45,1,127.500004863739,12|0,0:0|0:0,0:0:0:0:
321,141,193778,1,0,0:0:0:0:
110,95,193944,2,0,P|188:135|232:201,1,127.500004863739,8|0,0:0|0:0,0:0:0:0:
215,302,194278,1,8,0:0:0:0:
106,230,194444,1,0,0:0:0:0:
213,164,194611,1,8,0:0:0:0:
131,329,194778,6,0,L|0:343,1,127.500004863739,8|0,0:0|0:0,0:0:0:0:
233,313,195111,1,0,0:0:0:0:
317,219,195278,2,0,L|448:205,1,127.500004863739,8|0,0:0|0:0,0:0:0:0:
215,235,195611,1,8,0:0:0:0:
339,303,195778,1,0,0:0:0:0:
443,205,195945,1,8,0:0:0:0:
326,123,196111,5,12,0:0:0:0:
318,122,196194,1,0,0:0:0:0:
310,121,196277,1,0,0:0:0:0:
302,121,196361,1,0,0:0:0:0:
294,120,196444,1,0,0:0:0:0:
286,119,196527,1,0,0:0:0:0:
278,119,196611,1,8,0:0:0:0:
270,118,196694,1,0,0:0:0:0:
262,118,196777,1,0,0:0:0:0:
254,117,196861,1,0,0:0:0:0:
246,116,196944,1,8,0:0:0:0:
238,116,197027,1,0,0:0:0:0:
230,115,197111,1,8,0:0:0:0:
222,114,197194,1,0,0:0:0:0:
214,114,197277,1,0,0:0:0:0:
206,113,197361,1,0,0:0:0:0:
199,113,197444,1,0,0:0:0:0:
207,126,197527,1,0,0:0:0:0:
213,141,197610,1,8,0:0:0:0:
216,156,197694,1,0,0:0:0:0:
216,172,197777,1,0,0:0:0:0:
213,188,197860,1,0,0:0:0:0:
207,203,197944,1,8,0:0:0:0:
199,216,198027,1,0,0:0:0:0:
188,227,198110,1,8,0:0:0:0:
175,237,198194,1,0,0:0:0:0:
160,243,198277,1,0,0:0:0:0:
145,247,198360,1,0,0:0:0:0:
129,248,198444,1,0,0:0:0:0:
113,245,198527,1,0,0:0:0:0:
98,240,198610,1,8,0:0:0:0:
85,232,198694,1,0,0:0:0:0:
73,223,198778,1,4,0:0:0:0:
114,199,198861,1,0,0:0:0:0:
160,188,198944,1,8,0:0:0:0:
208,188,199028,1,0,0:0:0:0:
254,200,199111,1,8,0:0:0:0:
295,224,199194,1,0,0:0:0:0:
329,258,199278,1,0,0:0:0:0:
353,299,199361,1,0,0:0:0:0:
365,342,199444,2,0,L|274:356,3,63.7500024318696,12|0|0|0,0:0|0:0|0:0|0:0,0:0:0:0:
449,268,199778,2,0,L|540:282,3,63.7500024318696,12|0|0|0,0:0|0:0|0:0|0:0,0:0:0:0:
339,148,200111,5,12,0:0:0:0:
431,112,200278,1,0,0:0:0:0:
341,245,200444,2,0,L|192:231,1,127.500004863739,8|0,0:0|0:0,0:0:0:0:
133,163,200778,1,8,0:0:0:0:
56,242,200944,2,0,L|65:371,1,127.500004863739,0|8,0:0|0:0,0:0:0:0:
150,317,201278,1,0,0:0:0:0:
223,370,201444,5,12,0:0:0:0:
302,317,201611,2,0,L|400:325,1,85,2|8,0:0|0:0,0:0:0:0:
439,236,201944,2,0,L|341:244,1,85,2|8,0:0|0:0,0:0:0:0:
295,152,202278,2,0,L|393:160,1,85,2|8,0:0|0:0,0:0:0:0:
255,71,202611,6,0,P|215:115|211:171,1,85,2|8,0:0|0:0,0:0:0:0:
214,289,202944,2,0,P|195:232|149:200,1,85,2|8,0:0|0:0,0:0:0:0:
66,219,203278,1,2,0:0:0:0:
130,285,203444,1,8,0:0:0:0:
6,287,203611,1,2,0:0:0:0:
69,137,203778,1,8,0:0:0:0:
4,52,203944,6,0,L|125:32,1,85,2|8,0:0|0:0,0:0:0:0:
234,117,204278,2,0,L|151:104,1,85,2|8,0:0|0:0,0:0:0:0:
282,40,204611,2,0,L|403:20,1,85,2|8,0:0|0:0,0:0:0:0:
512,105,204945,2,0,L|429:92,1,85,2|8,0:0|0:0,0:0:0:0:
426,177,205278,6,0,P|416:229|440:293,1,85,2|8,0:0|0:0,0:0:0:0:
356,381,205611,2,0,P|346:329|370:265,1,85,2|8,0:0|0:0,0:0:0:0:
288,177,205944,2,0,P|278:229|302:293,1,85,2|8,0:0|0:0,0:0:0:0:
218,381,206277,2,0,P|208:329|232:265,1,85,2|8,0:0|0:0,0:0:0:0:
147,217,206611,6,0,L|130:317,1,85,2|8,0:0|0:0,0:0:0:0:
99,139,206944,2,0,L|179:110,1,85,2|8,0:0|0:0,0:0:0:0:
288,85,207278,2,0,L|210:20,1,85,2|8,0:0|0:0,0:0:0:0:
379,83,207611,2,0,L|365:167,1,85,2|8,0:0|0:0,0:0:0:0:
465,263,207944,6,0,P|416:241|354:248,1,85,2|8,0:0|0:0,0:0:0:0:
248,294,208278,2,0,P|297:316|359:309,1,85,2|8,0:0|0:0,0:0:0:0:
231,199,208611,1,2,0:0:0:0:
151,276,208778,1,8,0:0:0:0:
203,367,208944,1,2,0:0:0:0:
151,189,209111,1,8,0:0:0:0:
234,114,209278,6,0,L|230:212,1,85,2|8,0:0|0:0,0:0:0:0:
84,100,209611,2,0,L|170:54,1,85,2|8,0:0|0:0,0:0:0:0:
147,237,209944,2,0,L|64:184,1,85,2|8,0:0|0:0,0:0:0:0:
234,114,210278,2,0,L|316:166,1,85,2|8,0:0|0:0,0:0:0:0:
315,265,210611,1,2,0:0:0:0:
394,74,210778,5,12,0:0:0:0:
394,74,211778,1,12,0:0:0:0:
447,166,211944,1,0,0:0:0:0:
341,167,212111,5,12,0:0:0:0:
266,221,212278,2,0,P|251:279|255:321,1,85,2|8,0:0|0:0,0:0:0:0:
168,364,212611,2,0,P|153:306|157:264,1,85,2|8,0:0|0:0,0:0:0:0:
70,221,212944,2,0,P|55:279|59:321,1,85,2|8,0:0|0:0,0:0:0:0:
159,184,213278,6,0,L|83:129,1,85,2|8,0:0|0:0,0:0:0:0:
223,18,213611,2,0,L|214:103,1,85,2|8,0:0|0:0,0:0:0:0:
342,167,213944,1,2,0:0:0:0:
251,176,214111,1,8,0:0:0:0:
332,81,214278,1,2,0:0:0:0:
430,154,214444,1,8,0:0:0:0:
353,253,214611,1,2,0:0:0:0:
401,340,214778,102,0,L|450:340,15,42.5,12|0|2|0|8|0|2|0|8|0|2|0|8|0|0|0,0:0|0:0|0:0|0:0|0:0|0:0|0:0|0:0|0:0|0:0|0:0|0:0|0:0|0:0|0:0|0:0,0:0:0:0:
293,272,216111,2,0,L|342:272,15,42.5,8|0|2|0|8|0|2|0|8|0|2|0|8|0|2|0,0:0|0:0|0:0|0:0|0:0|0:0|0:0|0:0|0:0|0:0|0:0|0:0|0:0|0:0|0:0|0:0,0:0:0:0:
212,345,217444,5,12,0:0:0:0:
206,345,217527,1,0,0:0:0:0:
201,344,217610,1,2,0:0:0:0:
196,344,217694,1,0,0:0:0:0:
190,343,217777,1,8,0:0:0:0:
185,342,217860,1,0,0:0:0:0:
180,341,217944,1,2,0:0:0:0:
175,339,218027,1,0,0:0:0:0:
170,338,218110,1,8,0:0:0:0:
165,335,218194,1,0,0:0:0:0:
160,333,218277,1,2,0:0:0:0:
156,330,218360,1,0,0:0:0:0:
151,327,218444,1,8,0:0:0:0:
147,324,218527,1,0,0:0:0:0:
143,321,218610,1,2,0:0:0:0:
139,317,218694,1,0,0:0:0:0:
135,312,218778,1,12,0:0:0:0:
139,296,218861,1,0,0:0:0:0:
143,281,218944,1,2,0:0:0:0:
144,265,219028,1,0,0:0:0:0:
144,249,219111,1,8,0:0:0:0:
141,233,219194,1,0,0:0:0:0:
137,218,219278,1,2,0:0:0:0:
132,203,219361,1,0,0:0:0:0:
125,189,219444,1,8,0:0:0:0:
116,175,219528,1,0,0:0:0:0:
106,163,219611,1,2,0:0:0:0:
94,152,219694,1,0,0:0:0:0:
81,143,219778,1,8,0:0:0:0:
68,134,219861,1,0,0:0:0:0:
53,128,219944,1,2,0:0:0:0:
38,123,220028,1,0,0:0:0:0:
21,119,220111,1,12,0:0:0:0:
31,137,220194,1,0,0:0:0:0:
44,154,220277,1,2,0:0:0:0:
58,169,220361,1,0,0:0:0:0:
75,183,220444,1,8,0:0:0:0:
93,194,220527,1,0,0:0:0:0:
112,202,220611,1,2,0:0:0:0:
133,208,220694,1,0,0:0:0:0:
154,212,220777,1,8,0:0:0:0:
175,212,220861,1,0,0:0:0:0:
196,210,220944,1,2,0:0:0:0:
217,206,221027,1,0,0:0:0:0:
237,199,221111,1,8,0:0:0:0:
256,189,221194,1,0,0:0:0:0:
273,177,221277,1,2,0:0:0:0:
289,162,221361,1,0,0:0:0:0:
297,150,221444,102,0,B|291:87|321:26|321:26|376:66|399:126|399:126|452:81|511:67|511:67|523:141|481:209,1,510.000019454957,12|0,0:0|0:0,0:0:0:0:
