osu file format v14

[General]
AudioFilename: EXIT TRANCE - Track 18 - .mp3
AudioLeadIn: 0
PreviewTime: 48127
Countdown: 0
SampleSet: Soft
StackLeniency: 0.7
Mode: 1
LetterboxInBreaks: 0
WidescreenStoryboard: 0

[Editor]
Bookmarks: 9877,12277,17077,26677,33877,36277,45877,48277
DistanceSpacing: 1
BeatDivisor: 2
GridSize: 32
TimelineZoom: 1.6

[Metadata]
Title:Chousai Kenbo Sengen
TitleUnicode:Chousai Kenbo Sengen
Artist:Hommarju Feat. R. Cena
ArtistUnicode:Hommarju Feat. R. Cena
Creator:BBB
Version:Futsuu
Source:Kyouran Kazoku Nikki
Tags:anime streams
BeatmapID:998227
BeatmapSetID:466448

[Difficulty]
HPDrainRate:3
CircleSize:2
OverallDifficulty:3.5
ApproachRate:10
SliderMultiplier:1.4
SliderTickRate:1

[Events]
//Background and Video events
0,0,"background.jpg",0,0
//Break Periods
//Storyboard Layer 0 (Background)
//Storyboard Layer 1 (Fail)
//Storyboard Layer 2 (Pass)
//Storyboard Layer 3 (Foreground)
//Storyboard Sound Samples

[TimingPoints]
277,300,4,2,0,100,1,0
65077,-100,4,2,0,100,0,1
89077,-100,4,2,0,100,0,0
137077,-100,4,2,0,100,0,1
161077,-100,4,2,0,100,0,0

[HitObjects]
256,192,277,5,0,0:0:0:0:
256,192,577,1,0,0:0:0:0:
256,192,877,1,0,0:0:0:0:
256,192,1477,1,0,0:0:0:0:
256,192,1627,1,0,0:0:0:0:
256,192,1777,1,0,0:0:0:0:
256,192,2077,1,0,0:0:0:0:
256,192,2677,1,0,0:0:0:0:
256,192,2977,1,0,0:0:0:0:
256,192,3277,1,0,0:0:0:0:
256,192,3877,1,0,0:0:0:0:
256,192,4027,1,0,0:0:0:0:
256,192,4177,1,0,0:0:0:0:
256,192,4477,1,0,0:0:0:0:
256,192,5077,1,0,0:0:0:0:
256,192,5377,1,0,0:0:0:0:
256,192,5677,1,0,0:0:0:0:
256,192,6277,1,0,0:0:0:0:
256,192,6427,1,0,0:0:0:0:
256,192,6577,1,0,0:0:0:0:
256,192,6877,1,0,0:0:0:0:
256,192,7477,1,0,0:0:0:0:
256,192,7777,1,0,0:0:0:0:
256,192,8077,1,0,0:0:0:0:
256,192,8377,1,0,0:0:0:0:
256,192,8677,1,0,0:0:0:0:
256,192,8827,1,0,0:0:0:0:
256,192,8977,1,0,0:0:0:0:
256,192,9277,1,0,0:0:0:0:
256,192,9427,1,0,0:0:0:0:
256,192,9577,1,8,0:0:0:0:
256,192,9877,1,12,0:0:0:0:
256,192,12277,1,4,0:0:0:0:
256,192,12727,1,12,0:0:0:0:
256,192,13477,1,4,0:0:0:0:
256,192,13927,1,12,0:0:0:0:
256,192,14677,1,4,0:0:0:0:
256,192,15127,1,12,0:0:0:0:
96,192,15877,2,0,L|384:192,2,280
224,192,17377,1,0,0:0:0:0:
224,192,17677,1,0,0:0:0:0:
224,192,17977,1,0,0:0:0:0:
352,192,18277,1,0,0:0:0:0:
256,224,18427,1,0,0:0:0:0:
256,224,18577,1,0,0:0:0:0:
256,224,18877,1,0,0:0:0:0:
384,160,19477,1,8,0:0:0:0:
288,192,19777,1,0,0:0:0:0:
288,192,20077,1,8,0:0:0:0:
160,192,20377,1,0,0:0:0:0:
256,192,20677,1,8,0:0:0:0:
256,192,20827,1,0,0:0:0:0:
256,192,20977,1,8,0:0:0:0:
256,192,21277,1,0,0:0:0:0:
256,192,21877,1,0,0:0:0:0:
256,192,22177,1,0,0:0:0:0:
256,192,22477,1,0,0:0:0:0:
256,192,22777,1,0,0:0:0:0:
256,192,23077,1,0,0:0:0:0:
256,192,23227,1,0,0:0:0:0:
256,192,23377,1,0,0:0:0:0:
256,192,23677,1,0,0:0:0:0:
256,192,24277,1,8,0:0:0:0:
256,192,24577,1,0,0:0:0:0:
256,192,24877,1,8,0:0:0:0:
256,192,25177,1,0,0:0:0:0:
256,192,25477,1,8,0:0:0:0:
256,192,25927,1,8,0:0:0:0:
256,192,26377,1,8,0:0:0:0:
256,192,26677,5,0,0:0:0:0:
256,192,26827,1,8,0:0:0:0:
256,192,26977,1,0,0:0:0:0:
256,192,27127,1,8,0:0:0:0:
256,224,27877,5,8,0:0:0:0:
256,224,28027,1,0,0:0:0:0:
256,224,28177,1,8,0:0:0:0:
256,224,28327,1,0,0:0:0:0:
256,224,29077,1,0,0:0:0:0:
256,224,29227,1,8,0:0:0:0:
256,224,29377,1,0,0:0:0:0:
256,224,29527,1,8,0:0:0:0:
256,224,30277,1,8,0:0:0:0:
256,224,30427,1,0,0:0:0:0:
256,224,30577,1,8,0:0:0:0:
256,224,30727,1,0,0:0:0:0:
256,224,31177,1,4,0:0:0:0:
256,224,31477,1,4,0:0:0:0:
256,224,32377,1,12,0:0:0:0:
256,224,32677,1,12,0:0:0:0:
256,192,33877,1,0,0:0:0:0:
256,192,34477,1,0,0:0:0:0:
256,192,35077,1,0,0:0:0:0:
256,192,35377,1,0,0:0:0:0:
256,192,35677,1,0,0:0:0:0:
256,192,35977,1,0,0:0:0:0:
256,192,36277,1,0,0:0:0:0:
256,192,36427,1,0,0:0:0:0:
256,192,36577,1,0,0:0:0:0:
256,192,36877,1,0,0:0:0:0:
256,192,37027,1,0,0:0:0:0:
256,192,37177,1,0,0:0:0:0:
256,192,37477,1,0,0:0:0:0:
256,192,37777,1,0,0:0:0:0:
256,192,38077,1,0,0:0:0:0:
256,192,38677,1,8,0:0:0:0:
256,192,38827,1,8,0:0:0:0:
256,192,38977,1,8,0:0:0:0:
256,192,39277,1,8,0:0:0:0:
256,192,39427,1,8,0:0:0:0:
256,192,39577,1,8,0:0:0:0:
256,192,39877,1,8,0:0:0:0:
256,192,40177,1,8,0:0:0:0:
256,192,40477,1,8,0:0:0:0:
256,192,41077,1,0,0:0:0:0:
256,192,41977,1,8,0:0:0:0:
256,192,42277,1,0,0:0:0:0:
256,224,42877,1,0,0:0:0:0:
256,192,43477,1,8,0:0:0:0:
256,192,43777,1,0,0:0:0:0:
256,192,44077,1,0,0:0:0:0:
256,192,44377,1,0,0:0:0:0:
256,192,44677,1,8,0:0:0:0:
256,192,44827,1,8,0:0:0:0:
256,192,45127,1,8,0:0:0:0:
256,192,45427,1,8,0:0:0:0:
256,192,45577,1,8,0:0:0:0:
256,192,45877,1,0,0:0:0:0:
256,192,46177,1,8,0:0:0:0:
256,192,46477,1,0,0:0:0:0:
256,192,46627,1,0,0:0:0:0:
256,192,46777,1,8,0:0:0:0:
256,192,47077,1,8,0:0:0:0:
256,192,47377,1,0,0:0:0:0:
256,192,47677,1,8,0:0:0:0:
256,192,47827,1,0,0:0:0:0:
256,192,47977,1,0,0:0:0:0:
256,192,48277,1,0,0:0:0:0:
256,192,48577,1,0,0:0:0:0:
256,192,48727,1,0,0:0:0:0:
256,192,49027,1,0,0:0:0:0:
256,192,49327,1,0,0:0:0:0:
256,192,49477,1,0,0:0:0:0:
256,192,49777,1,0,0:0:0:0:
256,192,49927,1,0,0:0:0:0:
288,192,50227,1,0,0:0:0:0:
256,192,50677,1,0,0:0:0:0:
256,192,50827,1,8,0:0:0:0:
256,192,51127,1,8,0:0:0:0:
256,192,51277,1,0,0:0:0:0:
256,192,51427,1,8,0:0:0:0:
256,192,51727,1,8,0:0:0:0:
256,192,51877,1,0,0:0:0:0:
256,192,52177,1,0,0:0:0:0:
256,192,52477,1,0,0:0:0:0:
256,192,53077,1,0,0:0:0:0:
256,192,53377,1,0,0:0:0:0:
256,192,53527,1,0,0:0:0:0:
256,192,53827,1,0,0:0:0:0:
256,192,54127,1,0,0:0:0:0:
256,192,54427,1,0,0:0:0:0:
256,192,54577,1,8,0:0:0:0:
256,192,54727,1,0,0:0:0:0:
256,192,55477,1,0,0:0:0:0:
256,192,55777,1,0,0:0:0:0:
256,192,56077,1,0,0:0:0:0:
256,192,56227,1,0,0:0:0:0:
256,192,56377,1,0,0:0:0:0:
256,192,56677,1,0,0:0:0:0:
256,192,56827,1,0,0:0:0:0:
256,192,56977,1,0,0:0:0:0:
256,192,57127,1,0,0:0:0:0:
256,192,57427,1,0,0:0:0:0:
256,192,57577,1,0,0:0:0:0:
256,192,57877,1,0,0:0:0:0:
256,192,58177,1,8,0:0:0:0:
256,192,58327,1,0,0:0:0:0:
256,192,58627,1,0,0:0:0:0:
256,192,58927,1,0,0:0:0:0:
256,192,59077,1,8,0:0:0:0:
256,192,59377,1,8,0:0:0:0:
256,192,59527,1,0,0:0:0:0:
256,192,59827,1,0,0:0:0:0:
256,192,60277,1,8,0:0:0:0:
256,192,60577,1,8,0:0:0:0:
256,192,60877,1,0,0:0:0:0:
256,192,61027,1,0,0:0:0:0:
256,192,61177,1,8,0:0:0:0:
256,192,61477,1,0,0:0:0:0:
256,192,61627,1,0,0:0:0:0:
256,192,61777,1,8,0:0:0:0:
256,192,61927,1,0,0:0:0:0:
256,192,62077,1,0,0:0:0:0:
256,192,62227,1,0,0:0:0:0:
256,192,62377,1,8,0:0:0:0:
256,192,62677,1,8,0:0:0:0:
256,192,62977,1,0,0:0:0:0:
256,192,63127,1,8,0:0:0:0:
256,192,63427,1,8,0:0:0:0:
256,192,63727,1,8,0:0:0:0:
256,192,64027,1,8,0:0:0:0:
256,192,64177,1,8,0:0:0:0:
256,192,64477,1,12,0:0:0:0:
256,192,64777,1,12,0:0:0:0:
256,192,65077,1,8,0:0:0:0:
256,192,65677,1,0,0:0:0:0:
256,192,65827,1,8,0:0:0:0:
256,192,65977,1,8,0:0:0:0:
256,192,66277,1,8,0:0:0:0:
256,192,66877,1,0,0:0:0:0:
256,192,67027,1,8,0:0:0:0:
256,192,67177,1,8,0:0:0:0:
256,192,67477,1,12,0:0:0:0:
256,192,67777,1,12,0:0:0:0:
256,192,68077,1,12,0:0:0:0:
256,192,68377,1,12,0:0:0:0:
256,192,68677,1,12,0:0:0:0:
256,192,68977,1,0,0:0:0:0:
256,192,69127,1,0,0:0:0:0:
256,192,69427,1,0,0:0:0:0:
256,192,69577,1,0,0:0:0:0:
256,192,69877,1,0,0:0:0:0:
256,192,70177,1,8,0:0:0:0:
256,192,70327,1,0,0:0:0:0:
256,192,70477,1,8,0:0:0:0:
256,192,70777,1,0,0:0:0:0:
256,192,71077,1,0,0:0:0:0:
256,192,71377,1,8,0:0:0:0:
256,192,71527,1,0,0:0:0:0:
256,192,71677,1,8,0:0:0:0:
256,192,71977,1,0,0:0:0:0:
256,192,72277,1,0,0:0:0:0:
256,192,72577,1,0,0:0:0:0:
256,192,72727,1,0,0:0:0:0:
256,192,73027,1,0,0:0:0:0:
256,192,73177,1,0,0:0:0:0:
256,192,73477,1,12,0:0:0:0:
256,192,73777,1,12,0:0:0:0:
256,192,74077,1,12,0:0:0:0:
256,192,74377,1,12,0:0:0:0:
256,192,74677,1,8,0:0:0:0:
256,192,74977,1,0,0:0:0:0:
256,192,75277,1,8,0:0:0:0:
256,192,75427,1,0,0:0:0:0:
256,192,75577,1,8,0:0:0:0:
256,192,75877,1,8,0:0:0:0:
256,192,76177,1,0,0:0:0:0:
256,192,76477,1,8,0:0:0:0:
256,192,76627,1,0,0:0:0:0:
256,192,76777,1,8,0:0:0:0:
256,192,77077,1,8,0:0:0:0:
256,192,77377,1,0,0:0:0:0:
256,192,77677,1,0,0:0:0:0:
256,192,77977,1,0,0:0:0:0:
256,192,78277,1,12,0:0:0:0:
256,192,78727,1,12,0:0:0:0:
256,192,79177,1,12,0:0:0:0:
256,192,79477,1,0,0:0:0:0:
256,192,79627,1,0,0:0:0:0:
256,192,79777,1,0,0:0:0:0:
256,192,80077,1,0,0:0:0:0:
256,192,80227,1,0,0:0:0:0:
256,192,80377,1,0,0:0:0:0:
256,192,80677,1,8,0:0:0:0:
256,192,80827,1,8,0:0:0:0:
256,192,80977,1,8,0:0:0:0:
256,192,81277,1,8,0:0:0:0:
256,192,81427,1,8,0:0:0:0:
256,192,81577,1,8,0:0:0:0:
256,192,81877,1,0,0:0:0:0:
256,192,82027,1,0,0:0:0:0:
256,192,82177,1,0,0:0:0:0:
256,192,82327,1,0,0:0:0:0:
256,192,82477,1,0,0:0:0:0:
256,192,82627,1,0,0:0:0:0:
256,192,82777,1,0,0:0:0:0:
256,192,82927,1,0,0:0:0:0:
256,192,83077,1,8,0:0:0:0:
256,192,83377,1,12,0:0:0:0:
256,192,83677,1,12,0:0:0:0:
256,192,83977,1,12,0:0:0:0:
64,192,84277,2,0,L|352:192,4,280
256,192,87577,5,0,0:0:0:0:
256,192,87877,1,12,0:0:0:0:
256,192,88327,1,12,0:0:0:0:
256,192,88777,1,12,0:0:0:0:
256,192,89077,1,12,0:0:0:0:
256,192,89377,1,8,0:0:0:0:
256,192,89677,1,8,0:0:0:0:
256,192,89827,1,8,0:0:0:0:
256,192,89977,1,8,0:0:0:0:
256,192,90277,1,8,0:0:0:0:
256,192,90577,1,8,0:0:0:0:
256,192,90877,1,8,0:0:0:0:
256,192,91477,1,0,0:0:0:0:
256,192,91627,1,0,0:0:0:0:
256,192,91777,1,0,0:0:0:0:
256,192,92077,1,0,0:0:0:0:
256,192,92227,1,0,0:0:0:0:
256,192,92377,1,0,0:0:0:0:
256,192,92677,1,0,0:0:0:0:
256,192,92977,1,0,0:0:0:0:
256,192,93277,1,8,0:0:0:0:
256,192,93877,1,8,0:0:0:0:
256,192,94177,1,8,0:0:0:0:
256,192,94477,1,8,0:0:0:0:
256,192,94777,1,8,0:0:0:0:
256,192,95077,1,8,0:0:0:0:
256,192,95227,1,8,0:0:0:0:
256,192,95377,1,8,0:0:0:0:
256,192,95677,1,8,0:0:0:0:
256,192,96277,1,0,0:0:0:0:
256,192,96577,1,8,0:0:0:0:
256,192,96877,1,0,0:0:0:0:
256,192,97177,1,8,0:0:0:0:
256,192,97477,1,0,0:0:0:0:
256,192,97627,1,0,0:0:0:0:
256,192,97777,1,0,0:0:0:0:
224,192,97927,1,0,0:0:0:0:
256,192,98077,1,0,0:0:0:0:
256,192,98227,1,0,0:0:0:0:
256,192,98377,1,0,0:0:0:0:
256,192,98677,1,4,0:0:0:0:
256,192,98977,1,0,0:0:0:0:
256,192,99127,1,0,0:0:0:0:
256,192,99277,1,0,0:0:0:0:
256,192,99877,1,4,0:0:0:0:
256,192,100177,1,0,0:0:0:0:
256,192,100327,1,0,0:0:0:0:
256,192,100477,1,0,0:0:0:0:
256,192,100777,1,0,0:0:0:0:
256,192,101077,1,4,0:0:0:0:
256,192,101377,1,0,0:0:0:0:
256,192,101677,1,0,0:0:0:0:
256,192,102277,1,12,0:0:0:0:
256,192,102577,1,8,0:0:0:0:
256,192,102877,1,8,0:0:0:0:
256,192,103477,1,4,0:0:0:0:
256,192,104377,1,12,0:0:0:0:
256,192,104677,1,4,0:0:0:0:
256,192,105877,1,8,0:0:0:0:
256,192,106177,1,0,0:0:0:0:
256,192,106477,1,8,0:0:0:0:
256,192,106777,1,0,0:0:0:0:
256,192,107077,1,8,0:0:0:0:
256,192,107377,1,8,0:0:0:0:
256,192,107677,1,8,0:0:0:0:
256,192,108277,1,0,0:0:0:0:
256,192,108577,1,8,0:0:0:0:
256,192,108877,1,0,0:0:0:0:
256,192,109177,1,8,0:0:0:0:
256,192,109477,1,0,0:0:0:0:
256,192,109777,1,8,0:0:0:0:
256,192,110077,1,0,0:0:0:0:
256,192,110377,1,0,0:0:0:0:
256,192,110677,1,0,0:0:0:0:
256,192,110977,1,8,0:0:0:0:
256,192,111277,1,0,0:0:0:0:
256,192,111577,1,8,0:0:0:0:
256,192,111877,1,8,0:0:0:0:
256,192,112027,1,8,0:0:0:0:
256,192,112327,1,8,0:0:0:0:
256,192,112777,1,12,0:0:0:0:
256,192,113077,1,12,0:0:0:0:
256,192,113977,1,4,0:0:0:0:
256,192,114277,1,4,0:0:0:0:
256,192,115477,1,0,0:0:0:0:
256,192,115627,1,0,0:0:0:0:
256,192,115777,1,0,0:0:0:0:
256,192,116077,1,0,0:0:0:0:
256,192,116377,1,0,0:0:0:0:
256,192,116677,1,8,0:0:0:0:
256,192,116827,1,8,0:0:0:0:
256,192,117127,1,8,0:0:0:0:
256,192,117427,1,8,0:0:0:0:
256,192,117577,1,8,0:0:0:0:
256,192,117877,1,0,0:0:0:0:
256,192,118177,1,8,0:0:0:0:
256,192,118477,1,0,0:0:0:0:
256,192,118627,1,0,0:0:0:0:
256,192,118777,1,8,0:0:0:0:
256,192,119077,1,0,0:0:0:0:
256,192,119227,1,0,0:0:0:0:
256,192,119377,1,0,0:0:0:0:
256,192,119527,1,0,0:0:0:0:
256,192,119827,1,0,0:0:0:0:
256,192,119977,1,0,0:0:0:0:
256,192,120277,1,8,0:0:0:0:
256,192,120577,1,8,0:0:0:0:
256,192,120727,1,8,0:0:0:0:
256,192,121027,1,8,0:0:0:0:
256,192,121327,1,8,0:0:0:0:
256,192,121477,1,8,0:0:0:0:
256,192,121777,1,8,0:0:0:0:
256,192,121927,1,8,0:0:0:0:
256,192,122227,1,8,0:0:0:0:
256,192,122677,1,0,0:0:0:0:
256,192,122827,1,0,0:0:0:0:
256,192,122977,1,0,0:0:0:0:
256,192,123127,1,0,0:0:0:0:
256,192,123277,1,0,0:0:0:0:
256,192,123577,1,8,0:0:0:0:
256,192,123877,1,0,0:0:0:0:
256,192,124027,1,0,0:0:0:0:
256,192,124177,1,0,0:0:0:0:
256,192,124477,1,8,0:0:0:0:
256,192,124627,1,8,0:0:0:0:
256,192,124777,1,8,0:0:0:0:
256,192,125077,1,8,0:0:0:0:
256,192,125527,1,8,0:0:0:0:
256,192,125827,1,0,0:0:0:0:
256,192,126277,1,8,0:0:0:0:
256,192,126727,1,8,0:0:0:0:
256,192,127177,1,0,0:0:0:0:
256,192,127477,1,0,0:0:0:0:
256,192,127627,1,8,0:0:0:0:
256,192,127927,1,8,0:0:0:0:
256,192,128077,1,0,0:0:0:0:
224,192,128227,1,8,0:0:0:0:
256,192,128527,1,8,0:0:0:0:
256,192,128677,1,0,0:0:0:0:
256,192,128827,1,8,0:0:0:0:
256,192,128977,1,0,0:0:0:0:
256,192,129127,1,8,0:0:0:0:
256,192,129577,1,8,0:0:0:0:
256,192,129877,1,8,0:0:0:0:
256,192,130177,1,0,0:0:0:0:
256,192,130327,1,0,0:0:0:0:
256,192,130627,1,0,0:0:0:0:
256,192,130927,1,0,0:0:0:0:
256,192,131077,1,0,0:0:0:0:
256,192,131377,1,0,0:0:0:0:
256,192,131527,1,0,0:0:0:0:
256,192,131827,1,0,0:0:0:0:
256,192,132277,1,0,0:0:0:0:
256,192,132577,1,0,0:0:0:0:
256,192,132877,1,0,0:0:0:0:
256,192,133027,1,0,0:0:0:0:
256,192,133177,1,0,0:0:0:0:
256,192,133477,1,8,0:0:0:0:
256,192,133627,1,0,0:0:0:0:
256,192,133777,1,8,0:0:0:0:
256,192,133927,1,0,0:0:0:0:
256,192,134077,1,8,0:0:0:0:
256,192,134377,1,0,0:0:0:0:
256,192,134677,1,12,0:0:0:0:
256,192,135127,1,12,0:0:0:0:
256,192,135577,1,12,0:0:0:0:
256,192,135877,1,4,0:0:0:0:
256,192,136177,1,4,0:0:0:0:
256,192,136477,1,4,0:0:0:0:
256,192,136777,1,4,0:0:0:0:
256,192,137077,1,8,0:0:0:0:
256,192,137377,1,0,0:0:0:0:
256,192,137677,1,8,0:0:0:0:
256,192,137977,1,8,0:0:0:0:
256,192,138277,1,8,0:0:0:0:
256,192,138577,1,0,0:0:0:0:
256,192,138877,1,8,0:0:0:0:
256,192,139027,1,0,0:0:0:0:
256,192,139177,1,8,0:0:0:0:
256,192,139477,1,12,0:0:0:0:
256,192,139777,1,4,0:0:0:0:
256,192,140077,1,4,0:0:0:0:
256,192,140377,1,12,0:0:0:0:
256,192,140677,1,12,0:0:0:0:
256,192,140977,1,0,0:0:0:0:
256,192,141127,1,0,0:0:0:0:
256,192,141427,1,0,0:0:0:0:
256,192,141577,1,0,0:0:0:0:
256,192,141877,1,8,0:0:0:0:
256,192,142177,1,0,0:0:0:0:
256,192,142327,1,0,0:0:0:0:
256,192,142477,1,0,0:0:0:0:
256,192,142777,1,0,0:0:0:0:
256,192,143077,1,8,0:0:0:0:
256,192,143377,1,0,0:0:0:0:
256,192,143527,1,0,0:0:0:0:
256,192,143677,1,0,0:0:0:0:
256,192,143977,1,0,0:0:0:0:
256,192,144277,1,8,0:0:0:0:
256,192,144577,1,8,0:0:0:0:
256,192,144877,1,8,0:0:0:0:
256,192,145177,1,8,0:0:0:0:
256,192,145477,1,8,0:0:0:0:
256,192,145627,1,8,0:0:0:0:
256,192,145777,1,8,0:0:0:0:
256,192,146077,1,8,0:0:0:0:
256,192,146377,1,8,0:0:0:0:
256,192,146677,1,12,0:0:0:0:
256,192,147277,1,0,0:0:0:0:
256,192,147427,1,0,0:0:0:0:
256,192,147577,1,8,0:0:0:0:
256,192,147877,1,12,0:0:0:0:
256,192,148477,1,0,0:0:0:0:
256,192,148627,1,8,0:0:0:0:
256,192,148777,1,8,0:0:0:0:
256,192,149077,1,12,0:0:0:0:
256,192,149377,1,12,0:0:0:0:
256,192,149677,1,12,0:0:0:0:
256,192,149977,1,12,0:0:0:0:
256,192,150277,1,12,0:0:0:0:
256,192,151477,1,8,0:0:0:0:
256,192,151777,1,0,0:0:0:0:
256,192,151927,1,0,0:0:0:0:
256,192,152077,1,0,0:0:0:0:
256,192,152377,1,0,0:0:0:0:
256,192,152677,1,8,0:0:0:0:
256,192,152977,1,0,0:0:0:0:
256,192,153127,1,0,0:0:0:0:
256,192,153277,1,0,0:0:0:0:
256,192,153577,1,0,0:0:0:0:
256,192,153877,1,4,0:0:0:0:
256,192,154327,1,4,0:0:0:0:
256,192,154777,1,4,0:0:0:0:
256,192,155077,1,0,0:0:0:0:
256,192,155227,1,0,0:0:0:0:
256,192,155377,1,0,0:0:0:0:
256,192,155527,1,0,0:0:0:0:
256,192,155677,1,0,0:0:0:0:
256,192,155827,1,0,0:0:0:0:
256,192,155977,1,8,0:0:0:0:
128,192,156277,2,0,L|416:192,4,280
224,192,159577,1,12,0:0:0:0:
256,192,159877,5,12,0:0:0:0:
256,192,160327,1,12,0:0:0:0:
256,192,160777,1,12,0:0:0:0:
256,192,161077,1,12,0:0:0:0:
