osu file format v14

[General]
AudioFilename: audio.ogg
AudioLeadIn: 0
PreviewTime: 81940
Countdown: 0
SampleSet: Soft
StackLeniency: 0.7
Mode: 3
LetterboxInBreaks: 0
SpecialStyle: 0
WidescreenStoryboard: 1

[Editor]
DistanceSpacing: 1.7
BeatDivisor: 4
GridSize: 16
TimelineZoom: 1.7

[Metadata]
Title:Slluuddggee
TitleUnicode:Slluuddggee
Artist:Hommarju
ArtistUnicode:Hommarju
Creator:ShibePlanet
Version:Noorrmmaall
Source:jubeat prop
Tags:electronic instrumental オマージュ sludge jb jubeat plus bemani chordjack cj
BeatmapID:4027096
BeatmapSetID:1946487

[Difficulty]
HPDrainRate:7.5
CircleSize:4
OverallDifficulty:7
ApproachRate:5
SliderMultiplier:1.4
SliderTickRate:1

[Events]
//Background and Video events
0,0,"bg.png",0,0
//Break Periods
//Storyboard Layer 0 (Background)
//Storyboard Layer 1 (Fail)
//Storyboard Layer 2 (Pass)
//Storyboard Layer 3 (Foreground)
//Storyboard Layer 4 (Overlay)
//Storyboard Sound Samples

[TimingPoints]
993,722.89156626506,4,2,1,75,1,0
993,-47.8468899521531,4,2,1,75,0,0
1708,674.157303370787,4,2,1,75,1,0
1708,-51.0204081632653,4,2,1,75,0,0
2382,612.244897959184,4,2,1,75,1,0
2382,-56.1797752808989,4,2,1,75,0,0
2994,571.428571428571,4,2,1,75,1,0
2994,-60.6060606060606,4,2,1,75,0,0
3565,526.315789473684,4,2,1,75,1,0
3565,-65.7894736842105,4,2,1,75,0,0
4091,495.867768595041,4,2,1,75,1,0
4091,-69.9300699300699,4,2,1,75,0,0
4586,480,4,2,1,75,1,0
4586,-71.9424460431655,4,2,1,75,0,0
5066,458.015267175573,4,2,1,75,1,0
5066,-75.187969924812,4,2,1,75,0,0
5524,441.176470588235,4,2,1,75,1,0
5524,-78.125,4,2,1,75,0,0
5965,434.782608695652,4,2,1,75,1,0
5965,-79.3650793650794,4,2,1,75,0,0
6399,425.531914893617,4,2,1,75,1,0
6399,-81.3008130081301,4,2,1,75,0,0
6824,419.58041958042,4,2,1,75,1,0
6824,-82.6446280991736,4,2,1,75,0,0
7243,408.163265306122,4,2,1,75,1,0
7243,-84.7457627118644,4,2,1,75,0,0
7651,400,4,2,1,75,1,0
7651,-86.2068965517241,4,2,1,75,0,0
8851,387.096774193548,4,2,1,75,1,0
8851,-89.2857142857143,4,2,1,75,0,0
9238,368.098159509202,4,2,1,75,1,0
9238,-94.3396226415094,4,2,1,75,0,0
10342,359.281437125748,4,2,1,75,1,0
10342,-96.1538461538461,4,2,1,75,0,0
11779,352.941176470588,4,2,1,75,1,0
11779,-98.0392156862745,4,2,1,75,0,0
13190,344.827586206897,4,2,1,75,1,0
25603,-100,4,2,1,75,0,1
36638,-100,4,2,1,75,0,0
47672,-100,4,2,1,75,0,1
58707,722.89156626506,4,2,1,75,1,0
58707,-47.8468899521531,4,2,1,75,0,0
59429,674.157303370787,4,2,1,75,1,0
59429,-51.0204081632653,4,2,1,75,0,0
60103,612.244897959184,4,2,1,75,1,0
60103,-56.1797752808989,4,2,1,75,0,0
60715,571.428571428571,4,2,1,75,1,0
60715,-60.6060606060606,4,2,1,75,0,0
61286,526.315789473684,4,2,1,75,1,0
61286,-65.7894736842105,4,2,1,75,0,0
61812,495.867768595041,4,2,1,75,1,0
61812,-69.9300699300699,4,2,1,75,0,0
62307,480,4,2,1,75,1,0
62307,-71.9424460431655,4,2,1,75,0,0
62787,458.015267175573,4,2,1,75,1,0
62787,-75.187969924812,4,2,1,75,0,0
63245,441.176470588235,4,2,1,75,1,0
63245,-78.125,4,2,1,75,0,0
63686,434.782608695652,4,2,1,75,1,0
63686,-79.3650793650794,4,2,1,75,0,0
64120,425.531914893617,4,2,1,75,1,0
64120,-81.3008130081301,4,2,1,75,0,0
64545,419.58041958042,4,2,1,75,1,0
64545,-82.6446280991736,4,2,1,75,0,0
64964,408.163265306122,4,2,1,75,1,0
64964,-84.7457627118644,4,2,1,75,0,0
65372,400,4,2,1,75,1,0
65372,-86.2068965517241,4,2,1,75,0,0
66572,387.096774193548,4,2,1,75,1,0
66572,-89.2857142857143,4,2,1,75,0,0
66959,368.098159509202,4,2,1,75,1,0
66959,-94.3396226415094,4,2,1,75,0,0
68063,359.281437125748,4,2,1,75,1,0
68063,-96.1538461538461,4,2,1,75,0,0
69500,352.941176470588,4,2,1,75,1,0
69500,-98.0392156862745,4,2,1,75,0,0
70911,344.827586206897,4,2,1,75,1,0
83324,-100,4,2,1,75,0,1
94014,-100,4,2,1,75,0,0
94359,-100,4,2,1,75,0,1
105393,-100,4,2,1,75,0,0

[HitObjects]
64,192,993,5,0,0:0:0:0:
448,192,993,1,0,0:0:0:0:
448,192,1708,1,0,0:0:0:0:
320,192,2382,1,0,0:0:0:0:
192,192,2994,1,0,0:0:0:0:
64,192,3565,1,0,0:0:0:0:
448,192,4091,1,0,0:0:0:0:
320,192,4586,1,0,0:0:0:0:
192,192,5066,1,0,0:0:0:0:
448,192,5524,1,0,0:0:0:0:
320,192,5524,1,0,0:0:0:0:
64,192,5965,1,0,0:0:0:0:
192,192,6399,1,0,0:0:0:0:
320,192,6824,1,0,0:0:0:0:
448,192,7243,1,0,0:0:0:0:
64,192,7651,1,0,0:0:0:0:
192,192,8051,1,0,0:0:0:0:
320,192,8451,1,0,0:0:0:0:
64,192,8851,1,0,0:0:0:0:
192,192,8851,1,0,0:0:0:0:
320,192,9238,1,0,0:0:0:0:
192,192,9606,1,0,0:0:0:0:
448,192,9974,1,0,0:0:0:0:
64,192,10342,1,0,0:0:0:0:
320,192,10701,1,0,0:0:0:0:
448,192,11060,1,0,0:0:0:0:
64,192,11419,1,0,0:0:0:0:
192,192,11779,1,0,0:0:0:0:
448,192,11779,1,0,0:0:0:0:
320,192,12131,1,0,0:0:0:0:
192,192,12484,1,0,0:0:0:0:
64,192,12837,1,0,0:0:0:0:
448,192,13190,1,0,0:0:0:0:
64,192,13534,1,0,0:0:0:0:
192,192,13879,1,0,0:0:0:0:
320,192,14224,1,0,0:0:0:0:
64,192,14569,1,0,0:0:0:0:
448,192,14569,1,0,0:0:0:0:
192,192,14741,1,0,0:0:0:0:
320,192,14914,1,0,0:0:0:0:
448,192,15258,1,0,0:0:0:0:
192,192,15431,1,0,0:0:0:0:
64,192,15603,1,0,0:0:0:0:
192,192,15948,1,0,0:0:0:0:
320,192,16121,1,0,0:0:0:0:
448,192,16293,1,0,0:0:0:0:
64,192,16638,1,0,0:0:0:0:
320,192,16810,1,0,0:0:0:0:
192,192,16896,1,0,0:0:0:0:
448,192,16983,1,0,0:0:0:0:
64,192,17155,1,0,0:0:0:0:
320,192,17327,1,0,0:0:0:0:
448,192,17327,1,0,0:0:0:0:
64,192,17500,1,0,0:0:0:0:
192,192,17672,1,0,0:0:0:0:
448,192,18017,1,0,0:0:0:0:
320,192,18190,1,0,0:0:0:0:
64,192,18362,1,0,0:0:0:0:
192,192,18707,1,0,0:0:0:0:
448,192,18879,1,0,0:0:0:0:
320,192,19052,1,0,0:0:0:0:
64,192,19396,1,0,0:0:0:0:
448,192,19569,1,0,0:0:0:0:
320,192,19655,1,0,0:0:0:0:
192,192,19741,1,0,0:0:0:0:
320,192,19914,1,0,0:0:0:0:
448,192,20086,1,0,0:0:0:0:
64,192,20086,1,0,0:0:0:0:
192,192,20345,1,0,0:0:0:0:
320,192,20431,1,0,0:0:0:0:
448,192,20603,1,0,0:0:0:0:
192,192,20776,1,0,0:0:0:0:
320,192,20776,1,0,0:0:0:0:
320,192,21034,1,0,0:0:0:0:
192,192,21121,1,0,0:0:0:0:
64,192,21293,1,0,0:0:0:0:
448,192,21465,1,0,0:0:0:0:
192,192,21465,1,0,0:0:0:0:
192,192,21724,1,0,0:0:0:0:
320,192,21810,1,0,0:0:0:0:
448,192,21983,1,0,0:0:0:0:
64,192,22155,1,0,0:0:0:0:
320,192,22155,1,0,0:0:0:0:
320,192,22414,1,0,0:0:0:0:
192,192,22500,1,0,0:0:0:0:
64,192,22672,1,0,0:0:0:0:
320,192,22845,1,0,0:0:0:0:
192,192,22845,1,0,0:0:0:0:
64,192,23017,1,0,0:0:0:0:
192,192,23190,1,0,0:0:0:0:
320,192,23362,1,0,0:0:0:0:
448,192,23534,1,0,0:0:0:0:
320,192,23707,1,0,0:0:0:0:
192,192,23879,1,0,0:0:0:0:
64,192,24052,1,0,0:0:0:0:
320,192,24224,1,0,0:0:0:0:
448,192,24224,1,0,0:0:0:0:
64,192,24569,128,0,24827:0:0:0:0:
192,192,24827,128,0,25172:0:0:0:0:
448,192,25172,128,0,25431:0:0:0:0:
320,192,25603,1,0,0:0:0:0:
64,192,25603,1,0,0:0:0:0:
192,192,25948,1,0,0:0:0:0:
448,192,25948,1,0,0:0:0:0:
320,192,26121,1,0,0:0:0:0:
192,192,26293,1,0,0:0:0:0:
64,192,26465,1,0,0:0:0:0:
448,192,26465,1,0,0:0:0:0:
320,192,26638,1,0,0:0:0:0:
192,192,26638,1,0,0:0:0:0:
448,192,26983,1,0,0:0:0:0:
192,192,26983,1,0,0:0:0:0:
320,192,27155,1,0,0:0:0:0:
64,192,27327,1,0,0:0:0:0:
192,192,27327,1,0,0:0:0:0:
448,192,27500,1,0,0:0:0:0:
320,192,27500,1,0,0:0:0:0:
64,192,27672,1,0,0:0:0:0:
320,192,27845,1,0,0:0:0:0:
448,192,27845,1,0,0:0:0:0:
64,192,28017,1,0,0:0:0:0:
192,192,28017,1,0,0:0:0:0:
320,192,28190,1,0,0:0:0:0:
448,192,28362,1,0,0:0:0:0:
64,192,28362,1,0,0:0:0:0:
448,192,28707,1,0,0:0:0:0:
192,192,28707,1,0,0:0:0:0:
320,192,28879,1,0,0:0:0:0:
192,192,29052,1,0,0:0:0:0:
320,192,29224,1,0,0:0:0:0:
64,192,29224,1,0,0:0:0:0:
192,192,29396,1,0,0:0:0:0:
448,192,29396,1,0,0:0:0:0:
64,192,29741,1,0,0:0:0:0:
448,192,29741,1,0,0:0:0:0:
320,192,30000,1,0,0:0:0:0:
192,192,30086,1,0,0:0:0:0:
320,192,30258,1,0,0:0:0:0:
448,192,30258,1,0,0:0:0:0:
192,192,30431,1,0,0:0:0:0:
64,192,30431,1,0,0:0:0:0:
64,192,30603,1,0,0:0:0:0:
192,192,30603,1,0,0:0:0:0:
448,192,30776,128,0,31121:0:0:0:0:
320,192,30776,1,0,0:0:0:0:
64,192,31121,1,0,0:0:0:0:
192,192,31121,1,0,0:0:0:0:
448,192,31465,1,0,0:0:0:0:
64,192,31465,1,0,0:0:0:0:
192,192,31638,1,0,0:0:0:0:
448,192,31810,1,0,0:0:0:0:
192,192,31983,1,0,0:0:0:0:
320,192,31983,1,0,0:0:0:0:
448,192,32155,1,0,0:0:0:0:
64,192,32155,1,0,0:0:0:0:
320,192,32500,1,0,0:0:0:0:
64,192,32500,1,0,0:0:0:0:
192,192,32672,1,0,0:0:0:0:
320,192,32845,1,0,0:0:0:0:
448,192,32845,1,0,0:0:0:0:
64,192,33017,1,0,0:0:0:0:
192,192,33017,1,0,0:0:0:0:
320,192,33190,1,0,0:0:0:0:
448,192,33362,1,0,0:0:0:0:
64,192,33362,1,0,0:0:0:0:
192,192,33534,1,0,0:0:0:0:
320,192,33534,1,0,0:0:0:0:
448,192,33707,1,0,0:0:0:0:
64,192,33879,1,0,0:0:0:0:
192,192,33879,1,0,0:0:0:0:
448,192,34224,1,0,0:0:0:0:
320,192,34224,1,0,0:0:0:0:
192,192,34396,1,0,0:0:0:0:
320,192,34569,1,0,0:0:0:0:
448,192,34741,1,0,0:0:0:0:
64,192,34741,1,0,0:0:0:0:
192,192,34914,1,0,0:0:0:0:
320,192,34914,1,0,0:0:0:0:
320,192,35258,1,0,0:0:0:0:
64,192,35258,1,0,0:0:0:0:
192,192,35517,1,0,0:0:0:0:
320,192,35603,1,0,0:0:0:0:
192,192,35776,1,0,0:0:0:0:
64,192,35776,1,0,0:0:0:0:
320,192,35948,1,0,0:0:0:0:
448,192,35948,1,0,0:0:0:0:
448,192,36121,1,0,0:0:0:0:
320,192,36121,1,0,0:0:0:0:
64,192,36293,128,0,36638:0:0:0:0:
192,192,36293,1,0,0:0:0:0:
320,192,36638,1,0,0:0:0:0:
448,192,36638,1,0,0:0:0:0:
192,192,36983,1,0,0:0:0:0:
192,192,37155,1,0,0:0:0:0:
64,192,37327,1,0,0:0:0:0:
448,192,37327,1,0,0:0:0:0:
320,192,37672,1,0,0:0:0:0:
320,192,37845,1,0,0:0:0:0:
64,192,38017,1,0,0:0:0:0:
448,192,38017,1,0,0:0:0:0:
448,192,38362,1,0,0:0:0:0:
448,192,38534,1,0,0:0:0:0:
64,192,38707,1,0,0:0:0:0:
192,192,38707,1,0,0:0:0:0:
64,192,39052,1,0,0:0:0:0:
64,192,39224,1,0,0:0:0:0:
320,192,39396,1,0,0:0:0:0:
448,192,39396,1,0,0:0:0:0:
192,192,39741,1,0,0:0:0:0:
320,192,39741,1,0,0:0:0:0:
64,192,40086,1,0,0:0:0:0:
320,192,40086,1,0,0:0:0:0:
192,192,40431,1,0,0:0:0:0:
448,192,40431,1,0,0:0:0:0:
192,192,40776,1,0,0:0:0:0:
320,192,40776,1,0,0:0:0:0:
448,192,41810,1,0,0:0:0:0:
320,192,41810,1,0,0:0:0:0:
64,192,42155,1,0,0:0:0:0:
448,192,42155,1,0,0:0:0:0:
192,192,42414,1,0,0:0:0:0:
320,192,42500,1,0,0:0:0:0:
448,192,42672,1,0,0:0:0:0:
320,192,42845,1,0,0:0:0:0:
192,192,42845,1,0,0:0:0:0:
320,192,43103,1,0,0:0:0:0:
192,192,43190,1,0,0:0:0:0:
64,192,43362,1,0,0:0:0:0:
448,192,43534,1,0,0:0:0:0:
192,192,43534,1,0,0:0:0:0:
192,192,43793,1,0,0:0:0:0:
320,192,43879,1,0,0:0:0:0:
448,192,44052,1,0,0:0:0:0:
320,192,44224,1,0,0:0:0:0:
64,192,44224,1,0,0:0:0:0:
320,192,44483,1,0,0:0:0:0:
192,192,44569,1,0,0:0:0:0:
64,192,44741,1,0,0:0:0:0:
192,192,44914,1,0,0:0:0:0:
320,192,44914,1,0,0:0:0:0:
448,192,45086,1,0,0:0:0:0:
320,192,45258,1,0,0:0:0:0:
64,192,45431,1,0,0:0:0:0:
192,192,45603,1,0,0:0:0:0:
320,192,45776,1,0,0:0:0:0:
448,192,45948,1,0,0:0:0:0:
192,192,46121,1,0,0:0:0:0:
448,192,46293,1,0,0:0:0:0:
64,192,46293,1,0,0:0:0:0:
448,192,46638,128,0,46896:0:0:0:0:
320,192,46896,128,0,47241:0:0:0:0:
192,192,47241,128,0,47500:0:0:0:0:
64,192,47672,1,0,0:0:0:0:
448,192,47672,1,0,0:0:0:0:
64,192,48017,1,0,0:0:0:0:
320,192,48017,1,0,0:0:0:0:
192,192,48276,1,0,0:0:0:0:
320,192,48534,1,0,0:0:0:0:
448,192,48534,1,0,0:0:0:0:
64,192,48793,1,0,0:0:0:0:
192,192,49052,1,0,0:0:0:0:
320,192,49052,1,0,0:0:0:0:
448,192,49310,1,0,0:0:0:0:
64,192,49569,1,0,0:0:0:0:
192,192,49569,1,0,0:0:0:0:
320,192,49827,1,0,0:0:0:0:
192,192,50086,1,0,0:0:0:0:
64,192,50086,1,0,0:0:0:0:
320,192,50258,1,0,0:0:0:0:
448,192,50258,1,0,0:0:0:0:
192,192,50431,1,0,0:0:0:0:
64,192,50431,1,0,0:0:0:0:
64,192,50776,1,0,0:0:0:0:
448,192,50776,1,0,0:0:0:0:
320,192,51034,1,0,0:0:0:0:
192,192,51293,1,0,0:0:0:0:
64,192,51293,1,0,0:0:0:0:
448,192,51552,1,0,0:0:0:0:
320,192,51810,1,0,0:0:0:0:
192,192,51810,1,0,0:0:0:0:
64,192,52069,1,0,0:0:0:0:
320,192,52327,1,0,0:0:0:0:
448,192,52327,1,0,0:0:0:0:
64,192,52586,1,0,0:0:0:0:
192,192,52845,1,0,0:0:0:0:
448,192,52845,1,0,0:0:0:0:
320,192,53017,1,0,0:0:0:0:
64,192,53017,1,0,0:0:0:0:
192,192,53190,1,0,0:0:0:0:
448,192,53190,1,0,0:0:0:0:
64,192,53534,1,0,0:0:0:0:
448,192,53534,1,0,0:0:0:0:
320,192,53793,1,0,0:0:0:0:
64,192,54052,1,0,0:0:0:0:
192,192,54052,1,0,0:0:0:0:
448,192,54310,1,0,0:0:0:0:
320,192,54569,1,0,0:0:0:0:
64,192,54569,1,0,0:0:0:0:
192,192,54827,1,0,0:0:0:0:
320,192,55086,1,0,0:0:0:0:
448,192,55086,1,0,0:0:0:0:
64,192,55345,1,0,0:0:0:0:
448,192,55603,1,0,0:0:0:0:
320,192,55603,1,0,0:0:0:0:
192,192,55776,1,0,0:0:0:0:
64,192,55776,1,0,0:0:0:0:
320,192,55948,1,0,0:0:0:0:
448,192,55948,1,0,0:0:0:0:
64,192,56293,1,0,0:0:0:0:
448,192,56293,1,0,0:0:0:0:
192,192,56552,1,0,0:0:0:0:
320,192,56810,1,0,0:0:0:0:
448,192,56810,1,0,0:0:0:0:
64,192,57069,1,0,0:0:0:0:
192,192,57327,1,0,0:0:0:0:
448,192,57327,1,0,0:0:0:0:
320,192,57586,1,0,0:0:0:0:
192,192,57845,1,0,0:0:0:0:
64,192,57845,1,0,0:0:0:0:
448,192,58103,1,0,0:0:0:0:
320,192,58362,5,0,0:0:0:0:
192,192,58362,1,0,0:0:0:0:
64,192,58534,1,0,0:0:0:0:
448,192,58534,1,0,0:0:0:0:
192,192,58707,1,0,0:0:0:0:
320,192,58707,1,0,0:0:0:0:
64,192,59429,5,0,0:0:0:0:
192,192,59766,1,0,0:0:0:0:
320,192,60103,1,0,0:0:0:0:
448,192,60409,1,0,0:0:0:0:
64,192,60715,1,0,0:0:0:0:
192,192,61000,1,0,0:0:0:0:
448,192,61286,1,0,0:0:0:0:
320,192,61286,1,0,0:0:0:0:
64,192,61549,1,0,0:0:0:0:
320,192,61812,1,0,0:0:0:0:
192,192,62059,1,0,0:0:0:0:
448,192,62307,1,0,0:0:0:0:
64,192,62307,1,0,0:0:0:0:
320,192,62547,1,0,0:0:0:0:
64,192,62787,1,0,0:0:0:0:
192,192,63016,1,0,0:0:0:0:
320,192,63245,1,0,0:0:0:0:
448,192,63245,1,0,0:0:0:0:
448,192,63686,1,0,0:0:0:0:
320,192,63903,1,0,0:0:0:0:
192,192,64120,1,0,0:0:0:0:
64,192,64332,1,0,0:0:0:0:
320,192,64545,1,0,0:0:0:0:
192,192,64754,1,0,0:0:0:0:
320,192,64964,1,0,0:0:0:0:
448,192,64964,1,0,0:0:0:0:
64,192,65168,1,0,0:0:0:0:
192,192,65372,1,0,0:0:0:0:
320,192,65572,1,0,0:0:0:0:
448,192,65772,1,0,0:0:0:0:
64,192,65772,1,0,0:0:0:0:
192,192,65972,1,0,0:0:0:0:
448,192,66172,1,0,0:0:0:0:
320,192,66372,1,0,0:0:0:0:
192,192,66572,1,0,0:0:0:0:
64,192,66572,1,0,0:0:0:0:
320,192,66959,1,0,0:0:0:0:
448,192,67143,1,0,0:0:0:0:
192,192,67327,1,0,0:0:0:0:
320,192,67511,1,0,0:0:0:0:
64,192,67695,1,0,0:0:0:0:
192,192,67879,1,0,0:0:0:0:
320,192,68063,1,0,0:0:0:0:
448,192,68063,1,0,0:0:0:0:
64,192,68242,1,0,0:0:0:0:
320,192,68422,1,0,0:0:0:0:
192,192,68601,1,0,0:0:0:0:
448,192,68781,1,0,0:0:0:0:
64,192,68781,1,0,0:0:0:0:
320,192,68961,1,0,0:0:0:0:
192,192,69140,1,0,0:0:0:0:
448,192,69320,1,0,0:0:0:0:
64,192,69500,1,0,0:0:0:0:
192,192,69500,1,0,0:0:0:0:
448,192,69852,1,0,0:0:0:0:
320,192,70029,1,0,0:0:0:0:
192,192,70205,1,0,0:0:0:0:
64,192,70382,1,0,0:0:0:0:
320,192,70558,1,0,0:0:0:0:
192,192,70735,1,0,0:0:0:0:
64,192,70911,1,0,0:0:0:0:
448,192,70911,1,0,0:0:0:0:
320,192,71083,1,0,0:0:0:0:
64,192,71255,1,0,0:0:0:0:
192,192,71428,1,0,0:0:0:0:
448,192,71600,1,0,0:0:0:0:
64,192,71600,1,0,0:0:0:0:
320,192,71773,1,0,0:0:0:0:
192,192,71945,1,0,0:0:0:0:
64,192,72117,1,0,0:0:0:0:
192,192,72204,1,0,0:0:0:0:
448,192,72290,1,0,0:0:0:0:
320,192,72290,1,0,0:0:0:0:
64,192,72462,1,0,0:0:0:0:
192,192,72635,1,0,0:0:0:0:
448,192,72635,1,0,0:0:0:0:
320,192,72807,1,0,0:0:0:0:
64,192,72979,1,0,0:0:0:0:
448,192,72979,1,0,0:0:0:0:
64,192,73669,1,0,0:0:0:0:
192,192,73669,1,0,0:0:0:0:
448,192,73842,1,0,0:0:0:0:
320,192,74014,1,0,0:0:0:0:
64,192,74014,1,0,0:0:0:0:
192,192,74186,1,0,0:0:0:0:
448,192,74359,1,0,0:0:0:0:
64,192,74359,1,0,0:0:0:0:
448,192,75048,1,0,0:0:0:0:
64,192,75048,1,0,0:0:0:0:
192,192,75221,1,0,0:0:0:0:
320,192,75393,1,0,0:0:0:0:
448,192,75393,1,0,0:0:0:0:
192,192,75566,1,0,0:0:0:0:
64,192,75738,1,0,0:0:0:0:
448,192,75738,1,0,0:0:0:0:
192,192,76428,1,0,0:0:0:0:
448,192,76428,1,0,0:0:0:0:
320,192,76600,1,0,0:0:0:0:
192,192,76773,1,0,0:0:0:0:
64,192,76773,1,0,0:0:0:0:
448,192,76945,1,0,0:0:0:0:
64,192,77117,1,0,0:0:0:0:
320,192,77117,1,0,0:0:0:0:
192,192,77290,1,0,0:0:0:0:
320,192,77376,1,0,0:0:0:0:
448,192,77462,1,0,0:0:0:0:
64,192,77635,1,0,0:0:0:0:
192,192,77721,1,0,0:0:0:0:
448,192,77807,1,0,0:0:0:0:
320,192,77807,1,0,0:0:0:0:
192,192,78066,1,0,0:0:0:0:
320,192,78152,1,0,0:0:0:0:
64,192,78324,1,0,0:0:0:0:
192,192,78497,1,0,0:0:0:0:
320,192,78497,1,0,0:0:0:0:
448,192,78755,1,0,0:0:0:0:
64,192,78842,1,0,0:0:0:0:
320,192,79014,1,0,0:0:0:0:
64,192,79186,1,0,0:0:0:0:
192,192,79186,1,0,0:0:0:0:
320,192,79445,1,0,0:0:0:0:
192,192,79531,1,0,0:0:0:0:
320,192,79704,1,0,0:0:0:0:
192,192,79876,1,0,0:0:0:0:
448,192,79876,1,0,0:0:0:0:
320,192,80135,1,0,0:0:0:0:
192,192,80221,1,0,0:0:0:0:
64,192,80393,1,0,0:0:0:0:
320,192,80566,1,0,0:0:0:0:
192,192,80566,1,0,0:0:0:0:
448,192,80738,1,0,0:0:0:0:
320,192,80911,1,0,0:0:0:0:
192,192,81083,1,0,0:0:0:0:
64,192,81255,1,0,0:0:0:0:
192,192,81428,1,0,0:0:0:0:
320,192,81600,1,0,0:0:0:0:
448,192,81773,1,0,0:0:0:0:
192,192,81945,1,0,0:0:0:0:
64,192,81945,1,0,0:0:0:0:
320,192,82290,128,0,82548:0:0:0:0:
192,192,82548,128,0,82893:0:0:0:0:
320,192,82893,128,0,83152:0:0:0:0:
64,192,83324,1,0,0:0:0:0:
448,192,83324,1,0,0:0:0:0:
448,192,83669,1,0,0:0:0:0:
320,192,83669,1,0,0:0:0:0:
64,192,83842,1,0,0:0:0:0:
192,192,84014,1,0,0:0:0:0:
448,192,84186,1,0,0:0:0:0:
320,192,84186,1,0,0:0:0:0:
64,192,84359,1,0,0:0:0:0:
192,192,84359,1,0,0:0:0:0:
64,192,84704,1,0,0:0:0:0:
448,192,84704,1,0,0:0:0:0:
320,192,84876,1,0,0:0:0:0:
448,192,85048,1,0,0:0:0:0:
192,192,85048,1,0,0:0:0:0:
320,192,85221,1,0,0:0:0:0:
64,192,85221,1,0,0:0:0:0:
192,192,85393,1,0,0:0:0:0:
320,192,85566,1,0,0:0:0:0:
64,192,85566,1,0,0:0:0:0:
448,192,85738,1,0,0:0:0:0:
192,192,85738,1,0,0:0:0:0:
320,192,85911,1,0,0:0:0:0:
64,192,86083,1,0,0:0:0:0:
192,192,86083,1,0,0:0:0:0:
192,192,86428,1,0,0:0:0:0:
448,192,86428,1,0,0:0:0:0:
320,192,86600,1,0,0:0:0:0:
192,192,86773,1,0,0:0:0:0:
448,192,86945,1,0,0:0:0:0:
64,192,86945,1,0,0:0:0:0:
320,192,87117,1,0,0:0:0:0:
192,192,87117,1,0,0:0:0:0:
448,192,87462,1,0,0:0:0:0:
192,192,87462,1,0,0:0:0:0:
320,192,87721,1,0,0:0:0:0:
192,192,87807,1,0,0:0:0:0:
64,192,87979,1,0,0:0:0:0:
448,192,87979,1,0,0:0:0:0:
320,192,88152,1,0,0:0:0:0:
192,192,88152,1,0,0:0:0:0:
192,192,88324,1,0,0:0:0:0:
320,192,88324,1,0,0:0:0:0:
64,192,88497,128,0,88842:0:0:0:0:
448,192,88497,1,0,0:0:0:0:
192,192,88842,1,0,0:0:0:0:
320,192,88842,1,0,0:0:0:0:
64,192,89186,1,0,0:0:0:0:
192,192,89186,1,0,0:0:0:0:
448,192,89359,1,0,0:0:0:0:
320,192,89531,1,0,0:0:0:0:
192,192,89704,1,0,0:0:0:0:
448,192,89704,1,0,0:0:0:0:
64,192,89876,1,0,0:0:0:0:
320,192,89876,1,0,0:0:0:0:
64,192,90221,1,0,0:0:0:0:
192,192,90221,1,0,0:0:0:0:
448,192,90393,1,0,0:0:0:0:
64,192,90566,1,0,0:0:0:0:
320,192,90566,1,0,0:0:0:0:
448,192,90738,1,0,0:0:0:0:
192,192,90738,1,0,0:0:0:0:
320,192,90911,1,0,0:0:0:0:
64,192,91083,1,0,0:0:0:0:
192,192,91083,1,0,0:0:0:0:
448,192,91255,1,0,0:0:0:0:
320,192,91255,1,0,0:0:0:0:
64,192,91428,1,0,0:0:0:0:
448,192,91600,1,0,0:0:0:0:
192,192,91600,1,0,0:0:0:0:
64,192,91945,1,0,0:0:0:0:
320,192,91945,1,0,0:0:0:0:
192,192,92117,1,0,0:0:0:0:
320,192,92290,1,0,0:0:0:0:
64,192,92462,1,0,0:0:0:0:
448,192,92462,1,0,0:0:0:0:
192,192,92635,1,0,0:0:0:0:
320,192,92635,1,0,0:0:0:0:
64,192,92979,1,0,0:0:0:0:
320,192,92979,1,0,0:0:0:0:
448,192,93238,1,0,0:0:0:0:
64,192,93324,1,0,0:0:0:0:
320,192,93497,1,0,0:0:0:0:
192,192,93497,1,0,0:0:0:0:
64,192,93669,1,0,0:0:0:0:
448,192,93669,1,0,0:0:0:0:
448,192,93842,1,0,0:0:0:0:
64,192,93842,1,0,0:0:0:0:
192,192,94014,1,0,0:0:0:0:
320,192,94014,1,0,0:0:0:0:
448,192,94186,1,0,0:0:0:0:
64,192,94359,1,0,0:0:0:0:
192,192,94359,1,0,0:0:0:0:
320,192,94704,1,0,0:0:0:0:
64,192,94704,1,0,0:0:0:0:
192,192,94962,1,0,0:0:0:0:
320,192,95221,1,0,0:0:0:0:
448,192,95221,1,0,0:0:0:0:
64,192,95479,1,0,0:0:0:0:
192,192,95738,1,0,0:0:0:0:
320,192,95738,1,0,0:0:0:0:
448,192,95997,1,0,0:0:0:0:
64,192,96255,1,0,0:0:0:0:
320,192,96255,1,0,0:0:0:0:
192,192,96514,1,0,0:0:0:0:
320,192,96773,1,0,0:0:0:0:
448,192,96773,1,0,0:0:0:0:
192,192,96945,1,0,0:0:0:0:
64,192,96945,1,0,0:0:0:0:
320,192,97117,1,0,0:0:0:0:
448,192,97117,1,0,0:0:0:0:
448,192,97462,1,0,0:0:0:0:
64,192,97462,1,0,0:0:0:0:
320,192,97721,1,0,0:0:0:0:
192,192,97979,1,0,0:0:0:0:
64,192,97979,1,0,0:0:0:0:
448,192,98238,1,0,0:0:0:0:
192,192,98497,1,0,0:0:0:0:
320,192,98497,1,0,0:0:0:0:
64,192,98755,1,0,0:0:0:0:
448,192,99014,1,0,0:0:0:0:
192,192,99014,1,0,0:0:0:0:
320,192,99273,1,0,0:0:0:0:
64,192,99531,1,0,0:0:0:0:
192,192,99531,1,0,0:0:0:0:
320,192,99704,1,0,0:0:0:0:
448,192,99704,1,0,0:0:0:0:
64,192,99876,1,0,0:0:0:0:
192,192,99876,1,0,0:0:0:0:
192,192,100221,1,0,0:0:0:0:
448,192,100221,1,0,0:0:0:0:
320,192,100479,1,0,0:0:0:0:
192,192,100738,1,0,0:0:0:0:
64,192,100738,1,0,0:0:0:0:
448,192,100997,1,0,0:0:0:0:
320,192,101255,1,0,0:0:0:0:
192,192,101255,1,0,0:0:0:0:
64,192,101514,1,0,0:0:0:0:
192,192,101773,1,0,0:0:0:0:
448,192,101773,1,0,0:0:0:0:
320,192,102031,1,0,0:0:0:0:
64,192,102290,1,0,0:0:0:0:
192,192,102290,1,0,0:0:0:0:
448,192,102462,1,0,0:0:0:0:
320,192,102462,1,0,0:0:0:0:
192,192,102635,1,0,0:0:0:0:
64,192,102635,1,0,0:0:0:0:
448,192,102807,1,0,0:0:0:0:
320,192,102979,1,0,0:0:0:0:
64,192,102979,1,0,0:0:0:0:
192,192,103152,1,0,0:0:0:0:
448,192,103324,1,0,0:0:0:0:
64,192,103497,1,0,0:0:0:0:
320,192,103497,1,0,0:0:0:0:
192,192,103669,1,0,0:0:0:0:
64,192,103842,1,0,0:0:0:0:
320,192,104014,1,0,0:0:0:0:
448,192,104014,1,0,0:0:0:0:
64,192,104186,1,0,0:0:0:0:
192,192,104359,1,0,0:0:0:0:
320,192,104531,1,0,0:0:0:0:
448,192,104531,1,0,0:0:0:0:
64,192,104704,1,0,0:0:0:0:
320,192,104876,1,0,0:0:0:0:
192,192,105048,1,0,0:0:0:0:
448,192,105048,1,0,0:0:0:0:
64,192,105221,1,0,0:0:0:0:
448,192,105393,1,0,0:0:0:0:
320,192,105393,1,0,0:0:0:0:
320,192,105738,1,0,0:0:0:0:
192,192,106083,1,0,0:0:0:0:
448,192,106428,1,0,0:0:0:0:
64,192,106773,1,0,0:0:0:0:
448,192,107117,1,0,0:0:0:0:
320,192,107462,1,0,0:0:0:0:
192,192,107807,1,0,0:0:0:0:
64,192,108152,1,0,0:0:0:0:
320,192,108497,1,0,0:0:0:0:
192,192,108842,1,0,0:0:0:0:
448,192,109186,1,0,0:0:0:0:
64,192,109531,1,0,0:0:0:0:
448,192,109876,1,0,0:0:0:0:
192,192,110221,1,0,0:0:0:0:
320,192,110566,1,0,0:0:0:0:
448,192,110911,1,0,0:0:0:0:
64,192,110911,1,0,0:0:0:0:
320,192,111169,1,0,0:0:0:0:
192,192,111255,1,0,0:0:0:0:
64,192,111428,1,0,0:0:0:0:
320,192,111600,1,0,0:0:0:0:
192,192,111600,1,0,0:0:0:0:
64,192,111859,1,0,0:0:0:0:
448,192,111945,1,0,0:0:0:0:
192,192,112117,1,0,0:0:0:0:
448,192,112290,1,0,0:0:0:0:
320,192,112290,1,0,0:0:0:0:
64,192,112548,1,0,0:0:0:0:
192,192,112635,1,0,0:0:0:0:
448,192,112807,1,0,0:0:0:0:
192,192,112979,1,0,0:0:0:0:
64,192,112979,1,0,0:0:0:0:
448,192,113238,1,0,0:0:0:0:
192,192,113324,1,0,0:0:0:0:
64,192,113497,1,0,0:0:0:0:
192,192,113669,1,0,0:0:0:0:
320,192,113669,1,0,0:0:0:0:
64,192,113842,1,0,0:0:0:0:
192,192,114014,1,0,0:0:0:0:
320,192,114186,1,0,0:0:0:0:
448,192,114359,1,0,0:0:0:0:
320,192,114531,1,0,0:0:0:0:
192,192,114704,1,0,0:0:0:0:
64,192,114876,1,0,0:0:0:0:
192,192,115048,1,0,0:0:0:0:
448,192,115048,1,0,0:0:0:0:
320,192,115221,1,0,0:0:0:0:
64,192,115393,1,0,0:0:0:0:
192,192,115566,1,0,0:0:0:0:
320,192,115738,1,0,0:0:0:0:
64,192,115911,1,0,0:0:0:0:
448,192,116083,1,0,0:0:0:0:
320,192,116255,1,0,0:0:0:0:
64,192,116428,128,0,116773:0:0:0:0:
192,192,116428,128,0,116773:0:0:0:0:
