osu file format v14

[General]
AudioFilename: audio.mp3
AudioLeadIn: 0
PreviewTime: 42148
Countdown: 0
SampleSet: Normal
StackLeniency: 0.7
Mode: 3
LetterboxInBreaks: 0
SpecialStyle: 0
WidescreenStoryboard: 1

[Editor]
DistanceSpacing: 0.8
BeatDivisor: 4
GridSize: 32
TimelineZoom: 1.8

[Metadata]
Title:Sahara
TitleUnicode:Sahara
Artist:Hommarju
ArtistUnicode:Hommarju
Creator:Tofu1222
Version:Unpredictable's ADVANCED
Source:jubeat festo
Tags:ExNeko Unpredictable KONAMI BEMANI
BeatmapID:1802102
BeatmapSetID:855816

[Difficulty]
HPDrainRate:7.5
CircleSize:4
OverallDifficulty:7.5
ApproachRate:5
SliderMultiplier:1.4
SliderTickRate:1

[Events]
//Background and Video events
0,0,"bg.jpg",0,0
//Break Periods
//Storyboard Layer 0 (Background)
//Storyboard Layer 1 (Fail)
//Storyboard Layer 2 (Pass)
//Storyboard Layer 3 (Foreground)
//Storyboard Sound Samples

[TimingPoints]
5704,631.578947368421,4,1,1,50,1,0
5704,-65.359477124183,4,1,1,50,0,0
25912,600,4,1,1,50,1,0
25912,-68.9655172413793,4,1,1,50,0,0
27112,545.454545454546,4,1,1,50,1,0
27112,-75.7575757575758,4,1,1,50,0,0
28202,521.739130434783,4,1,1,50,1,0
28202,-79.3650793650794,4,1,1,50,0,0
29245,500,4,1,1,50,1,0
29245,-82.6446280991736,4,1,1,50,0,0
30245,480,4,1,1,50,1,0
30245,-86.2068965517241,4,1,1,50,0,0
31205,461.538461538462,4,1,1,50,1,0
31205,-89.2857142857143,4,1,1,50,0,0
32128,444.444444444444,4,1,1,50,1,0
32128,-93.4579439252336,4,1,1,50,0,0
33016,428.571428571429,4,1,1,50,1,0
33016,-96.1538461538461,4,1,1,50,0,0
33873,413.793103448276,4,1,1,50,1,0
39666,-100,4,1,1,25,0,0
43804,-100,4,1,1,50,0,1
70286,-100,4,1,1,50,0,0
72768,428.571428571429,4,1,1,50,1,0
72768,-96.1538461538461,4,1,1,50,0,0
73625,444.444444444444,4,1,1,50,1,0
73625,-93.4579439252336,4,1,1,50,0,0
74513,461.538461538462,4,1,1,50,1,0
74513,-89.2857142857143,4,1,1,50,0,0
75436,468.75,4,1,1,50,1,0
75436,-88.4955752212389,4,1,1,50,0,0
76373,480,4,1,1,50,1,0
76373,-86.2068965517241,4,1,1,50,0,0
77333,504.201680672269,4,1,1,50,1,0
77333,-81.9672131147541,4,1,1,50,0,0
78341,495.867768595041,4,1,1,50,1,0
78341,-83.3333333333333,4,1,1,50,0,0
79332,480,4,1,1,50,1,0
79332,-86.2068965517241,4,1,1,50,0,0
80292,461.538461538462,4,1,1,50,1,0
80292,-89.2857142857143,4,1,1,50,0,0
81215,444.444444444444,4,1,1,50,1,0
81215,-93.4579439252336,4,1,1,50,0,0
82103,428.571428571429,4,1,1,50,1,0
82103,-96.1538461538461,4,1,1,50,0,0
82960,413.793103448276,4,1,1,50,1,0
83787,400,4,1,1,50,1,0
83787,-103.092783505155,4,1,1,50,0,0
84587,387.096774193548,4,1,1,50,1,0
84587,-106.382978723404,4,1,1,50,0,0
96974,-106.382978723404,4,2,1,75,0,1
118651,-106.382978723404,4,2,1,75,0,0

[HitObjects]
192,192,5704,5,2,0:0:0:0:
320,192,5704,1,0,0:0:0:0:
448,192,5704,1,0,0:0:0:0:
64,192,6019,1,0,0:0:0:0:
320,192,6230,1,0,0:0:0:0:
192,192,6335,1,2,0:0:0:0:
448,192,6335,1,0,0:0:0:0:
64,192,6532,1,0,0:0:0:0:
320,192,6690,1,0,0:0:0:0:
448,192,6861,1,0,0:0:0:0:
64,192,6967,1,2,0:0:0:0:
192,192,6967,1,0,0:0:0:0:
320,192,7282,1,0,0:0:0:0:
192,192,7440,1,0,0:0:0:0:
64,192,7598,1,2,0:0:0:0:
448,192,7598,1,0,0:0:0:0:
320,192,7756,1,0,0:0:0:0:
192,192,7914,1,0,0:0:0:0:
64,192,8230,1,2,0:0:0:0:
320,192,8230,1,0,0:0:0:0:
448,192,8440,1,0,0:0:0:0:
192,192,8546,1,0,0:0:0:0:
320,192,8756,1,0,0:0:0:0:
64,192,8861,1,2,0:0:0:0:
448,192,8861,1,0,0:0:0:0:
192,192,9059,1,0,0:0:0:0:
448,192,9217,1,0,0:0:0:0:
64,192,9388,1,0,0:0:0:0:
192,192,9493,1,2,0:0:0:0:
320,192,9493,1,0,0:0:0:0:
448,192,9809,1,0,0:0:0:0:
320,192,9967,1,0,0:0:0:0:
64,192,10125,1,2,0:0:0:0:
192,192,10125,1,0,0:0:0:0:
448,192,10282,1,0,0:0:0:0:
320,192,10440,1,0,0:0:0:0:
64,192,10756,1,2,0:0:0:0:
192,192,10756,1,0,0:0:0:0:
448,192,10756,1,0,0:0:0:0:
320,192,11072,1,0,0:0:0:0:
64,192,11282,1,0,0:0:0:0:
192,192,11388,1,2,0:0:0:0:
448,192,11388,1,0,0:0:0:0:
320,192,11598,1,0,0:0:0:0:
448,192,11704,1,0,0:0:0:0:
64,192,11914,1,0,0:0:0:0:
192,192,12019,1,2,0:0:0:0:
320,192,12019,1,0,0:0:0:0:
448,192,12335,1,0,0:0:0:0:
192,192,12493,1,0,0:0:0:0:
320,192,12651,1,0,0:0:0:0:
64,192,12651,1,2,0:0:0:0:
192,192,12809,1,0,0:0:0:0:
320,192,12967,1,0,0:0:0:0:
64,192,13282,1,2,0:0:0:0:
448,192,13282,1,0,0:0:0:0:
320,192,13493,1,0,0:0:0:0:
192,192,13598,1,0,0:0:0:0:
320,192,13809,1,0,0:0:0:0:
64,192,13914,1,2,0:0:0:0:
448,192,13914,1,0,0:0:0:0:
192,192,14072,1,0,0:0:0:0:
64,192,14230,1,0,0:0:0:0:
448,192,14440,1,0,0:0:0:0:
192,192,14546,1,2,0:0:0:0:
320,192,14546,1,0,0:0:0:0:
64,192,14901,1,0,0:0:0:0:
192,192,15059,1,0,0:0:0:0:
320,192,15177,1,2,0:0:0:0:
448,192,15177,1,0,0:0:0:0:
64,192,15388,1,0,0:0:0:0:
448,192,15493,1,0,0:0:0:0:
320,192,15704,1,0,0:0:0:0:
64,192,15809,1,2,0:0:0:0:
192,192,15809,1,0,0:0:0:0:
448,192,15809,1,0,0:0:0:0:
320,192,16125,1,0,0:0:0:0:
192,192,16335,1,0,0:0:0:0:
64,192,16440,1,8,0:0:0:0:
320,192,16440,1,0,0:0:0:0:
448,192,16440,1,0,0:0:0:0:
192,192,16638,1,0,0:0:0:0:
448,192,16796,1,0,0:0:0:0:
320,192,16967,1,0,0:0:0:0:
64,192,17072,1,2,0:0:0:0:
448,192,17072,1,0,0:0:0:0:
192,192,17388,1,0,0:0:0:0:
320,192,17546,1,0,0:0:0:0:
192,192,17704,1,0,0:0:0:0:
448,192,17704,1,0,0:0:0:0:
64,192,17704,1,8,0:0:0:0:
320,192,17861,1,0,0:0:0:0:
448,192,18019,1,0,0:0:0:0:
64,192,18335,1,2,0:0:0:0:
320,192,18335,1,0,0:0:0:0:
448,192,18546,1,0,0:0:0:0:
320,192,18651,1,0,0:0:0:0:
64,192,18861,1,0,0:0:0:0:
192,192,18967,1,8,0:0:0:0:
320,192,18967,1,0,0:0:0:0:
448,192,18967,1,0,0:0:0:0:
64,192,19164,1,0,0:0:0:0:
448,192,19322,1,0,0:0:0:0:
192,192,19493,1,0,0:0:0:0:
64,192,19598,1,2,0:0:0:0:
320,192,19598,1,0,0:0:0:0:
448,192,19914,1,0,0:0:0:0:
320,192,20072,1,0,0:0:0:0:
64,192,20230,1,8,0:0:0:0:
192,192,20230,1,0,0:0:0:0:
448,192,20230,1,0,0:0:0:0:
320,192,20388,1,0,0:0:0:0:
64,192,20546,1,0,0:0:0:0:
192,192,20861,1,2,0:0:0:0:
320,192,20861,1,0,0:0:0:0:
448,192,20861,1,0,0:0:0:0:
64,192,21177,1,0,0:0:0:0:
448,192,21388,1,0,0:0:0:0:
64,192,21493,1,8,0:0:0:0:
192,192,21493,1,0,0:0:0:0:
320,192,21493,1,0,0:0:0:0:
448,192,21704,1,0,0:0:0:0:
192,192,21809,1,0,0:0:0:0:
320,192,22019,1,0,0:0:0:0:
64,192,22125,1,2,0:0:0:0:
448,192,22125,1,0,0:0:0:0:
192,192,22440,1,0,0:0:0:0:
64,192,22598,1,0,0:0:0:0:
192,192,22756,1,8,0:0:0:0:
448,192,22756,1,0,0:0:0:0:
320,192,22914,1,0,0:0:0:0:
64,192,23072,1,0,0:0:0:0:
320,192,23388,1,2,0:0:0:0:
448,192,23388,1,0,0:0:0:0:
192,192,23598,1,0,0:0:0:0:
448,192,23704,1,0,0:0:0:0:
64,192,23914,1,0,0:0:0:0:
192,192,24019,1,8,0:0:0:0:
320,192,24019,1,0,0:0:0:0:
448,192,24019,1,0,0:0:0:0:
64,192,24177,1,0,0:0:0:0:
320,192,24335,1,0,0:0:0:0:
192,192,24546,1,0,0:0:0:0:
64,192,24651,1,2,0:0:0:0:
448,192,24651,1,0,0:0:0:0:
320,192,25006,1,0,0:0:0:0:
192,192,25164,1,0,0:0:0:0:
64,192,25282,1,8,0:0:0:0:
320,192,25282,1,0,0:0:0:0:
448,192,25282,1,0,0:0:0:0:
192,192,25440,128,0,25598:0:0:0:0:
320,192,25598,1,0,0:0:0:0:
448,192,25598,1,0,0:0:0:0:
64,192,25912,1,8,0:0:0:0:
192,192,25912,1,2,0:0:0:0:
448,192,25912,1,0,0:0:0:0:
320,192,26512,1,8,0:0:0:0:
448,192,26512,1,0,0:0:0:0:
192,192,27112,1,8,0:0:0:0:
320,192,27112,1,0,0:0:0:0:
64,192,27657,1,8,0:0:0:0:
192,192,27657,1,0,0:0:0:0:
64,192,28202,1,8,0:0:0:0:
448,192,28202,1,0,0:0:0:0:
192,192,28723,1,8,0:0:0:0:
320,192,28723,1,0,0:0:0:0:
192,192,29245,1,8,0:0:0:0:
448,192,29245,1,0,0:0:0:0:
64,192,29745,1,8,0:0:0:0:
320,192,29745,1,0,0:0:0:0:
64,192,30245,1,8,0:0:0:0:
192,192,30245,1,0,0:0:0:0:
320,192,30725,1,8,0:0:0:0:
448,192,30725,1,0,0:0:0:0:
64,192,31205,1,8,0:0:0:0:
448,192,31205,1,0,0:0:0:0:
192,192,31666,1,8,0:0:0:0:
320,192,31666,1,0,0:0:0:0:
64,192,32128,1,8,0:0:0:0:
320,192,32128,1,0,0:0:0:0:
192,192,32572,1,8,0:0:0:0:
448,192,32572,1,0,0:0:0:0:
64,192,33016,1,8,0:0:0:0:
192,192,33016,1,0,0:0:0:0:
320,192,33444,1,8,0:0:0:0:
448,192,33444,1,0,0:0:0:0:
64,192,33873,1,8,0:0:0:0:
320,192,33873,1,0,0:0:0:0:
192,192,34286,1,8,0:0:0:0:
448,192,34286,1,0,0:0:0:0:
64,192,34700,1,8,0:0:0:0:
448,192,34700,1,0,0:0:0:0:
192,192,35114,1,8,0:0:0:0:
320,192,35114,1,0,0:0:0:0:
320,192,35528,1,8,0:0:0:0:
448,192,35528,1,0,0:0:0:0:
64,192,35941,1,8,0:0:0:0:
192,192,35941,1,0,0:0:0:0:
192,192,36355,1,8,0:0:0:0:
448,192,36355,1,0,0:0:0:0:
64,192,36769,1,8,0:0:0:0:
320,192,36769,1,0,0:0:0:0:
64,192,37183,1,8,0:0:0:0:
448,192,37183,1,0,0:0:0:0:
192,192,37390,1,8,0:0:0:0:
320,192,37390,1,0,0:0:0:0:
320,192,37597,1,8,0:0:0:0:
448,192,37597,1,0,0:0:0:0:
64,192,37804,1,8,0:0:0:0:
192,192,37804,1,0,0:0:0:0:
64,192,38010,1,8,0:0:0:0:
448,192,38010,1,0,0:0:0:0:
192,192,38217,1,8,0:0:0:0:
320,192,38217,1,0,0:0:0:0:
192,192,38424,1,8,0:0:0:0:
448,192,38424,1,0,0:0:0:0:
64,192,38631,1,8,0:0:0:0:
320,192,38631,1,0,0:0:0:0:
320,192,38838,1,8,0:0:0:0:
448,192,38838,1,0,0:0:0:0:
192,192,38941,1,8,0:0:0:0:
64,192,39045,1,8,0:0:0:0:
320,192,39045,1,0,0:0:0:0:
448,192,39148,1,8,0:0:0:0:
64,192,39252,1,8,0:0:0:0:
192,192,39252,1,0,0:0:0:0:
320,192,39355,1,8,0:0:0:0:
64,192,39459,1,8,0:0:0:0:
448,192,39459,1,0,0:0:0:0:
192,192,39562,1,8,0:0:0:0:
320,192,39666,1,8,0:0:0:0:
448,192,39666,1,0,0:0:0:0:
64,192,39769,1,8,0:0:0:0:
192,192,39873,1,8,0:0:0:0:
448,192,39976,1,8,0:0:0:0:
64,192,40079,1,8,0:0:0:0:
192,192,40183,1,8,0:0:0:0:
320,192,40286,1,8,0:0:0:0:
64,192,40390,1,8,0:0:0:0:
320,192,40493,1,2,0:0:0:0:
448,192,40493,128,0,42148:0:0:0:0:
192,192,42148,1,0,0:0:0:0:
192,192,42355,1,0,0:0:0:0:
320,192,42459,1,0,0:0:0:0:
192,192,42562,1,0,0:0:0:0:
192,192,42769,1,0,0:0:0:0:
320,192,42873,1,0,0:0:0:0:
192,192,42976,1,0,0:0:0:0:
192,192,43183,1,0,0:0:0:0:
192,192,43390,1,0,0:0:0:0:
320,192,43804,1,2,0:0:0:0:
448,192,43804,1,0,0:0:0:0:
192,192,43907,1,0,0:0:0:0:
64,192,44010,1,0,0:0:0:0:
320,192,44114,1,0,0:0:0:0:
192,192,44217,1,2,0:0:0:0:
448,192,44217,1,0,0:0:0:0:
64,192,44321,1,0,0:0:0:0:
320,192,44424,1,0,0:0:0:0:
192,192,44528,1,0,0:0:0:0:
64,192,44631,1,2,0:0:0:0:
448,192,44631,1,0,0:0:0:0:
320,192,44735,1,0,0:0:0:0:
192,192,44838,1,0,0:0:0:0:
448,192,44941,1,0,0:0:0:0:
64,192,45045,1,2,0:0:0:0:
320,192,45045,1,0,0:0:0:0:
320,192,45252,1,0,0:0:0:0:
64,192,45459,1,2,0:0:0:0:
448,192,45459,1,0,0:0:0:0:
192,192,45562,1,0,0:0:0:0:
320,192,45666,1,0,0:0:0:0:
64,192,45769,1,0,0:0:0:0:
192,192,45873,1,2,0:0:0:0:
448,192,45873,1,0,0:0:0:0:
320,192,45976,1,0,0:0:0:0:
64,192,46079,1,0,0:0:0:0:
192,192,46183,1,0,0:0:0:0:
320,192,46286,1,2,0:0:0:0:
448,192,46286,1,0,0:0:0:0:
64,192,46390,1,0,0:0:0:0:
320,192,46493,1,0,0:0:0:0:
448,192,46597,1,0,0:0:0:0:
64,192,46700,1,2,0:0:0:0:
192,192,46700,1,0,0:0:0:0:
192,192,47114,1,2,0:0:0:0:
320,192,47114,1,0,0:0:0:0:
64,192,47217,1,0,0:0:0:0:
448,192,47321,1,0,0:0:0:0:
320,192,47424,1,0,0:0:0:0:
64,192,47528,1,2,0:0:0:0:
192,192,47528,1,0,0:0:0:0:
448,192,47631,1,0,0:0:0:0:
320,192,47735,1,0,0:0:0:0:
64,192,47838,1,0,0:0:0:0:
192,192,47941,1,2,0:0:0:0:
448,192,47941,1,0,0:0:0:0:
320,192,48045,1,0,0:0:0:0:
192,192,48148,1,0,0:0:0:0:
64,192,48252,1,0,0:0:0:0:
320,192,48355,1,2,0:0:0:0:
448,192,48355,1,0,0:0:0:0:
192,192,48562,1,0,0:0:0:0:
320,192,48666,1,0,0:0:0:0:
64,192,48769,1,2,0:0:0:0:
448,192,48769,1,0,0:0:0:0:
192,192,48873,1,0,0:0:0:0:
320,192,48976,1,0,0:0:0:0:
448,192,49079,1,0,0:0:0:0:
192,192,49183,1,2,0:0:0:0:
320,192,49286,1,0,0:0:0:0:
64,192,49390,1,0,0:0:0:0:
192,192,49493,1,0,0:0:0:0:
320,192,49597,1,2,0:0:0:0:
448,192,49597,1,0,0:0:0:0:
64,192,49700,1,0,0:0:0:0:
448,192,49804,1,0,0:0:0:0:
192,192,49907,1,0,0:0:0:0:
64,192,50010,1,2,0:0:0:0:
320,192,50010,1,0,0:0:0:0:
192,192,50424,1,2,0:0:0:0:
448,192,50424,1,0,0:0:0:0:
64,192,50528,1,0,0:0:0:0:
320,192,50631,1,0,0:0:0:0:
192,192,50735,1,0,0:0:0:0:
64,192,50838,1,2,0:0:0:0:
448,192,50838,1,0,0:0:0:0:
320,192,50941,1,0,0:0:0:0:
192,192,51045,1,0,0:0:0:0:
64,192,51148,1,0,0:0:0:0:
320,192,51252,1,2,0:0:0:0:
448,192,51252,1,0,0:0:0:0:
192,192,51355,1,0,0:0:0:0:
64,192,51459,1,0,0:0:0:0:
320,192,51562,1,0,0:0:0:0:
192,192,51666,1,2,0:0:0:0:
448,192,51666,1,0,0:0:0:0:
192,192,51873,1,0,0:0:0:0:
320,192,52079,1,2,0:0:0:0:
448,192,52079,1,0,0:0:0:0:
64,192,52183,1,0,0:0:0:0:
192,192,52286,1,0,0:0:0:0:
320,192,52390,1,0,0:0:0:0:
64,192,52493,1,2,0:0:0:0:
448,192,52493,1,0,0:0:0:0:
192,192,52597,1,0,0:0:0:0:
320,192,52700,1,0,0:0:0:0:
64,192,52804,1,0,0:0:0:0:
192,192,52907,1,2,0:0:0:0:
448,192,52907,1,0,0:0:0:0:
320,192,53010,1,0,0:0:0:0:
448,192,53114,1,0,0:0:0:0:
64,192,53217,1,0,0:0:0:0:
192,192,53321,1,2,0:0:0:0:
320,192,53321,1,0,0:0:0:0:
64,192,53735,1,2,0:0:0:0:
448,192,53735,1,0,0:0:0:0:
320,192,53838,1,0,0:0:0:0:
192,192,53941,1,0,0:0:0:0:
64,192,54045,1,0,0:0:0:0:
320,192,54148,1,2,0:0:0:0:
448,192,54148,1,0,0:0:0:0:
192,192,54252,1,0,0:0:0:0:
64,192,54355,1,0,0:0:0:0:
320,192,54459,1,0,0:0:0:0:
192,192,54562,1,2,0:0:0:0:
448,192,54562,1,0,0:0:0:0:
64,192,54666,1,0,0:0:0:0:
320,192,54769,1,0,0:0:0:0:
192,192,54873,1,0,0:0:0:0:
64,192,54976,1,2,0:0:0:0:
448,192,54976,1,0,0:0:0:0:
320,192,55183,1,0,0:0:0:0:
448,192,55286,1,0,0:0:0:0:
64,192,55390,1,0,0:0:0:0:
192,192,55390,1,0,0:0:0:0:
64,192,55597,1,0,0:0:0:0:
448,192,55597,1,0,0:0:0:0:
192,192,55700,1,0,0:0:0:0:
320,192,55700,1,0,0:0:0:0:
192,192,55907,1,0,0:0:0:0:
320,192,55907,1,0,0:0:0:0:
64,192,56010,1,0,0:0:0:0:
448,192,56010,1,0,0:0:0:0:
192,192,56114,1,0,0:0:0:0:
320,192,56114,1,0,0:0:0:0:
64,192,56217,128,0,56424:0:0:0:0:
448,192,56217,1,0,0:0:0:0:
192,192,56424,1,0,0:0:0:0:
448,192,56424,1,0,0:0:0:0:
64,192,56631,1,0,0:0:0:0:
320,192,56631,1,0,0:0:0:0:
192,192,56838,1,0,0:0:0:0:
320,192,56941,1,0,0:0:0:0:
448,192,56941,1,0,0:0:0:0:
64,192,57045,1,2,0:0:0:0:
192,192,57045,1,0,0:0:0:0:
448,192,57045,1,0,0:0:0:0:
320,192,57252,1,0,0:0:0:0:
192,192,57355,1,0,0:0:0:0:
64,192,57459,1,8,0:0:0:0:
448,192,57459,1,0,0:0:0:0:
64,192,57666,1,0,0:0:0:0:
448,192,57666,1,0,0:0:0:0:
320,192,57873,1,2,0:0:0:0:
192,192,57873,1,0,0:0:0:0:
64,192,57976,1,0,0:0:0:0:
320,192,58079,1,0,0:0:0:0:
448,192,58079,1,0,0:0:0:0:
192,192,58183,1,0,0:0:0:0:
320,192,58286,1,8,0:0:0:0:
448,192,58286,1,0,0:0:0:0:
64,192,58493,1,0,0:0:0:0:
320,192,58597,1,0,0:0:0:0:
192,192,58700,1,2,0:0:0:0:
448,192,58700,1,0,0:0:0:0:
64,192,58907,1,0,0:0:0:0:
448,192,59010,1,0,0:0:0:0:
192,192,59114,1,8,0:0:0:0:
320,192,59114,1,0,0:0:0:0:
320,192,59321,1,0,0:0:0:0:
192,192,59321,1,0,0:0:0:0:
448,192,59528,1,2,0:0:0:0:
64,192,59528,1,0,0:0:0:0:
320,192,59631,1,0,0:0:0:0:
64,192,59735,1,0,0:0:0:0:
192,192,59735,1,0,0:0:0:0:
448,192,59838,1,0,0:0:0:0:
64,192,59941,1,8,0:0:0:0:
192,192,59941,1,0,0:0:0:0:
320,192,60148,1,0,0:0:0:0:
192,192,60252,1,0,0:0:0:0:
64,192,60355,1,2,0:0:0:0:
448,192,60355,1,0,0:0:0:0:
192,192,60562,1,0,0:0:0:0:
448,192,60666,1,0,0:0:0:0:
320,192,60769,1,8,0:0:0:0:
64,192,60769,1,0,0:0:0:0:
64,192,60976,1,0,0:0:0:0:
320,192,60976,1,0,0:0:0:0:
192,192,61183,1,2,0:0:0:0:
448,192,61183,1,0,0:0:0:0:
320,192,61286,1,0,0:0:0:0:
64,192,61390,1,0,0:0:0:0:
448,192,61390,1,0,0:0:0:0:
192,192,61493,1,0,0:0:0:0:
448,192,61597,1,8,0:0:0:0:
64,192,61597,1,0,0:0:0:0:
320,192,61804,1,0,0:0:0:0:
192,192,61907,1,0,0:0:0:0:
64,192,62010,1,2,0:0:0:0:
448,192,62010,1,0,0:0:0:0:
64,192,62217,1,0,0:0:0:0:
192,192,62217,1,0,0:0:0:0:
320,192,62321,1,0,0:0:0:0:
192,192,62424,1,8,0:0:0:0:
64,192,62424,1,0,0:0:0:0:
448,192,62528,1,0,0:0:0:0:
192,192,62631,1,0,0:0:0:0:
64,192,62631,1,0,0:0:0:0:
320,192,62735,1,0,0:0:0:0:
192,192,62838,1,2,0:0:0:0:
448,192,62838,1,0,0:0:0:0:
64,192,62941,1,0,0:0:0:0:
448,192,63045,1,0,0:0:0:0:
320,192,63045,1,0,0:0:0:0:
192,192,63148,1,0,0:0:0:0:
64,192,63252,1,8,0:0:0:0:
448,192,63252,1,0,0:0:0:0:
192,192,63459,1,0,0:0:0:0:
320,192,63562,1,0,0:0:0:0:
64,192,63666,1,2,0:0:0:0:
448,192,63666,128,0,63873:0:0:0:0:
320,192,63873,1,0,0:0:0:0:
64,192,63976,1,0,0:0:0:0:
192,192,64079,1,8,0:0:0:0:
448,192,64079,1,0,0:0:0:0:
192,192,64286,1,0,0:0:0:0:
448,192,64286,1,0,0:0:0:0:
64,192,64493,1,2,0:0:0:0:
320,192,64493,1,0,0:0:0:0:
448,192,64597,1,0,0:0:0:0:
192,192,64700,1,0,0:0:0:0:
64,192,64700,1,0,0:0:0:0:
320,192,64804,1,0,0:0:0:0:
192,192,64907,1,8,0:0:0:0:
64,192,64907,1,0,0:0:0:0:
448,192,65114,1,0,0:0:0:0:
192,192,65217,1,0,0:0:0:0:
64,192,65321,1,2,0:0:0:0:
320,192,65321,1,0,0:0:0:0:
448,192,65528,1,0,0:0:0:0:
192,192,65631,1,0,0:0:0:0:
64,192,65735,1,8,0:0:0:0:
320,192,65735,1,0,0:0:0:0:
64,192,65941,1,0,0:0:0:0:
320,192,65941,1,0,0:0:0:0:
192,192,66148,1,2,0:0:0:0:
448,192,66148,1,0,0:0:0:0:
320,192,66252,1,0,0:0:0:0:
64,192,66355,1,0,0:0:0:0:
448,192,66355,1,0,0:0:0:0:
192,192,66459,1,0,0:0:0:0:
64,192,66562,1,8,0:0:0:0:
448,192,66562,1,0,0:0:0:0:
320,192,66769,1,0,0:0:0:0:
64,192,66873,1,0,0:0:0:0:
192,192,66976,1,2,0:0:0:0:
448,192,66976,1,0,0:0:0:0:
320,192,67183,1,0,0:0:0:0:
192,192,67286,1,0,0:0:0:0:
64,192,67390,1,8,0:0:0:0:
448,192,67390,1,0,0:0:0:0:
64,192,67597,1,0,0:0:0:0:
448,192,67597,1,0,0:0:0:0:
192,192,67804,1,2,0:0:0:0:
320,192,67804,1,0,0:0:0:0:
448,192,67907,1,0,0:0:0:0:
192,192,68010,1,0,0:0:0:0:
64,192,68010,1,0,0:0:0:0:
320,192,68114,1,0,0:0:0:0:
64,192,68217,1,8,0:0:0:0:
192,192,68217,1,0,0:0:0:0:
320,192,68424,1,0,0:0:0:0:
192,192,68528,1,0,0:0:0:0:
64,192,68631,1,0,0:0:0:0:
448,192,68631,1,0,0:0:0:0:
320,192,68838,1,0,0:0:0:0:
64,192,68941,1,0,0:0:0:0:
448,192,68941,1,0,0:0:0:0:
192,192,69045,1,0,0:0:0:0:
64,192,69148,1,0,0:0:0:0:
448,192,69148,1,0,0:0:0:0:
320,192,69252,1,0,0:0:0:0:
64,192,69355,1,0,0:0:0:0:
448,192,69355,1,0,0:0:0:0:
192,192,69459,128,0,69666:0:0:0:0:
320,192,69666,1,0,0:0:0:0:
448,192,69666,1,0,0:0:0:0:
64,192,69873,1,0,0:0:0:0:
192,192,69873,1,0,0:0:0:0:
320,192,70079,1,0,0:0:0:0:
192,192,70183,1,0,0:0:0:0:
448,192,70183,1,0,0:0:0:0:
64,192,70286,128,2,70493:0:0:0:0:
320,192,70286,128,8,70493:0:0:0:0:
192,192,70700,1,8,0:0:0:0:
448,192,70700,1,0,0:0:0:0:
64,192,71114,1,8,0:0:0:0:
320,192,71114,1,0,0:0:0:0:
192,192,71528,1,8,0:0:0:0:
320,192,71528,1,0,0:0:0:0:
64,192,71941,1,8,0:0:0:0:
448,192,71941,1,0,0:0:0:0:
320,192,72355,1,8,0:0:0:0:
448,192,72355,1,0,0:0:0:0:
64,192,72768,1,8,0:0:0:0:
192,192,72768,1,0,0:0:0:0:
64,192,73196,1,8,0:0:0:0:
448,192,73196,1,0,0:0:0:0:
192,192,73625,1,8,0:0:0:0:
320,192,73625,1,0,0:0:0:0:
192,192,74069,1,8,0:0:0:0:
448,192,74069,1,0,0:0:0:0:
64,192,74513,1,8,0:0:0:0:
320,192,74513,1,0,0:0:0:0:
64,192,74974,1,8,0:0:0:0:
192,192,74974,1,0,0:0:0:0:
320,192,75436,1,8,0:0:0:0:
448,192,75436,1,0,0:0:0:0:
64,192,75904,1,8,0:0:0:0:
320,192,75904,1,0,0:0:0:0:
192,192,76373,1,8,0:0:0:0:
448,192,76373,1,0,0:0:0:0:
64,192,76853,1,8,0:0:0:0:
448,192,76853,1,0,0:0:0:0:
192,192,77333,1,8,0:0:0:0:
320,192,77333,1,0,0:0:0:0:
320,192,77837,1,8,0:0:0:0:
448,192,77837,1,0,0:0:0:0:
64,192,78341,1,8,0:0:0:0:
192,192,78341,1,0,0:0:0:0:
192,192,78836,1,8,0:0:0:0:
448,192,78836,1,0,0:0:0:0:
64,192,79332,1,8,0:0:0:0:
320,192,79332,1,0,0:0:0:0:
192,192,79812,1,8,0:0:0:0:
320,192,79812,1,0,0:0:0:0:
64,192,80292,1,8,0:0:0:0:
448,192,80292,1,0,0:0:0:0:
64,192,80753,1,8,0:0:0:0:
192,192,80753,1,0,0:0:0:0:
320,192,81215,1,8,0:0:0:0:
448,192,81215,1,0,0:0:0:0:
64,192,81659,1,8,0:0:0:0:
320,192,81659,1,0,0:0:0:0:
192,192,82103,1,8,0:0:0:0:
448,192,82103,1,0,0:0:0:0:
64,192,82531,1,8,0:0:0:0:
448,192,82531,1,0,0:0:0:0:
192,192,82960,1,8,0:0:0:0:
320,192,82960,1,0,0:0:0:0:
192,192,83373,1,8,0:0:0:0:
448,192,83373,1,0,0:0:0:0:
64,192,83787,1,8,0:0:0:0:
320,192,83787,1,0,0:0:0:0:
320,192,84187,1,8,0:0:0:0:
448,192,84187,1,0,0:0:0:0:
64,192,84587,1,8,0:0:0:0:
192,192,84587,1,0,0:0:0:0:
320,192,84587,1,0,0:0:0:0:
448,192,84780,1,0,0:0:0:0:
64,192,84974,1,8,0:0:0:0:
192,192,84974,1,0,0:0:0:0:
320,192,84974,1,0,0:0:0:0:
448,192,85167,1,0,0:0:0:0:
64,192,85361,1,8,0:0:0:0:
192,192,85361,1,0,0:0:0:0:
448,192,85361,1,0,0:0:0:0:
320,192,85554,1,0,0:0:0:0:
64,192,85748,1,8,0:0:0:0:
192,192,85748,1,0,0:0:0:0:
448,192,85748,1,0,0:0:0:0:
192,192,86135,1,8,0:0:0:0:
320,192,86135,1,0,0:0:0:0:
448,192,86135,1,0,0:0:0:0:
64,192,86328,1,0,0:0:0:0:
192,192,86522,1,8,0:0:0:0:
320,192,86522,1,0,0:0:0:0:
448,192,86522,1,0,0:0:0:0:
64,192,86716,1,0,0:0:0:0:
64,192,86909,1,8,0:0:0:0:
320,192,86909,1,0,0:0:0:0:
448,192,86909,1,0,0:0:0:0:
192,192,87103,1,0,0:0:0:0:
64,192,87296,1,8,0:0:0:0:
320,192,87296,1,0,0:0:0:0:
448,192,87296,1,0,0:0:0:0:
64,192,87683,1,8,0:0:0:0:
192,192,87683,1,0,0:0:0:0:
448,192,87683,1,0,0:0:0:0:
320,192,87877,1,0,0:0:0:0:
64,192,88070,1,8,0:0:0:0:
192,192,88070,1,0,0:0:0:0:
448,192,88070,1,0,0:0:0:0:
320,192,88264,1,0,0:0:0:0:
192,192,88457,1,8,0:0:0:0:
320,192,88457,1,0,0:0:0:0:
448,192,88457,1,0,0:0:0:0:
64,192,88651,1,0,0:0:0:0:
192,192,88845,1,8,0:0:0:0:
320,192,88845,1,0,0:0:0:0:
448,192,88845,1,0,0:0:0:0:
64,192,89232,1,8,0:0:0:0:
320,192,89232,1,0,0:0:0:0:
448,192,89232,1,0,0:0:0:0:
192,192,89425,1,0,0:0:0:0:
64,192,89619,1,8,0:0:0:0:
320,192,89619,1,0,0:0:0:0:
448,192,89619,1,0,0:0:0:0:
192,192,89812,1,0,0:0:0:0:
64,192,90006,1,8,0:0:0:0:
192,192,90006,1,0,0:0:0:0:
320,192,90006,1,0,0:0:0:0:
448,192,90199,1,0,0:0:0:0:
64,192,90393,1,8,0:0:0:0:
192,192,90393,1,0,0:0:0:0:
320,192,90393,1,0,0:0:0:0:
192,192,90780,1,8,0:0:0:0:
320,192,90780,1,0,0:0:0:0:
64,192,90974,1,8,0:0:0:0:
448,192,90974,1,0,0:0:0:0:
192,192,91167,1,8,0:0:0:0:
448,192,91167,1,0,0:0:0:0:
64,192,91361,1,8,0:0:0:0:
320,192,91361,1,0,0:0:0:0:
64,192,91554,1,8,0:0:0:0:
192,192,91554,1,0,0:0:0:0:
320,192,91748,1,8,0:0:0:0:
448,192,91748,1,0,0:0:0:0:
64,192,91941,1,8,0:0:0:0:
320,192,91941,1,0,0:0:0:0:
192,192,92135,1,8,0:0:0:0:
448,192,92135,1,0,0:0:0:0:
64,192,92328,1,8,0:0:0:0:
448,192,92328,1,0,0:0:0:0:
192,192,92522,1,8,0:0:0:0:
320,192,92522,1,0,0:0:0:0:
320,192,92716,1,8,0:0:0:0:
448,192,92716,1,0,0:0:0:0:
64,192,92909,1,8,0:0:0:0:
192,192,92909,1,0,0:0:0:0:
64,192,93103,1,8,0:0:0:0:
448,192,93103,1,0,0:0:0:0:
192,192,93296,1,8,0:0:0:0:
320,192,93296,1,0,0:0:0:0:
64,192,93490,1,8,0:0:0:0:
448,192,93490,1,0,0:0:0:0:
64,192,93683,1,8,0:0:0:0:
320,192,93683,1,0,0:0:0:0:
320,192,93877,1,8,0:0:0:0:
448,192,93877,1,0,0:0:0:0:
192,192,93974,1,8,0:0:0:0:
64,192,94070,1,8,0:0:0:0:
320,192,94070,1,0,0:0:0:0:
448,192,94167,1,8,0:0:0:0:
64,192,94264,1,8,0:0:0:0:
192,192,94264,1,0,0:0:0:0:
320,192,94361,1,8,0:0:0:0:
448,192,94457,1,8,0:0:0:0:
64,192,94554,1,8,0:0:0:0:
192,192,94651,1,8,0:0:0:0:
320,192,94651,1,0,0:0:0:0:
448,192,94748,1,8,0:0:0:0:
64,192,94845,1,8,0:0:0:0:
192,192,94845,1,0,0:0:0:0:
320,192,94941,1,8,0:0:0:0:
64,192,95038,1,8,0:0:0:0:
448,192,95038,1,0,0:0:0:0:
192,192,95135,1,8,0:0:0:0:
320,192,95232,1,8,0:0:0:0:
448,192,95232,1,0,0:0:0:0:
64,192,95328,1,8,0:0:0:0:
192,192,96974,1,8,0:0:0:0:
320,192,96974,1,0,0:0:0:0:
448,192,96974,1,0,0:0:0:0:
64,192,97167,128,0,97361:0:0:0:0:
192,192,97361,1,8,0:0:0:0:
320,192,97361,1,0,0:0:0:0:
448,192,97361,1,0,0:0:0:0:
192,192,97554,1,0,0:0:0:0:
64,192,97748,1,8,0:0:0:0:
320,192,97748,1,0,0:0:0:0:
448,192,97748,1,0,0:0:0:0:
320,192,97941,1,0,0:0:0:0:
64,192,98135,1,8,0:0:0:0:
192,192,98135,1,0,0:0:0:0:
448,192,98135,1,0,0:0:0:0:
64,192,98328,1,0,0:0:0:0:
192,192,98522,1,8,0:0:0:0:
320,192,98522,1,0,0:0:0:0:
448,192,98522,1,0,0:0:0:0:
64,192,98716,1,0,0:0:0:0:
192,192,98812,1,0,0:0:0:0:
64,192,98909,1,8,0:0:0:0:
320,192,98909,1,0,0:0:0:0:
448,192,98909,1,0,0:0:0:0:
448,192,99103,1,0,0:0:0:0:
64,192,99296,1,8,0:0:0:0:
192,192,99296,1,0,0:0:0:0:
320,192,99296,1,0,0:0:0:0:
448,192,99393,1,0,0:0:0:0:
192,192,99490,1,0,0:0:0:0:
320,192,99586,1,0,0:0:0:0:
64,192,99683,1,8,0:0:0:0:
192,192,99683,1,0,0:0:0:0:
448,192,99683,1,0,0:0:0:0:
64,192,100070,1,8,0:0:0:0:
320,192,100070,1,0,0:0:0:0:
448,192,100070,1,0,0:0:0:0:
192,192,100264,128,0,100457:0:0:0:0:
64,192,100457,1,8,0:0:0:0:
320,192,100457,1,0,0:0:0:0:
448,192,100457,1,0,0:0:0:0:
320,192,100651,1,0,0:0:0:0:
64,192,100845,1,8,0:0:0:0:
192,192,100845,1,0,0:0:0:0:
448,192,100845,1,0,0:0:0:0:
192,192,101038,1,0,0:0:0:0:
64,192,101232,1,8,0:0:0:0:
320,192,101232,1,0,0:0:0:0:
448,192,101232,1,0,0:0:0:0:
448,192,101425,1,0,0:0:0:0:
64,192,101619,1,8,0:0:0:0:
192,192,101619,1,0,0:0:0:0:
320,192,101619,1,0,0:0:0:0:
320,192,101812,1,0,0:0:0:0:
64,192,102006,1,8,0:0:0:0:
192,192,102006,1,0,0:0:0:0:
448,192,102006,1,0,0:0:0:0:
64,192,102199,1,0,0:0:0:0:
192,192,102393,1,8,0:0:0:0:
320,192,102393,1,0,0:0:0:0:
448,192,102393,1,0,0:0:0:0:
192,192,102586,1,0,0:0:0:0:
64,192,102780,1,8,0:0:0:0:
320,192,102780,1,0,0:0:0:0:
448,192,102780,1,0,0:0:0:0:
192,192,102974,1,8,0:0:0:0:
320,192,102974,1,0,0:0:0:0:
448,192,102974,1,0,0:0:0:0:
64,192,103167,1,8,0:0:0:0:
192,192,103167,1,0,0:0:0:0:
320,192,103167,1,0,0:0:0:0:
448,192,103361,128,0,103554:0:0:0:0:
64,192,103554,1,8,0:0:0:0:
192,192,103554,1,0,0:0:0:0:
320,192,103554,1,0,0:0:0:0:
64,192,103748,1,0,0:0:0:0:
192,192,103941,1,8,0:0:0:0:
320,192,103941,1,0,0:0:0:0:
448,192,103941,1,0,0:0:0:0:
320,192,104135,1,0,0:0:0:0:
64,192,104328,1,8,0:0:0:0:
192,192,104328,1,0,0:0:0:0:
448,192,104328,1,0,0:0:0:0:
448,192,104522,1,0,0:0:0:0:
64,192,104716,1,8,0:0:0:0:
192,192,104716,1,0,0:0:0:0:
320,192,104716,1,0,0:0:0:0:
192,192,104909,1,0,0:0:0:0:
320,192,105006,1,0,0:0:0:0:
64,192,105103,1,8,0:0:0:0:
192,192,105103,1,0,0:0:0:0:
448,192,105103,1,0,0:0:0:0:
64,192,105296,1,0,0:0:0:0:
192,192,105490,1,8,0:0:0:0:
320,192,105490,1,0,0:0:0:0:
448,192,105490,1,0,0:0:0:0:
64,192,105586,1,0,0:0:0:0:
448,192,105683,1,0,0:0:0:0:
320,192,105780,1,0,0:0:0:0:
64,192,105877,1,8,0:0:0:0:
192,192,105877,1,0,0:0:0:0:
448,192,105877,1,0,0:0:0:0:
192,192,106264,1,8,0:0:0:0:
320,192,106264,1,0,0:0:0:0:
64,192,106264,1,0,0:0:0:0:
448,192,106457,128,0,106651:0:0:0:0:
64,192,106651,1,8,0:0:0:0:
192,192,106651,1,0,0:0:0:0:
320,192,106651,1,0,0:0:0:0:
448,192,106845,1,0,0:0:0:0:
64,192,107038,1,8,0:0:0:0:
192,192,107038,1,0,0:0:0:0:
320,192,107038,1,0,0:0:0:0:
64,192,107232,1,0,0:0:0:0:
192,192,107425,1,8,0:0:0:0:
320,192,107425,1,0,0:0:0:0:
448,192,107425,1,0,0:0:0:0:
64,192,107619,1,8,0:0:0:0:
192,192,107619,1,0,0:0:0:0:
448,192,107619,1,0,0:0:0:0:
320,192,107812,1,2,0:0:0:0:
448,192,107812,1,0,0:0:0:0:
192,192,107909,1,2,0:0:0:0:
64,192,108006,1,2,0:0:0:0:
320,192,108006,1,0,0:0:0:0:
448,192,108103,1,2,0:0:0:0:
64,192,108199,1,2,0:0:0:0:
192,192,108199,1,0,0:0:0:0:
192,192,108393,1,2,0:0:0:0:
448,192,108393,1,0,0:0:0:0:
64,192,108586,1,2,0:0:0:0:
320,192,108586,1,0,0:0:0:0:
192,192,108780,128,2,108974:0:0:0:0:
448,192,108780,1,0,0:0:0:0:
320,192,108974,128,0,109167:0:0:0:0:
64,192,109361,1,8,0:0:0:0:
192,192,109361,1,0,0:0:0:0:
448,192,109361,1,0,0:0:0:0:
192,192,109554,1,8,0:0:0:0:
320,192,109554,1,0,0:0:0:0:
448,192,109554,1,0,0:0:0:0:
64,192,109748,1,8,0:0:0:0:
320,192,109748,1,0,0:0:0:0:
448,192,109748,1,0,0:0:0:0:
64,192,109941,1,0,0:0:0:0:
192,192,110135,1,8,0:0:0:0:
320,192,110135,1,0,0:0:0:0:
448,192,110135,1,0,0:0:0:0:
448,192,110328,1,0,0:0:0:0:
64,192,110522,128,8,110716:0:0:0:0:
192,192,110522,1,0,0:0:0:0:
320,192,110522,1,0,0:0:0:0:
448,192,110716,128,0,110909:0:0:0:0:
64,192,110909,1,8,0:0:0:0:
192,192,110909,1,0,0:0:0:0:
320,192,110909,1,0,0:0:0:0:
320,192,111103,1,0,0:0:0:0:
64,192,111296,1,8,0:0:0:0:
192,192,111296,1,0,0:0:0:0:
448,192,111296,1,0,0:0:0:0:
192,192,111490,1,0,0:0:0:0:
64,192,111683,1,8,0:0:0:0:
320,192,111683,1,0,0:0:0:0:
448,192,111683,1,0,0:0:0:0:
192,192,111780,1,0,0:0:0:0:
320,192,111877,1,0,0:0:0:0:
64,192,111974,1,0,0:0:0:0:
192,192,112070,1,8,0:0:0:0:
320,192,112070,1,0,0:0:0:0:
448,192,112070,1,0,0:0:0:0:
64,192,112457,1,8,0:0:0:0:
192,192,112457,1,0,0:0:0:0:
448,192,112457,1,0,0:0:0:0:
64,192,112651,1,0,0:0:0:0:
192,192,112845,1,8,0:0:0:0:
320,192,112845,1,0,0:0:0:0:
448,192,112845,1,0,0:0:0:0:
448,192,113038,1,0,0:0:0:0:
64,192,113232,1,8,0:0:0:0:
192,192,113232,1,0,0:0:0:0:
320,192,113232,1,0,0:0:0:0:
320,192,113425,1,0,0:0:0:0:
64,192,113619,1,8,0:0:0:0:
192,192,113619,128,0,113812:0:0:0:0:
448,192,113619,1,0,0:0:0:0:
320,192,113812,128,0,114006:0:0:0:0:
64,192,114006,1,8,0:0:0:0:
192,192,114006,1,0,0:0:0:0:
448,192,114006,1,0,0:0:0:0:
320,192,114199,1,0,0:0:0:0:
64,192,114393,1,8,0:0:0:0:
192,192,114393,1,0,0:0:0:0:
448,192,114393,1,0,0:0:0:0:
192,192,114586,1,0,0:0:0:0:
64,192,114780,1,8,0:0:0:0:
320,192,114780,1,0,0:0:0:0:
448,192,114780,1,0,0:0:0:0:
320,192,114974,1,0,0:0:0:0:
64,192,115167,1,8,0:0:0:0:
192,192,115167,1,0,0:0:0:0:
448,192,115167,1,0,0:0:0:0:
64,192,115361,1,8,0:0:0:0:
320,192,115361,1,0,0:0:0:0:
192,192,115361,1,0,0:0:0:0:
448,192,115554,128,0,115941:0:0:0:0:
192,192,115748,1,0,0:0:0:0:
64,192,115941,1,8,0:0:0:0:
192,192,115941,1,0,0:0:0:0:
320,192,115941,1,0,0:0:0:0:
448,192,116135,1,0,0:0:0:0:
64,192,116328,1,8,0:0:0:0:
192,192,116328,1,0,0:0:0:0:
320,192,116328,1,0,0:0:0:0:
64,192,116522,1,0,0:0:0:0:
192,192,116716,128,8,116909:0:0:0:0:
320,192,116716,1,0,0:0:0:0:
448,192,116716,1,0,0:0:0:0:
64,192,116909,128,0,117103:0:0:0:0:
192,192,117103,1,8,0:0:0:0:
320,192,117103,1,0,0:0:0:0:
448,192,117103,1,0,0:0:0:0:
320,192,117296,1,0,0:0:0:0:
64,192,117490,1,8,0:0:0:0:
192,192,117490,1,0,0:0:0:0:
448,192,117490,1,0,0:0:0:0:
448,192,117683,1,0,0:0:0:0:
64,192,117877,1,8,0:0:0:0:
192,192,117877,1,0,0:0:0:0:
320,192,117877,1,0,0:0:0:0:
448,192,117974,1,0,0:0:0:0:
192,192,118070,1,0,0:0:0:0:
320,192,118167,1,0,0:0:0:0:
64,192,118264,1,8,0:0:0:0:
192,192,118264,1,0,0:0:0:0:
448,192,118264,1,0,0:0:0:0:
64,192,118457,1,8,0:0:0:0:
320,192,118457,1,0,0:0:0:0:
448,192,118457,1,0,0:0:0:0:
192,192,118651,1,2,0:0:0:0:
320,192,118651,1,0,0:0:0:0:
192,192,118845,1,2,0:0:0:0:
320,192,118845,1,0,0:0:0:0:
64,192,119038,1,2,0:0:0:0:
448,192,119038,1,0,0:0:0:0:
64,192,119232,1,2,0:0:0:0:
448,192,119232,1,0,0:0:0:0:
320,192,119425,1,2,0:0:0:0:
448,192,119425,1,0,0:0:0:0:
320,192,119619,1,2,0:0:0:0:
448,192,119619,1,0,0:0:0:0:
64,192,119812,1,2,0:0:0:0:
192,192,119812,1,0,0:0:0:0:
64,192,120006,1,2,0:0:0:0:
192,192,120006,1,0,0:0:0:0:
64,192,120199,1,2,0:0:0:0:
448,192,120199,1,0,0:0:0:0:
320,192,120296,1,2,0:0:0:0:
64,192,120393,1,2,0:0:0:0:
448,192,120393,1,0,0:0:0:0:
192,192,120490,1,2,0:0:0:0:
64,192,120586,1,2,0:0:0:0:
448,192,120586,1,0,0:0:0:0:
64,192,120780,1,2,0:0:0:0:
448,192,120780,1,0,0:0:0:0:
192,192,120974,1,2,0:0:0:0:
320,192,120974,1,0,0:0:0:0:
192,192,121167,1,2,0:0:0:0:
320,192,121167,1,0,0:0:0:0:
64,192,121361,128,2,121748:0:0:0:0:
448,192,121361,1,0,0:0:0:0:
192,192,121748,1,8,0:0:0:0:
320,192,121748,1,0,0:0:0:0:
448,192,121748,1,0,0:0:0:0:
