osu file format v14

[General]
AudioFilename: audio.mp3
AudioLeadIn: 0
PreviewTime: 21872
Countdown: 0
SampleSet: Soft
StackLeniency: 0.3
Mode: 0
LetterboxInBreaks: 0
WidescreenStoryboard: 1

[Editor]
Bookmarks: 23328,57210,79798
DistanceSpacing: 1.1
BeatDivisor: 8
GridSize: 4
TimelineZoom: 2.5

[Metadata]
Title:Rock It
TitleUnicode:Rock It
Artist:Hommarju
ArtistUnicode:Hommarju
Creator:toybot
Version:Underdogs' Insane
Source:beatmania IIDX 23 copula
Tags:bemani hardcore dashyy- stingy underdogs 09kami
BeatmapID:1487640
BeatmapSetID:700421

[Difficulty]
HPDrainRate:6
CircleSize:4
OverallDifficulty:7
ApproachRate:9
SliderMultiplier:1.75
SliderTickRate:1

[Events]
//Background and Video events
0,0,"owo.jpg",0,0
//Break Periods
2,57410,67904
//Storyboard Layer 0 (Background)
//Storyboard Layer 1 (Fail)
//Storyboard Layer 2 (Pass)
//Storyboard Layer 3 (Foreground)
//Storyboard Sound Samples

[TimingPoints]
740,352.941176470588,4,2,1,50,1,0
740,-133.333333333333,4,2,1,50,0,0
12034,-133.333333333333,4,2,1,60,0,0
17328,-79.9999999999999,4,2,1,70,0,0
17681,-100,4,2,1,70,0,0
22578,-100,4,2,1,5,0,0
22622,-100,4,2,1,70,0,0
22666,-100,4,2,1,5,0,0
23328,-100,4,2,1,70,0,1
23372,-100,4,2,1,70,0,0
39916,-76.9230769230769,4,2,1,70,0,0
40269,-100,4,2,1,70,0,0
45916,-100,4,2,1,80,0,1
46048,-100,4,2,1,5,0,1
46092,-100,4,2,1,80,0,1
46225,-100,4,2,1,5,0,1
46269,-100,4,2,1,80,0,1
46578,-100,4,2,1,5,0,1
46622,-100,4,2,1,80,0,1
46754,-100,4,2,1,5,0,1
46798,-100,4,2,1,80,0,1
47460,-100,4,2,1,5,0,1
47504,-100,4,2,1,80,0,1
47637,-100,4,2,1,5,0,1
47681,-100,4,2,1,80,0,1
47989,-100,4,2,1,5,0,1
48034,-100,4,2,1,80,0,1
48166,-100,4,2,1,5,0,1
48210,-100,4,2,1,80,0,1
48872,-100,4,2,1,5,0,1
48916,-100,4,2,1,80,0,1
49048,-100,4,2,1,5,0,1
49092,-100,4,2,1,80,0,1
49401,-100,4,2,1,5,0,1
49445,-100,4,2,1,80,0,1
49578,-100,4,2,1,5,0,1
49622,-100,4,2,1,80,0,1
50284,-100,4,2,1,5,0,1
50328,-100,4,2,1,80,0,1
50460,-100,4,2,1,5,0,1
50504,-100,4,2,1,80,0,1
50813,-100,4,2,1,5,0,1
50857,-100,4,2,1,80,0,1
50989,-100,4,2,1,5,0,1
51034,-100,4,2,1,80,0,1
51210,-76.9230769230769,4,2,1,80,0,1
51563,-100,4,2,1,80,0,1
55975,-100,4,2,1,75,0,1
56151,-100,4,2,1,70,0,1
56328,-100,4,2,1,65,0,1
56504,-100,4,2,1,60,0,1
56681,-100,4,2,1,50,0,1
56857,-100,4,2,1,40,0,1
57210,-100,4,2,1,50,0,0
68504,-100,4,2,1,60,0,0
78387,-166.666666666667,4,2,1,70,0,0
79401,-100,4,2,1,5,0,0
79445,-100,4,2,1,70,0,0
79798,-100,4,2,1,60,0,0
85445,-100,4,2,1,65,0,0
89681,-100,4,2,1,70,0,0
90342,-100,4,2,1,5,0,0
90387,-100,4,2,1,70,0,0
90431,-100,4,2,1,5,0,0
91092,-100,4,2,1,80,0,1
107681,-100,4,2,1,70,0,1
108034,-100,4,2,1,65,0,0
109445,-100,4,2,1,70,0,0
110857,-100,4,2,1,75,0,0
112975,-100,4,2,1,80,0,0
113681,-100,4,2,1,50,0,0
115445,-100,4,2,1,60,0,0
115798,-100,4,2,1,70,0,0
116151,-100,4,2,1,40,0,0

[Colours]
Combo1 : 238,238,0
Combo2 : 17,73,136
Combo3 : 0,128,192
Combo4 : 149,149,0

[HitObjects]
88,68,740,6,0,L|80:148,1,65.6250025033952,4|0,0:0|0:0,0:0:0:0:
168,44,1092,2,0,L|160:124,1,65.6250025033952,2|0,0:0|0:0,0:0:0:0:
248,24,1445,2,0,L|240:104,1,65.6250025033952,2|0,0:0|0:0,0:0:0:0:
324,8,1798,2,0,L|316:88,1,65.6250025033952,2|0,0:0|0:0,0:0:0:0:
396,224,2151,6,0,L|408:152,1,65.6250025033952,2|0,0:0|0:0,0:0:0:0:
316,244,2504,2,0,P|332:284|364:300,1,65.6250025033952,2|0,0:0|0:0,0:0:0:0:
300,160,2857,2,0,L|212:164,1,65.6250025033952,2|0,0:0|0:0,0:0:0:0:
120,200,3210,1,0,0:0:0:0:
111,231,3298,1,0,0:0:0:0:
120,262,3386,1,2,0:0:0:0:
144,280,3475,1,0,0:0:0:0:
180,288,3563,6,0,L|256:276,1,65.6250025033952,4|0,0:0|0:0,0:0:0:0:
232,364,3916,2,0,L|308:352,1,65.6250025033952,2|0,0:0|0:0,0:0:0:0:
328,276,4269,2,0,L|404:264,1,65.6250025033952,2|0,0:0|0:0,0:0:0:0:
380,352,4622,2,0,L|456:340,1,65.6250025033952,2|0,0:0|0:0,0:0:0:0:
460,164,4975,6,0,P|416:148|380:156,1,65.6250025033952,2|0,0:0|0:0,0:0:0:0:
372,52,5328,2,0,P|329:71|309:102,1,65.6250025033952,2|0,0:0|0:0,0:0:0:0:
200,168,5681,1,2,0:0:0:0:
312,300,5857,1,0,0:0:0:0:
312,300,5945,2,0,B|332:268|332:268|328:200,1,98.4375037550928,2|2,0:0|0:0,0:0:0:0:
216,72,6387,6,0,L|124:84,1,65.6250025033952,4|0,0:0|0:0,0:0:0:0:
56,180,6739,2,0,L|121:188,1,65.6250025033952,2|0,0:0|0:0,0:0:0:0:
244,160,7092,2,0,L|284:148,2,32.8125012516976,2|0|0,0:0|0:0|0:0,0:0:0:0:
120,272,7445,2,0,L|80:260,2,32.8125012516976,2|0|0,0:0|0:0|0:0,0:0:0:0:
264,252,7798,5,2,0:0:0:0:
120,184,7975,2,0,L|112:136,2,32.8125012516976,0|0|2,0:0|0:0|0:0,0:0:0:0:
200,340,8328,1,0,0:0:0:0:
284,240,8504,1,2,0:0:0:0:
320,244,8592,1,0,0:0:0:0:
351,247,8680,1,0,0:0:0:0:
376,248,8769,2,0,B|396:228|396:228|392:140,1,98.4375037550928,2|2,0:0|0:0,0:0:0:0:
344,24,9210,6,0,L|336:96,1,65.6250025033952,4|0,0:0|0:0,0:0:0:0:
180,120,9563,2,0,L|172:54,1,65.6250025033952,2|0,0:0|0:0,0:0:0:0:
264,116,9916,2,0,L|256:168,2,32.8125012516976,2|0|0,0:0|0:0|0:0,0:0:0:0:
96,136,10269,2,0,L|91:103,2,32.8125012516976,2|0|0,0:0|0:0|0:0,0:0:0:0:
240,184,10622,6,0,L|232:244,3,32.8125012516976,2|0|0|0,0:0|0:0|0:0|0:0,0:0:0:0:
216,232,10975,2,0,L|220:264,3,32.8125012516976,2|0|0|0,0:0|0:0|0:0|0:0,0:0:0:0:
168,340,11328,1,2,0:0:0:0:
197,353,11416,1,0,0:0:0:0:
230,355,11504,1,0,0:0:0:0:
261,346,11592,1,2,0:0:0:0:
288,327,11680,1,0,0:0:0:0:
120,132,11857,1,2,0:0:0:0:
120,132,11945,1,0,0:0:0:0:
120,132,12034,6,0,L|108:224,1,65.6250025033952,4|0,1:2|0:0,0:0:0:0:
192,96,12387,2,0,L|183:30,1,65.6250025033952,0|0,1:0|0:0,0:0:0:0:
192,196,12739,2,0,L|180:288,1,65.6250025033952,0|0,1:0|0:0,0:0:0:0:
276,104,13092,2,0,L|267:38,1,65.6250025033952,0|0,1:0|0:0,0:0:0:0:
264,232,13445,2,0,L|252:324,1,65.6250025033952,0|0,1:0|0:0,0:0:0:0:
360,112,13798,2,0,L|351:46,1,65.6250025033952,0|0,1:0|0:0,0:0:0:0:
336,280,14151,2,0,L|324:372,1,65.6250025033952,0|0,1:0|0:0,0:0:0:0:
448,120,14504,2,0,L|439:54,1,65.6250025033952,0|0,1:0|0:0,0:0:0:0:
476,320,14857,6,0,L|408:332,1,65.6250025033952,0|0,1:0|0:0,0:0:0:0:
268,172,15210,2,0,L|336:184,1,65.6250025033952,0|0,1:0|0:0,0:0:0:0:
484,236,15563,2,0,L|408:248,1,65.6250025033952,0|0,1:0|0:0,0:0:0:0:
260,88,15916,2,0,L|336:100,1,65.6250025033952,0|0,1:0|0:0,0:0:0:0:
220,244,16269,6,0,P|188:212|196:148,1,98.4375037550928,0|0,1:0|0:0,0:0:0:0:
188,161,16622,2,0,B|176:192|176:192|136:212,1,65.6250025033952,0|0,1:0|0:0,0:0:0:0:
20,128,16975,1,0,1:0:0:0:
104,44,17151,1,8,0:0:0:0:
104,44,17239,1,8,0:0:0:0:
104,44,17328,6,0,B|104:88|92:104|92:104|104:148|104:148|76:168|72:216,1,164.0625,0|0,1:2|0:0,0:0:0:0:
150,293,17681,6,0,L|148:200,1,87.5,8|0,0:0|1:0,0:0:0:0:
240,172,17945,2,0,L|232:268,1,87.5,8|0,0:0|1:0,0:0:0:0:
324,244,18210,1,8,0:0:0:0:
188,68,18387,1,0,1:0:0:0:
188,68,18475,2,0,B|220:88|220:88|280:88,1,87.5,8|0,0:0|1:0,0:0:0:0:
352,112,18739,2,0,B|360:92|360:92|356:64,1,43.75,8|0,0:0|1:0,0:0:0:0:
448,40,18916,2,0,B|440:60|440:60|444:88,1,43.75,0|0,1:0|1:0,0:0:0:0:
488,192,19092,6,0,L|388:184,1,87.5,8|0,0:0|1:0,0:0:0:0:
356,260,19357,2,0,L|456:268,1,87.5,8|0,0:0|1:0,0:0:0:0:
488,352,19622,1,8,0:0:0:0:
288,348,19798,1,0,1:0:0:0:
288,348,19887,2,0,B|260:312|260:312|264:252,1,87.5,8|0,0:0|1:0,0:0:0:0:
248,196,20151,2,0,L|256:164,4,21.875,8|0|0|0|0,0:0|1:0|1:0|0:0|1:0,0:0:0:0:
288,348,20504,6,0,L|188:344,1,87.5,8|0,0:0|1:0,0:0:0:0:
164,352,20769,2,0,P|180:292|156:256,1,87.5,8|0,0:0|1:0,0:0:0:0:
112,228,21034,2,0,P|96:288|120:324,1,87.5,8|0,0:0|1:0,0:0:0:0:
170,271,21298,2,0,L|278:259,1,87.5,8|0,0:0|1:0,0:0:0:0:
320,176,21563,1,8,0:0:0:0:
276,171,21651,1,0,1:0:0:0:
233,166,21739,1,0,1:0:0:0:
189,161,21827,1,0,1:0:0:0:
148,148,21916,6,0,L|80:156,2,43.75,4|0|0,1:2|1:0|1:0,0:0:0:0:
224,68,22181,2,0,L|216:0,2,43.75,4|0|0,1:2|0:0|0:0,0:0:0:0:
256,260,22445,1,2,1:0:0:0:
304,84,22622,1,2,1:0:0:0:
304,84,23328,6,0,B|436:72|436:72|420:120,1,175,4|8,1:2|0:0,0:0:0:0:
356,204,23857,1,0,0:0:0:0:
228,124,24034,2,0,P|216:72|244:28,1,87.5,0|0,1:0|0:0,0:0:0:0:
248,216,24387,1,8,0:0:0:0:
204,211,24475,1,0,0:0:0:0:
161,206,24563,1,0,0:0:0:0:
117,201,24651,1,0,0:0:0:0:
80,196,24739,6,0,B|68:260|68:260|84:292|84:292|64:372,1,175,0|8,1:2|0:0,0:0:0:0:
184,332,25269,1,0,0:0:0:0:
120,120,25445,2,0,L|12:124,1,87.5,0|0,1:0|0:0,0:0:0:0:
204,244,25798,1,8,0:0:0:0:
246,234,25886,1,0,0:0:0:0:
275,203,25974,1,0,0:0:0:0:
283,161,26062,1,0,0:0:0:0:
276,120,26151,6,0,B|260:12|260:12|320:56,1,175,0|8,1:0|0:0,0:0:0:0:
404,148,26681,1,0,0:0:0:0:
200,160,26857,2,0,L|100:156,1,87.5,0|0,1:0|0:0,0:0:0:0:
136,316,27210,2,0,L|192:312,1,43.75,8|0,0:0|0:0,0:0:0:0:
256,280,27387,2,0,L|299:283,1,43.75,0|0,0:0|0:0,0:0:0:0:
372,344,27563,6,0,P|396:288|380:240,1,87.5,0|0,1:0|0:0,0:0:0:0:
336,192,27828,1,0,0:0:0:0:
328,176,27916,2,0,L|324:80,1,87.5,8|0,0:0|0:0,0:0:0:0:
440,68,28269,2,0,L|428:168,1,87.5,0|0,1:0|0:0,0:0:0:0:
312,264,28622,2,0,P|268:240|260:216,1,43.75,8|0,0:0|0:0,0:0:0:0:
212,288,28798,2,0,P|197:239|209:217,1,43.75,0|0,0:0|0:0,0:0:0:0:
120,212,28975,6,0,P|156:176|200:172,1,87.5,0|0,1:0|0:0,0:0:0:0:
352,112,29328,2,0,P|316:148|272:152,1,87.5,8|0,0:0|0:0,0:0:0:0:
201,83,29681,2,0,L|189:179,1,87.5,0|0,1:0|0:0,0:0:0:0:
304,332,30034,1,8,0:0:0:0:
299,288,30122,1,0,0:0:0:0:
294,245,30210,1,0,0:0:0:0:
289,201,30298,1,0,0:0:0:0:
281,153,30387,6,0,B|337:185|337:185|461:169,1,175,0|8,1:0|0:0,0:0:0:0:
392,280,30916,1,0,0:0:0:0:
356,100,31092,2,0,L|364:8,1,87.5,0|0,1:0|0:0,0:0:0:0:
192,56,31445,1,8,0:0:0:0:
196,99,31533,1,0,0:0:0:0:
201,142,31621,1,0,0:0:0:0:
206,186,31709,1,0,0:0:0:0:
212,232,31798,6,0,P|172:212|64:300,1,175,0|8,1:0|0:0,0:0:0:0:
196,348,32328,1,0,0:0:0:0:
296,248,32504,2,0,L|288:148,1,87.5,0|0,1:0|0:0,0:0:0:0:
308,340,32857,2,0,L|364:328,1,43.75,8|0,0:0|0:0,0:0:0:0:
448,280,33034,2,0,L|392:268,1,43.75,0|0,0:0|0:0,0:0:0:0:
289,160,33210,6,0,L|269:259,1,87.5,0|0,1:0|0:0,0:0:0:0:
201,306,33475,1,0,0:0:0:0:
201,306,33563,2,0,B|173:284|173:284|92:291,1,87.5,8|0,0:0|0:0,0:0:0:0:
44,204,33916,2,0,L|103:204,1,43.75,4|0,1:2|0:0,0:0:0:0:
70,120,34092,2,0,L|125:140,1,43.75,0|0,1:0|1:0,0:0:0:0:
129,51,34269,2,0,L|174:88,1,43.75,0|0,1:0|1:0,0:0:0:0:
212,5,34445,2,0,L|241:56,1,43.75,0|0,1:0|1:0,0:0:0:0:
213,200,34622,5,4,1:2:0:0:
328,140,34798,2,0,L|296:254,1,87.5,2|8,0:0|0:0,0:0:0:0:
402,306,35151,2,0,L|434:192,1,87.5,2|0,0:0|1:0,0:0:0:0:
228,274,35504,2,0,P|276:312|312:315,1,87.5,2|8,0:0|0:0,0:0:0:0:
430,127,35857,1,2,0:0:0:0:
435,114,35945,1,0,0:0:0:0:
441,102,36034,5,0,1:0:0:0:
272,52,36210,2,0,L|281:143,1,87.5,2|8,0:0|0:0,0:0:0:0:
80,168,36563,2,0,P|79:118|108:85,1,87.5,2|0,0:0|1:0,0:0:0:0:
136,232,36916,2,0,P|93:257|50:249,1,87.5,2|8,0:0|0:0,0:0:0:0:
248,224,37269,1,2,0:0:0:0:
257,227,37357,1,0,0:0:0:0:
265,230,37445,5,0,1:0:0:0:
120,318,37622,2,0,L|136:230,1,87.5,2|8,0:0|0:0,0:0:0:0:
56,160,37975,2,0,L|40:72,1,87.5,2|0,0:0|1:0,0:0:0:0:
128,316,38328,22,0,L|144:228,1,87.5,2|8,0:0|0:0,0:0:0:0:
48,160,38681,2,0,L|32:72,1,87.5,2|0,0:0|1:0,0:0:0:0:
152,108,39034,5,2,0:0:0:0:
193,119,39122,1,0,0:0:0:0:
235,109,39210,1,8,0:0:0:0:
320,52,39387,1,2,0:0:0:0:
361,40,39475,1,0,0:0:0:0:
403,50,39563,1,0,1:0:0:0:
476,144,39739,1,0,1:0:0:0:
444,172,39828,1,0,1:0:0:0:
444,212,39916,6,0,B|448:340|448:340|408:308,1,170.624992189408,8|0,0:0|0:0,0:0:0:0:
392,292,40269,6,0,P|348:288|288:304,1,87.5,4|0,1:2|1:0,0:0:0:0:
188,320,40534,2,0,B|224:336|224:336|236:272,1,87.5,8|0,0:0|1:0,0:0:0:0:
188,212,40798,2,0,B|152:196|152:196|140:260,1,87.5,8|0,0:0|1:0,0:0:0:0:
272,208,41063,2,0,P|276:168|276:104,1,87.5,8|0,0:0|1:0,0:0:0:0:
228,32,41328,2,0,L|284:36,1,43.75,8|0,0:0|1:0,0:0:0:0:
392,60,41504,2,0,L|336:64,1,43.75,0|0,1:0|1:0,0:0:0:0:
368,156,41681,6,0,P|368:199|372:243,1,87.5,8|0,0:0|1:0,0:0:0:0:
312,320,41945,2,0,P|268:315|224:315,1,87.5,8|0,0:0|1:0,0:0:0:0:
156,248,42210,2,0,P|160:204|160:160,1,87.5,8|0,0:0|1:0,0:0:0:0:
56,88,42475,2,0,P|51:131|51:175,1,87.5,8|0,0:0|1:0,0:0:0:0:
52,264,42739,2,0,L|88:260,6,21.875,8|0|0|0|0|0|0,0:0|1:0|1:0|0:0|1:0|0:0|1:0,0:0:0:0:
16,336,43092,6,0,P|64:348|108:324,1,87.5,8|0,0:0|1:0,0:0:0:0:
188,236,43357,2,0,B|168:268|168:268|180:336,1,87.5,8|0,0:0|1:0,0:0:0:0:
248,380,43622,2,0,B|268:348|268:348|256:280,1,87.5,8|0,0:0|1:0,0:0:0:0:
276,208,43887,6,0,L|376:216,1,87.5,8|0,0:0|1:0,0:0:0:0:
264,48,44151,2,0,L|256:104,1,43.75,8|0,0:0|1:0,0:0:0:0:
192,164,44328,2,0,L|185:120,1,43.75,0|0,1:0|1:0,0:0:0:0:
48,104,44504,5,4,1:2:0:0:
29,142,44592,1,0,0:0:0:0:
33,185,44680,1,2,0:0:0:0:
59,220,44768,1,0,0:0:0:0:
96,252,44857,5,2,0:0:0:0:
114,290,44945,1,0,0:0:0:0:
110,333,45033,1,2,0:0:0:0:
84,368,45121,1,0,0:0:0:0:
40,376,45210,6,0,L|12:372,8,21.875,0|0|0|0|0|0|0|0|2,0:0|0:0|0:0|0:0|0:0|0:0|0:0|0:0|0:1,0:0:0:0:
420,288,45916,5,4,1:2:0:0:
420,288,46092,1,0,0:0:0:0:
420,288,46269,2,0,L|300:304,1,87.5,10|0,0:0|0:0,0:0:0:0:
168,208,46622,1,0,1:0:0:0:
168,208,46798,2,0,L|288:224,1,87.5,2|8,0:0|0:0,0:0:0:0:
368,188,47151,1,0,0:0:0:0:
376,176,47239,1,0,0:0:0:0:
384,164,47328,6,0,L|376:72,1,87.5,2|0,1:2|0:0,0:0:0:0:
268,28,47681,1,8,0:0:0:0:
176,88,47857,2,0,L|168:175,1,87.5,2|0,0:0|1:0,0:0:0:0:
276,276,48210,1,0,0:0:0:0:
268,140,48387,1,10,0:0:0:0:
48,256,48563,1,0,0:0:0:0:
56,272,48651,1,0,0:0:0:0:
63,288,48739,6,0,L|79:380,1,87.5,0|0,1:0|0:0,0:0:0:0:
180,248,49092,1,10,0:0:0:0:
80,168,49269,1,0,0:0:0:0:
160,348,49445,1,0,1:0:0:0:
296,156,49622,2,0,L|200:172,1,87.5,2|8,0:0|0:0,0:0:0:0:
316,336,49975,1,0,0:0:0:0:
316,336,50063,1,0,0:0:0:0:
316,336,50151,6,0,L|408:312,1,87.5,2|0,1:2|0:0,0:0:0:0:
432,180,50504,1,8,0:0:0:0:
296,156,50681,2,0,P|284:208|308:252,1,87.5,2|0,0:0|1:0,0:0:0:0:
384,76,51034,1,0,0:0:0:0:
220,68,51210,2,0,B|96:52|96:52|120:104,1,170.624992189408,12|0,0:0|0:0,0:0:0:0:
124,112,51563,6,0,L|104:210,1,87.5,8|0,0:0|1:0,0:0:0:0:
80,226,51828,2,0,L|96:346,1,87.5,8|0,0:0|1:0,0:0:0:0:
112,354,52092,2,0,P|156:366|204:354,1,87.5,8|0,0:0|1:0,0:0:0:0:
236,316,52357,2,0,P|278:307|320:319,1,87.5,8|0,0:0|1:0,0:0:0:0:
396,356,52622,2,0,L|448:352,1,43.75,8|0,0:0|1:0,0:0:0:0:
468,264,52798,2,0,L|416:260,1,43.75,0|0,1:0|1:0,0:0:0:0:
332,224,52975,6,0,P|324:180|348:128,1,87.5,8|0,0:0|1:0,0:0:0:0:
244,184,53239,2,0,P|269:147|323:127,1,87.5,8|0,0:0|1:0,0:0:0:0:
220,96,53504,2,0,P|264:88|316:112,1,87.5,8|0,0:0|1:0,0:0:0:0:
268,20,53769,2,0,P|304:45|324:99,1,87.5,8|0,0:0|1:0,0:0:0:0:
424,128,54034,2,0,L|464:120,4,21.875,8|0|0|0|0,0:0|0:0|1:0|0:0|1:0,0:0:0:0:
256,272,54387,6,0,L|152:268,1,87.5,8|0,0:0|1:0,0:0:0:0:
56,256,54651,2,0,L|160:252,1,87.5,8|0,0:0|1:0,0:0:0:0:
292,192,54916,2,0,L|188:188,1,87.5,8|0,0:0|1:0,0:0:0:0:
32,152,55181,2,0,L|136:148,1,87.5,8|0,0:0|1:0,0:0:0:0:
216,104,55445,2,0,L|224:48,1,43.75,8|0,0:0|1:0,0:0:0:0:
120,24,55622,2,0,L|126:67,1,43.75,0|0,1:0|1:0,0:0:0:0:
216,104,55798,5,4,1:2:0:0:
259,100,55886,1,0,1:0:0:0:
303,96,55974,1,0,1:0:0:0:
346,92,56062,1,0,0:0:0:0:
400,96,56151,5,0,1:0:0:0:
377,132,56239,1,0,1:0:0:0:
376,175,56327,1,0,1:0:0:0:
399,212,56415,1,0,0:0:0:0:
436,240,56504,6,0,L|448:272,6,21.875,0|0|0|0|0|0|0,1:0|1:0|1:0|0:0|1:0|1:0|1:0,0:0:0:0:
330,321,56857,2,0,L|336:300,6,21.875,0|0|0|0|0|0|0,1:0|1:0|1:0|1:0|1:0|1:0|1:0,0:0:0:0:
256,228,57210,5,4,0:0:0:0:
68,312,68504,5,4,0:0:0:0:
272,312,68857,1,2,0:0:0:0:
68,312,69210,1,0,0:0:0:0:
168,256,69387,1,0,0:0:0:0:
172,352,69563,1,2,0:0:0:0:
272,312,69739,1,0,0:0:0:0:
240,120,69916,5,0,0:0:0:0:
272,312,70269,1,2,0:0:0:0:
240,120,70622,1,0,0:0:0:0:
336,156,70798,1,0,0:0:0:0:
344,252,70975,1,2,0:0:0:0:
272,312,71151,1,0,0:0:0:0:
80,228,71328,6,0,B|140:216|140:216|188:232|188:232|260:216,1,175,4|2,0:0|0:0,0:0:0:0:
132,308,72034,1,0,0:0:0:0:
188,148,72210,1,0,0:0:0:0:
232,312,72387,1,2,0:0:0:0:
92,140,72563,1,0,0:0:0:0:
260,224,72739,6,0,B|321:237|321:237|369:221|369:221|429:233,1,175,0|2,0:0|0:0,0:0:0:0:
429,233,73445,1,0,0:0:0:0:
472,96,73622,1,0,0:0:0:0:
312,152,73798,1,2,0:0:0:0:
360,24,73975,1,0,0:0:0:0:
332,228,74151,6,0,P|276:224|244:120,1,175,4|2,0:0|0:0,0:0:0:0:
312,152,74857,1,0,0:0:0:0:
236,200,75034,1,0,0:0:0:0:
168,152,75210,1,2,0:0:0:0:
180,72,75387,1,0,0:0:0:0:
160,240,75563,6,0,B|100:224|100:224|56:240|56:240|-28:216,1,175,0|2,0:0|0:0,0:0:0:0:
104,320,76269,1,0,0:0:0:0:
208,352,76445,1,0,0:0:0:0:
160,240,76622,1,0,0:0:0:0:
264,272,76798,1,0,0:0:0:0:
228,156,76975,6,0,B|252:40|252:40|204:76,1,175,4|2,0:0|0:0,0:0:0:0:
206,73,77681,2,0,L|306:65,1,87.5,0|0,0:0|0:0,0:0:0:0:
440,152,78034,2,0,L|340:144,1,87.5,2|0,0:0|0:0,0:0:0:0:
264,344,78387,5,2,0:1:0:0:
260,336,78475,1,0,0:0:0:0:
256,328,78563,2,0,L|252:280,1,26.2499991989136,0|0,0:0|0:0,0:0:0:0:
184,248,78739,5,2,0:1:0:0:
180,256,78827,1,0,0:0:0:0:
176,264,78915,2,0,L|172:312,1,26.2499991989136,0|0,0:0|0:0,0:0:0:0:
104,352,79092,5,2,0:1:0:0:
104,352,79269,1,0,1:0:0:0:
257,281,79445,1,8,0:0:0:0:
320,48,79798,5,4,1:2:0:0:
328,58,80151,1,0,1:0:0:0:
335,67,80504,1,0,1:0:0:0:
341,77,80857,1,0,1:0:0:0:
293,162,81210,5,0,1:0:0:0:
305,163,81563,1,0,1:0:0:0:
317,164,81916,1,0,1:0:0:0:
328,167,82269,1,0,0:0:0:0:
315,277,82622,5,0,1:2:0:0:
324,269,82975,1,0,1:0:0:0:
333,261,83328,1,0,1:0:0:0:
343,255,83681,1,0,1:0:0:0:
437,312,84034,5,0,1:0:0:0:
437,299,84387,1,0,1:0:0:0:
438,287,84740,1,0,1:0:0:0:
423,101,84916,2,0,L|409:160,1,43.75,8|8,0:0|0:0,0:0:0:0:
450,208,85092,1,0,1:0:0:0:
432,20,85445,6,0,P|392:24|352:68,1,87.5,8|0,0:0|1:0,0:0:0:0:
288,140,85710,2,0,L|276:36,1,87.5,8|0,0:0|1:0,0:0:0:0:
188,16,85975,2,0,L|200:120,1,87.5,8|0,0:0|1:0,0:0:0:0:
168,184,86239,2,0,B|132:208|132:208|72:192,1,87.5,8|0,0:0|1:0,0:0:0:0:
24,136,86504,2,0,L|32:80,1,43.75,8|0,0:0|1:0,0:0:0:0:
12,216,86681,2,0,L|20:272,1,43.75,0|0,1:0|1:0,0:0:0:0:
80,336,86857,6,0,B|116:312|116:312|176:328,1,87.5,8|0,0:0|1:0,0:0:0:0:
244,364,87122,2,0,P|280:368|332:328,1,87.5,8|0,0:0|1:0,0:0:0:0:
276,196,87387,2,0,L|264:288,1,87.5,8|0,0:0|1:0,0:0:0:0:
368,232,87651,2,0,L|356:145,1,87.5,8|0,0:0|1:0,0:0:0:0:
416,88,87916,2,0,L|456:80,4,21.875,8|0|0|0|0,0:0|0:0|1:0|0:0|1:0,0:0:0:0:
240,96,88269,6,0,P|212:144|232:192,1,87.5,8|0,0:0|1:0,0:0:0:0:
344,208,88534,2,0,P|316:159|264:153,1,87.5,8|0,0:0|1:0,0:0:0:0:
196,240,88798,2,0,P|251:240|283:198,1,87.5,8|0,0:0|1:0,0:0:0:0:
148,184,89063,2,0,P|119:232|140:280,1,87.5,8|0,0:0|1:0,0:0:0:0:
168,324,89328,1,8,0:0:0:0:
208,324,89416,1,0,1:0:0:0:
256,344,89504,1,0,1:0:0:0:
300,340,89592,1,0,1:0:0:0:
336,312,89681,6,0,L|332:264,2,43.75,8|0|0,1:2|1:0|1:0,0:0:0:0:
432,336,89945,2,0,L|428:379,2,43.75,8|0|0,1:2|0:0|0:0,0:0:0:0:
436,244,90210,1,2,1:0:0:0:
268,220,90387,1,2,1:0:0:0:
452,60,91092,6,0,L|360:68,1,87.5,4|2,1:2|0:0,0:0:0:0:
352,76,91357,1,0,0:0:0:0:
340,88,91445,1,8,0:0:0:0:
404,180,91622,1,2,0:0:0:0:
236,56,91798,2,0,L|144:64,1,87.5,0|2,1:2|0:0,0:0:0:0:
136,72,92063,1,0,0:0:0:0:
124,84,92151,1,8,0:0:0:0:
124,196,92328,1,2,0:0:0:0:
132,208,92416,1,0,0:0:0:0:
140,216,92504,6,0,L|132:312,1,87.5,0|2,1:0|0:0,0:0:0:0:
224,348,92769,1,0,0:0:0:0:
240,340,92857,2,0,L|232:252,1,87.5,8|2,0:0|0:0,0:0:0:0:
260,124,93210,2,0,L|320:140,3,43.75,0|0|2|0,1:0|0:0|0:0|0:0,0:0:0:0:
309,179,93563,2,0,L|352:168,3,43.75,8|0|2|0,0:0|0:0|0:0|0:0,0:0:0:0:
392,200,93916,6,0,L|384:104,1,87.5,0|2,1:0|0:0,0:0:0:0:
392,100,94181,1,0,0:0:0:0:
404,88,94269,1,8,0:0:0:0:
496,176,94445,1,2,0:0:0:0:
420,292,94622,2,0,P|368:296|328:264,1,87.5,0|2,1:0|0:0,0:0:0:0:
320,252,94887,1,0,0:0:0:0:
310,294,94975,1,8,0:0:0:0:
212,352,95151,1,2,0:0:0:0:
191,313,95239,1,0,0:0:0:0:
191,270,95327,5,0,1:0:0:0:
312,144,95504,1,2,0:0:0:0:
289,180,95592,1,0,0:0:0:0:
251,202,95680,1,8,0:0:0:0:
56,148,95857,1,2,0:0:0:0:
98,149,95945,1,0,0:0:0:0:
136,171,96034,2,0,L|132:120,3,43.75,0|0|2|0,1:0|0:0|0:0|0:0,0:0:0:0:
120,84,96387,2,0,L|124:33,3,43.75,8|0|2|0,0:0|0:0|0:0|0:0,0:0:0:0:
160,28,96739,6,0,L|248:40,1,87.5,0|2,1:0|0:0,0:0:0:0:
264,52,97004,1,0,0:0:0:0:
272,68,97092,1,8,0:0:0:0:
212,160,97269,1,2,0:0:0:0:
328,136,97445,2,0,L|416:148,1,87.5,0|2,1:0|0:0,0:0:0:0:
432,160,97710,1,0,0:0:0:0:
440,176,97798,1,8,0:0:0:0:
380,268,97975,1,2,0:0:0:0:
396,288,98063,1,0,0:0:0:0:
412,304,98151,6,0,L|312:304,1,87.5,0|2,1:0|0:0,0:0:0:0:
224,336,98504,2,0,L|232:380,2,43.75,8|0|2,0:0|0:0|0:0,0:0:0:0:
140,272,98857,2,0,P|136:224|164:188,1,87.5,0|2,1:0|0:0,0:0:0:0:
184,176,99122,1,0,0:0:0:0:
204,164,99210,2,0,L|100:176,1,87.5,8|2,0:0|0:0,0:0:0:0:
72,44,99563,6,0,L|136:56,3,43.75,0|0|2|0,1:0|0:0|0:0|0:0,0:0:0:0:
152,64,99916,2,0,L|195:55,3,43.75,8|0|2|0,0:0|0:0|0:0|0:0,0:0:0:0:
228,40,100269,2,0,L|332:48,1,87.5,0|2,1:0|0:0,0:0:0:0:
352,36,100534,1,0,0:0:0:0:
384,32,100622,2,0,P|368:88|384:132,1,87.5,8|2,0:0|0:0,0:0:0:0:
404,132,100887,1,0,0:0:0:0:
432,152,100975,6,0,L|424:256,1,87.5,0|2,1:0|0:0,0:0:0:0:
343,322,101328,2,0,L|350:378,2,43.75,8|0|2,0:0|0:0|0:0,0:0:0:0:
269,249,101681,2,0,L|276:193,2,43.75,4|0|0,1:2|0:0|1:0,0:0:0:0:
226,338,102034,1,0,1:2:0:0:
186,318,102122,1,0,1:0:0:0:
143,315,102210,1,0,1:0:0:0:
101,327,102298,1,0,1:0:0:0:
75,352,102387,6,0,L|55:253,1,87.5,4|2,1:2|0:1,0:0:0:0:
119,88,102739,1,8,0:0:0:0:
119,88,102916,2,0,L|111:180,1,87.5,2|0,0:1|1:0,0:0:0:0:
219,335,103269,1,2,0:1:0:0:
219,335,103446,2,0,L|211:243,1,87.5,8|2,0:0|0:1,0:0:0:0:
216,228,103710,1,0,0:0:0:0:
220,208,103798,5,0,1:0:0:0:
308,92,103975,2,0,L|300:184,1,87.5,2|8,0:1|0:0,0:0:0:0:
376,352,104328,2,0,L|368:264,1,87.5,2|0,0:1|1:0,0:0:0:0:
428,84,104681,2,0,L|436:176,1,87.5,2|8,0:1|0:0,0:0:0:0:
268,256,105034,1,2,0:1:0:0:
232,231,105122,1,0,0:0:0:0:
218,190,105210,5,0,1:0:0:0:
84,72,105387,2,0,L|76:164,1,87.5,2|8,0:1|0:0,0:0:0:0:
200,104,105739,2,0,L|192:16,1,87.5,2|0,0:1|1:0,0:0:0:0:
304,72,106092,2,0,L|312:164,1,87.5,2|8,0:1|0:0,0:0:0:0:
448,192,106445,1,2,0:1:0:0:
451,148,106533,1,0,0:0:0:0:
454,104,106621,5,0,1:0:0:0:
392,256,106798,2,0,P|444:276|488:264,1,87.5,2|8,0:1|0:0,0:0:0:0:
300,248,107151,2,0,P|256:283|245:327,1,87.5,2|0,0:1|1:0,0:0:0:0:
64,276,107504,1,2,1:0:0:0:
64,276,107592,1,0,1:0:0:0:
64,276,107681,2,0,B|168:260|168:260|132:240,1,131.25,8|0,0:0|0:0,0:0:0:0:
145,247,108034,6,0,L|135:347,1,87.5,4|0,1:2|1:0,0:0:0:0:
208,184,108298,2,0,L|218:84,1,87.5,8|0,0:0|1:0,0:0:0:0:
232,276,108563,2,0,L|222:376,1,87.5,8|0,0:0|1:0,0:0:0:0:
292,200,108828,2,0,L|302:100,1,87.5,8|0,0:0|1:0,0:0:0:0:
316,28,109092,1,8,0:0:0:0:
356,42,109180,1,0,1:0:0:0:
383,76,109269,2,0,L|380:128,1,43.75,0|0,1:0|1:0,0:0:0:0:
300,112,109445,6,0,B|256:120|256:120|204:104,1,87.5,8|0,0:0|1:0,0:0:0:0:
136,176,109710,2,0,B|123:216|123:216|131:260,1,87.5,8|0,0:0|1:0,0:0:0:0:
216,328,109975,2,0,B|260:320|260:320|312:336,1,87.5,8|0,0:0|1:0,0:0:0:0:
380,260,110239,2,0,B|388:216|388:216|376:176,1,87.5,8|0,0:0|1:0,0:0:0:0:
316,80,110504,2,0,L|280:88,4,21.875,8|0|0|0|0,0:0|0:0|1:0|0:0|1:0,0:0:0:0:
160,216,110857,6,0,P|124:168|140:120,1,87.5,8|0,0:0|1:0,0:0:0:0:
232,224,111122,2,0,P|208:272|158:289,1,87.5,8|0,0:0|1:0,0:0:0:0:
200,152,111387,2,0,L|296:148,1,87.5,8|0,0:0|1:0,0:0:0:0:
319,227,111651,2,0,L|223:223,1,87.5,8|0,0:0|1:0,0:0:0:0:
304,308,111916,1,8,0:0:0:0:
347,304,112004,1,0,1:0:0:0:
381,278,112092,1,0,1:0:0:0:
397,238,112180,1,0,1:0:0:0:
396,200,112269,6,0,L|452:208,3,43.75,4|0|0|0,1:2|1:0|1:0|1:0,0:0:0:0:
484,128,112622,2,0,L|428:136,3,43.75,0|0|0|0,1:0|1:0|1:0|1:0,0:0:0:0:
368,128,112975,2,0,L|360:96,8,21.875,0|0|0|0|0|0|0|0|12,1:0|1:0|1:0|1:0|1:0|1:0|1:0|1:0|0:0,0:0:0:0:
264,36,113681,5,4,1:2:0:0:
204,104,113857,2,0,B|160:112|160:112|92:104,1,87.5,0|0,0:0|1:0,0:0:0:0:
72,72,114122,2,0,L|80:180,1,87.5,8|0,0:0|1:0,0:0:0:0:
88,200,114387,2,0,B|104:260|104:260|100:304,1,87.5,8|0,0:0|0:0,0:0:0:0:
64,356,114651,1,0,1:0:0:0:
100,376,114739,1,8,0:0:0:0:
143,371,114827,1,0,1:0:0:0:
187,367,114915,1,0,1:0:0:0:
230,362,115004,1,0,1:0:0:0:
272,348,115092,6,0,L|364:352,1,87.5,8|0,0:0|1:0,0:0:0:0:
408,348,115357,1,0,1:0:0:0:
436,304,115445,2,0,L|428:272,6,21.875,8|0|0|0|0|0|0,0:0|0:0|1:0|0:0|1:0|0:0|1:0,0:0:0:0:
352,256,115798,2,0,L|360:168,1,87.5,2|0,1:0|0:0,0:0:0:0:
416,88,116151,1,0,0:0:0:0:
480,192,116328,1,0,0:0:0:0:
