osu file format v14

[General]
AudioFilename: audio.mp3
AudioLeadIn: 0
PreviewTime: 21872
Countdown: 0
SampleSet: Soft
StackLeniency: 0.3
Mode: 0
LetterboxInBreaks: 0
WidescreenStoryboard: 1

[Editor]
Bookmarks: 23328,57210,79798
DistanceSpacing: 1
BeatDivisor: 4
GridSize: 4
TimelineZoom: 1.6

[Metadata]
Title:Rock It
TitleUnicode:Rock It
Artist:Hommarju
ArtistUnicode:Hommarju
Creator:toybot
Version:Dash's Normal
Source:beatmania IIDX 23 copula
Tags:bemani hardcore dashyy- stingy underdogs 09kami
BeatmapID:1489163
BeatmapSetID:700421

[Difficulty]
HPDrainRate:4
CircleSize:3.5
OverallDifficulty:4
ApproachRate:5.5
SliderMultiplier:1.24
SliderTickRate:1

[Events]
//Background and Video events
0,0,"owo.jpg",0,0
//Break Periods
2,57410,67379
//Storyboard Layer 0 (Background)
//Storyboard Layer 1 (Fail)
//Storyboard Layer 2 (Pass)
//Storyboard Layer 3 (Foreground)
//Storyboard Sound Samples

[TimingPoints]
740,352.941176470588,4,2,1,50,1,0
740,-100,4,2,1,50,0,0
12034,-100,4,2,1,60,0,0
17328,-100,4,2,1,70,0,0
22445,-100,4,2,1,70,0,0
22578,-100,4,2,1,5,0,0
22622,-100,4,2,1,70,0,0
22666,-100,4,2,1,5,0,0
23328,-100,4,2,1,70,0,0
27563,-100,4,2,1,70,0,0
28975,-100,4,2,1,70,0,0
33210,-100,4,2,1,70,0,0
39916,-100,4,2,1,70,0,0
40269,-100,4,2,1,70,0,0
45563,-100,4,2,1,70,0,0
45916,-100,4,2,1,80,0,1
46048,-100,4,2,1,5,0,1
46092,-100,4,2,1,80,0,1
46225,-100,4,2,1,5,0,1
46269,-100,4,2,1,80,0,1
46578,-100,4,2,1,5,0,1
46622,-100,4,2,1,80,0,1
46754,-100,4,2,1,5,0,1
46798,-100,4,2,1,80,0,1
47460,-100,4,2,1,5,0,1
47504,-100,4,2,1,80,0,1
47637,-100,4,2,1,5,0,1
47681,-100,4,2,1,80,0,1
48872,-100,4,2,1,5,0,1
48916,-100,4,2,1,80,0,1
49048,-100,4,2,1,5,0,1
49092,-100,4,2,1,80,0,1
49401,-100,4,2,1,5,0,1
49445,-100,4,2,1,80,0,1
49578,-100,4,2,1,5,0,1
49622,-100,4,2,1,80,0,1
50284,-100,4,2,1,5,0,1
50328,-100,4,2,1,80,0,1
50460,-100,4,2,1,5,0,1
50504,-100,4,2,1,80,0,1
50813,-100,4,2,1,5,0,1
50857,-100,4,2,1,80,0,1
50989,-100,4,2,1,5,0,1
51034,-100,4,2,1,80,0,1
51210,-100,4,2,1,80,0,1
55092,-100,4,2,1,80,0,1
55445,-100,4,2,1,80,0,1
55798,-100,4,2,1,80,0,1
55975,-100,4,2,1,75,0,1
56151,-100,4,2,1,70,0,1
56328,-100,4,2,1,65,0,1
56504,-100,4,2,1,60,0,1
56681,-100,4,2,1,50,0,1
56857,-100,4,2,1,40,0,1
57210,-100,4,2,1,50,0,0
68504,-100,4,2,1,60,0,0
78387,-100,4,2,1,70,0,0
79092,-100,4,2,1,70,0,0
79269,-100,4,2,1,70,0,0
79401,-100,4,2,1,5,0,0
79445,-100,4,2,1,70,0,0
79798,-100,4,2,1,60,0,0
85092,-100,4,2,1,60,0,0
85445,-100,4,2,1,65,0,0
89681,-100,4,2,1,70,0,0
90210,-100,4,2,1,70,0,0
90342,-100,4,2,1,5,0,0
90387,-100,4,2,1,70,0,0
90431,-100,4,2,1,5,0,0
91092,-100,4,2,1,80,0,1
102387,-100,4,2,1,80,0,1
107681,-100,4,2,1,70,0,1
108034,-100,4,2,1,65,0,1
109445,-100,4,2,1,70,0,1
110857,-100,4,2,1,75,0,1
112975,-100,4,2,1,80,0,1
113328,-100,4,2,1,80,0,1
113681,-100,4,2,1,50,0,0
115445,-100,4,2,1,60,0,0
115798,-100,4,2,1,70,0,1
115887,-100,4,2,1,70,0,0
116151,-100,4,2,1,40,0,0

[Colours]
Combo1 : 238,238,0
Combo2 : 17,73,136
Combo3 : 0,128,192
Combo4 : 149,149,0

[HitObjects]
94,328,740,6,0,P|110:277|106:194,1,124,4|2,0:0|0:0,0:0:0:0:
40,103,1445,2,0,L|165:115,1,124,2|2,0:0|0:0,0:0:0:0:
250,26,2151,1,2,0:0:0:0:
341,109,2504,1,2,0:0:0:0:
429,22,2857,2,0,B|468:77|468:77|495:150,1,124,2|0,0:0|0:0,0:0:0:0:
428,239,3563,6,0,L|294:244,1,124,4|2,0:0|0:0,0:0:0:0:
185,206,4269,2,0,B|128:187|128:187|64:181,1,124,2|2,0:0|0:0,0:0:0:0:
4,290,4975,1,2,0:0:0:0:
116,342,5328,1,2,0:0:0:0:
221,276,5681,2,0,L|208:139,1,124,2|0,0:0|0:0,0:0:0:0:
134,53,6387,6,0,B|111:118|111:118|93:196,1,124,4|2,0:0|0:0,0:0:0:0:
158,279,7092,2,0,L|286:289,1,124,2|2,0:0|0:0,0:0:0:0:
365,197,7798,1,2,0:0:0:0:
445,291,8151,1,2,0:0:0:0:
492,179,8504,2,0,P|492:123|482:48,1,124,2|0,0:0|0:0,0:0:0:0:
362,26,9210,6,0,B|339:87|339:87|330:164,1,124,4|2,0:0|0:0,0:0:0:0:
374,262,9916,2,0,P|333:293|247:291,1,124,2|2,0:0|0:0,0:0:0:0:
201,188,10622,1,2,0:0:0:0:
324,182,10975,1,2,0:0:0:0:
250,281,11328,2,0,L|122:297,1,124,2|0,0:0|0:0,0:0:0:0:
54,216,12034,6,0,P|114:195|175:206,1,124,4|0,1:2|1:0,0:0:0:0:
242,306,12739,2,0,L|254:374,2,62,0|0|0,1:0|0:0|1:0,0:0:0:0:
335,205,13445,6,0,B|352:150|352:150|360:75,1,124,0|0,1:0|1:0,0:0:0:0:
247,29,14151,2,0,L|168:26,2,62,0|0|0,1:0|0:0|1:0,0:0:0:0:
221,150,14857,6,0,P|186:177|92:146,1,124,0|0,1:0|1:0,0:0:0:0:
19,82,15563,2,0,L|27:15,2,62,0|0|0,1:0|0:0|1:0,0:0:0:0:
25,206,16269,2,0,B|44:268|44:268|53:347,1,124,0|0,1:0|1:0,0:0:0:0:
171,357,16975,2,0,L|239:348,1,62,0|8,1:0|0:0,0:0:0:0:
281,310,17328,1,0,1:2:0:0:
404,318,17681,6,0,L|410:250,1,62,8|0,0:0|1:0,0:0:0:0:
389,197,18034,2,0,B|376:160|376:160|371:112,1,62,0|8,0:0|0:0,0:0:0:0:
383,76,18387,2,0,P|352:102|255:88,1,124,0|8,1:0|0:0,0:0:0:0:
165,36,19092,6,0,P|130:29|91:40,1,62,8|0,0:0|1:0,0:0:0:0:
55,71,19445,2,0,L|50:147,1,62,0|8,0:0|0:0,0:0:0:0:
63,193,19798,2,0,B|82:251|82:251|95:331,1,124,0|8,1:0|0:0,0:0:0:0:
212,344,20504,6,0,L|294:339,1,62,8|0,0:0|1:0,0:0:0:0:
325,305,20857,2,0,P|339:278|345:233,1,62,0|8,0:0|0:0,0:0:0:0:
305,199,21210,2,0,P|287:157|343:78,1,124,0|8,1:0|0:0,0:0:0:0:
439,113,21916,2,0,L|428:6,2,93,4|4|2,1:2|1:2|1:0,0:0:0:0:
423,173,22622,1,2,1:0:0:0:
218,313,23328,6,0,L|141:307,1,62,4|0,1:2|0:0,0:0:0:0:
105,272,23681,2,0,P|125:240|132:197,1,62,8|0,0:0|0:0,0:0:0:0:
102,161,24034,1,0,1:0:0:0:
106,37,24387,1,8,0:0:0:0:
199,117,24739,6,0,L|276:121,1,62,0|0,1:2|0:0,0:0:0:0:
320,103,25092,2,0,P|372:84|403:86,1,62,8|0,0:0|0:0,0:0:0:0:
436,105,25445,1,0,1:0:0:0:
494,214,25798,1,8,0:0:0:0:
424,316,26151,6,0,B|391:305|391:305|350:297,1,62,0|0,1:0|0:0,0:0:0:0:
312,333,26504,2,0,L|246:334,1,62,8|0,0:0|0:0,0:0:0:0:
192,310,26857,1,0,1:0:0:0:
255,208,27210,1,8,0:0:0:0:
199,96,27563,6,0,L|118:102,1,62,0|0,1:0|0:0,0:0:0:0:
79,124,27916,2,0,B|62:164|62:164|57:199,1,62,8|0,0:0|0:0,0:0:0:0:
77,241,28269,2,0,L|83:315,2,62,0|0|8,1:0|0:0|0:0,0:0:0:0:
189,187,28975,6,0,P|233:173|269:172,1,62,0|0,1:0|0:0,0:0:0:0:
291,216,29328,2,0,L|360:226,1,62,8|0,0:0|0:0,0:0:0:0:
414,224,29681,1,0,1:0:0:0:
510,145,30034,1,8,0:0:0:0:
425,54,30387,6,0,B|392:76|392:76|360:105,1,62,0|0,1:0|0:0,0:0:0:0:
327,122,30739,2,0,P|287:136|244:133,1,62,8|0,0:0|0:0,0:0:0:0:
209,115,31092,1,0,1:0:0:0:
121,26,31445,1,8,0:0:0:0:
28,108,31798,6,0,L|22:187,1,62,0|0,1:0|0:0,0:0:0:0:
34,231,32151,2,0,B|69:248|69:248|104:255,1,62,8|0,0:0|0:0,0:0:0:0:
145,221,32504,1,0,1:0:0:0:
193,335,32857,1,8,0:0:0:0:
265,234,33210,6,0,L|259:165,1,62,0|0,1:0|0:0,0:0:0:0:
259,110,33563,2,0,B|303:87|303:87|332:80,1,62,8|0,0:0|0:0,0:0:0:0:
377,83,33916,1,4,1:2:0:0:
427,325,34622,5,4,1:2:0:0:
427,325,34798,2,0,P|395:313|304:344,1,124,2|2,0:0|0:0,0:0:0:0:
188,354,35504,2,0,B|163:296|163:296|152:214,1,124,2|2,0:0|0:0,0:0:0:0:
232,138,36210,6,0,L|237:2,1,124,2|2,0:0|0:0,0:0:0:0:
347,69,36916,2,0,L|360:214,1,124,2|2,0:0|0:0,0:0:0:0:
315,304,37622,6,0,B|256:282|256:282|178:271,1,124,2|2,0:0|0:0,0:0:0:0:
82,325,38328,2,0,P|100:286|106:190,1,124,2|2,0:0|0:0,0:0:0:0:
52,95,39034,2,0,L|183:104,1,124,2|2,0:0|0:0,0:0:0:0:
295,69,39739,1,0,1:0:0:0:
295,69,39916,2,0,L|375:73,1,62,8|0,0:0|0:0,0:0:0:0:
416,88,40269,6,0,P|436:128|443:162,1,62,4|0,1:2|1:0,0:0:0:0:
431,206,40622,2,0,L|426:281,1,62,0|8,0:0|0:0,0:0:0:0:
448,325,40975,2,0,P|405:300|323:318,1,124,0|8,1:0|0:0,0:0:0:0:
216,352,41681,6,0,L|141:344,1,62,8|0,0:0|1:0,0:0:0:0:
95,326,42034,2,0,B|59:317|59:317|26:315,1,62,0|8,0:0|0:0,0:0:0:0:
2,262,42387,2,0,P|30:223|45:150,1,124,0|8,1:0|0:0,0:0:0:0:
22,27,43092,6,0,B|62:31|62:31|111:46,1,62,8|0,0:0|1:0,0:0:0:0:
137,66,43445,2,0,P|176:75|211:62,1,62,0|8,0:0|0:0,0:0:0:0:
249,37,43798,2,0,P|278:24|369:52,1,124,0|8,1:0|0:0,0:0:0:0:
432,149,44504,6,0,L|443:229,2,62,4|2|2,1:2|0:0|0:0,0:0:0:0:
348,240,45210,2,0,L|267:238,1,62,0|0,0:0|0:0,0:0:0:0:
225,251,45563,2,0,B|211:286|211:286|204:323,1,62,2|0,0:1|0:0,0:0:0:0:
176,364,45916,6,0,L|111:358,2,62,4|0|10,1:2|0:0|0:0,0:0:0:0:
123,251,46622,2,0,L|51:243,2,62,0|2|8,1:0|0:0|0:0,0:0:0:0:
169,209,47151,1,0,0:0:0:0:
169,209,47328,6,0,P|179:167|183:127,2,62,2|0|8,1:2|0:0|0:0,0:0:0:0:
276,146,48034,2,0,L|268:60,2,62,0|0|10,1:0|0:0|0:0,0:0:0:0:
316,193,48563,1,0,0:0:0:0:
316,193,48739,6,0,P|359:198|401:217,2,62,0|0|10,1:0|0:0|0:0,0:0:0:0:
350,312,49445,2,0,L|430:308,2,62,0|2|8,1:0|0:0|0:0,0:0:0:0:
301,351,49975,1,0,0:0:0:0:
301,351,50151,6,0,L|233:344,2,62,2|0|8,1:2|0:0|0:0,0:0:0:0:
224,252,50857,2,0,P|171:257|148:269,1,62,0|0,1:0|0:0,0:0:0:0:
112,296,51210,1,12,0:0:0:0:
32,200,51563,6,0,L|46:76,1,124,8|0,0:0|0:0,0:0:0:0:
98,43,52092,2,0,B|162:64|162:64|234:59,1,124,8|0,0:0|0:0,0:0:0:0:
273,30,52622,1,8,0:0:0:0:
340,133,52975,6,0,L|484:142,1,124,8|0,0:0|0:0,0:0:0:0:
503,188,53504,2,0,B|469:248|469:248|453:322,1,124,8|0,0:0|0:0,0:0:0:0:
451,364,54034,1,8,0:0:0:0:
276,255,54387,2,0,P|222:308|110:283,2,186,8|8|8,0:0|0:0|0:0,0:0:0:0:
284,193,55622,1,0,1:0:0:0:
284,193,55798,6,0,L|276:116,2,62,4|0|0,1:2|1:0|1:0,0:0:0:0:
181,122,56504,2,0,B|186:85|186:85|202:46,2,62,0|0|0,1:0|1:0|1:0,0:0:0:0:
178,246,57210,1,4,0:0:0:0:
384,313,68504,6,0,P|339:325|252:313,1,124,4|2,0:0|0:0,0:0:0:0:
150,264,69210,2,0,L|80:259,2,62,0|0|2,0:0|0:0|0:0,0:0:0:0:
262,210,69916,6,0,P|273:147|250:77,1,124,0|2,0:0|0:0,0:0:0:0:
133,80,70622,2,0,L|123:7,2,62,0|0|2,0:0|0:0|0:0,0:0:0:0:
52,174,71328,6,0,L|62:303,1,124,4|2,0:0|0:0,0:0:0:0:
183,322,72034,2,0,L|188:244,2,62,0|0|2,0:0|0:0|0:0,0:0:0:0:
300,362,72739,6,0,P|360:365|417:312,1,124,0|2,0:0|0:0,0:0:0:0:
450,210,73445,2,0,L|524:219,2,62,0|0|2,0:0|0:0|0:0,0:0:0:0:
348,138,74151,6,0,B|331:82|331:82|325:5,1,124,4|2,0:0|0:0,0:0:0:0:
203,38,74857,2,0,L|199:118,2,62,0|0|2,0:0|0:0|0:0,0:0:0:0:
79,22,75563,6,0,L|91:168,1,124,0|2,0:0|0:0,0:0:0:0:
140,258,76269,2,0,L|220:264,2,62,0|0|0,0:0|0:0|0:0,0:0:0:0:
194,146,76975,6,0,P|225:120|321:137,1,124,4|2,0:0|0:0,0:0:0:0:
358,236,77681,2,0,L|428:232,2,62,0|0|2,0:0|0:0|0:0,0:0:0:0:
276,329,78387,6,0,L|126:318,2,124,2|2|2,0:1|0:1|0:1,0:0:0:0:
399,337,79445,1,8,0:0:0:0:
340,227,79798,6,0,P|321:166|344:97,1,124,4|0,1:2|1:0,0:0:0:0:
445,51,80504,2,0,L|512:58,2,62,0|0|0,1:0|0:0|1:0,0:0:0:0:
324,18,81210,6,0,B|265:44|265:44|184:44,1,124,0|0,1:0|1:0,0:0:0:0:
81,34,81916,2,0,L|-5:26,2,62,0|0|0,1:0|0:0|0:0,0:0:0:0:
193,87,82622,6,0,P|225:139|226:215,1,124,0|0,1:2|1:0,0:0:0:0:
181,315,83328,2,0,L|175:391,2,62,0|0|0,1:0|0:0|1:0,0:0:0:0:
68,262,84034,2,0,B|99:214|99:214|160:169,1,124,0|0,1:0|1:0,0:0:0:0:
276,186,84739,2,0,L|360:175,1,62,0|8,1:0|0:0,0:0:0:0:
390,145,85092,1,0,1:0:0:0:
429,262,85445,6,0,P|392:263|351:275,1,62,8|0,0:0|1:0,0:0:0:0:
322,311,85798,2,0,B|285:317|285:317|239:311,1,62,0|8,0:0|0:0,0:0:0:0:
201,293,86151,2,0,L|65:285,1,124,0|8,1:0|0:0,0:0:0:0:
6,183,86857,6,0,P|26:139|25:99,1,62,8|0,0:0|1:0,0:0:0:0:
11,65,87210,2,0,B|33:28|33:28|59:5,1,62,0|8,0:0|0:0,0:0:0:0:
108,22,87563,2,0,P|150:35|236:23,1,124,0|8,1:0|0:0,0:0:0:0:
351,10,88269,6,0,L|356:84,1,62,8|0,0:0|1:0,0:0:0:0:
388,124,88622,2,0,P|398:155|398:197,1,62,0|8,0:0|0:0,0:0:0:0:
390,245,88975,2,0,P|350:231|272:266,1,124,0|8,1:0|0:0,0:0:0:0:
159,299,89681,2,0,L|53:309,2,93,8|8|2,1:2|1:2|1:0,0:0:0:0:
190,245,90387,1,2,1:0:0:0:
376,82,91092,6,0,L|380:165,1,62,4|2,1:2|0:0,0:0:0:0:
369,205,91445,2,0,B|334:224|334:224|295:228,1,62,8|2,0:0|0:0,0:0:0:0:
264,186,91798,2,0,L|258:116,2,62,0|2|8,1:2|0:0|0:0,0:0:0:0:
252,309,92504,6,0,B|218:296|218:296|169:291,1,62,0|2,1:0|0:0,0:0:0:0:
131,306,92857,2,0,L|64:314,1,62,8|2,0:0|0:0,0:0:0:0:
20,274,93210,2,0,L|26:200,2,62,0|2|8,1:0|0:0|0:0,0:0:0:0:
130,216,93916,6,0,B|127:166|127:166|118:137,1,62,0|2,1:0|0:0,0:0:0:0:
81,108,94269,2,0,L|86:35,1,62,8|2,0:0|0:0,0:0:0:0:
143,24,94622,2,0,L|232:30,2,62,0|2|8,1:0|0:0|0:0,0:0:0:0:
215,125,95328,6,0,P|250:138|333:110,1,124,0|8,1:0|0:0,0:0:0:0:
381,78,95857,1,2,0:0:0:0:
381,78,96034,2,0,B|410:142|410:142|425:215,1,124,0|8,1:0|0:0,0:0:0:0:
412,318,96739,6,0,L|347:312,1,62,0|2,1:0|0:0,0:0:0:0:
291,331,97092,2,0,P|261:347|224:352,1,62,8|2,0:0|0:0,0:0:0:0:
192,305,97445,2,0,L|193:235,2,62,0|2|8,1:0|0:0|0:0,0:0:0:0:
73,341,98151,6,0,B|60:303|60:303|58:260,1,62,0|2,1:0|0:0,0:0:0:0:
85,225,98504,2,0,P|97:189|95:153,1,62,8|2,0:0|0:0,0:0:0:0:
60,114,98857,2,0,L|57:43,2,62,0|2|8,1:0|0:0|0:0,0:0:0:0:
173,62,99563,6,0,P|214:45|244:48,1,62,0|2,1:0|0:0,0:0:0:0:
283,78,99916,2,0,L|348:75,1,62,8|2,0:0|0:0,0:0:0:0:
405,60,100269,2,0,P|412:18|409:-19,2,62,0|2|8,1:0|0:0|0:0,0:0:0:0:
339,165,100975,2,0,P|323:216|345:297,1,124,0|8,1:0|0:0,0:0:0:0:
380,328,101504,1,2,0:0:0:0:
380,328,101681,1,4,1:2:0:0:
162,209,102387,5,4,1:2:0:0:
162,209,102563,2,0,L|31:206,1,124,2|2,0:1|0:1,0:0:0:0:
94,316,103269,2,0,B|161:320|161:320|236:305,1,124,2|2,0:1|0:1,0:0:0:0:
301,217,103975,6,0,P|286:173|306:73,1,124,2|2,0:1|0:1,0:0:0:0:
400,32,104681,2,0,L|409:157,1,124,2|2,0:1|0:1,0:0:0:0:
425,278,105387,6,0,B|367:308|367:308|299:319,1,124,2|2,0:1|0:1,0:0:0:0:
208,244,106092,2,0,P|166:228|79:251,1,124,2|2,0:1|0:1,0:0:0:0:
5,152,106798,6,0,B|-4:87|-4:87|9:23,1,124,2|2,0:1|0:1,0:0:0:0:
127,63,107504,1,2,1:0:0:0:
127,63,107681,2,0,L|205:66,1,62,8|0,0:0|0:0,0:0:0:0:
250,55,108034,6,0,B|291:39|291:39|325:33,1,62,4|0,1:2|1:0,0:0:0:0:
368,53,108387,2,0,P|407:65|439:64,1,62,0|8,0:0|0:0,0:0:0:0:
486,45,108739,2,0,P|463:88|474:175,1,124,0|8,1:0|0:0,0:0:0:0:
504,279,109445,6,0,L|436:271,1,62,8|0,0:0|1:0,0:0:0:0:
383,291,109798,2,0,B|351:315|351:315|312:326,1,62,0|8,0:0|0:0,0:0:0:0:
272,296,110151,2,0,P|242:285|165:327,1,124,0|8,1:0|0:0,0:0:0:0:
44,297,110857,6,0,L|36:229,1,62,8|0,0:0|1:0,0:0:0:0:
71,183,111210,2,0,B|81:150|81:150|86:112,1,62,0|8,0:0|0:0,0:0:0:0:
73,61,111563,2,0,L|203:67,1,124,0|8,1:0|0:0,0:0:0:0:
304,128,112269,6,0,L|386:120,2,62,4|0|0,1:2|1:0|1:0,0:0:0:0:
196,189,112975,2,0,P|184:232|183:258,1,62,0|0,1:0|1:0,0:0:0:0:
186,311,113328,1,12,0:0:0:0:
299,260,113681,6,0,L|431:265,1,124,4|0,1:2|1:0,0:0:0:0:
483,156,114387,2,0,L|474:73,2,62,8|0|0,0:0|0:0|1:0,0:0:0:0:
359,140,115092,6,0,B|339:83|339:83|337:8,1,124,8|8,0:0|0:0,0:0:0:0:
237,93,115798,1,2,1:0:0:0:
