osu file format v14

[General]
AudioFilename: audio.mp3
AudioLeadIn: 0
PreviewTime: 21872
Countdown: 0
SampleSet: Soft
StackLeniency: 0.3
Mode: 0
LetterboxInBreaks: 0
WidescreenStoryboard: 1

[Editor]
Bookmarks: 23328,57210,79798
DistanceSpacing: 0.9
BeatDivisor: 8
GridSize: 4
TimelineZoom: 1.6

[Metadata]
Title:Rock It
TitleUnicode:Rock It
Artist:Hommarju
ArtistUnicode:Hommarju
Creator:toybot
Version:Blast Off
Source:beatmania IIDX 23 copula
Tags:bemani hardcore dashyy- stingy underdogs 09kami
BeatmapID:1484308
BeatmapSetID:700421

[Difficulty]
HPDrainRate:5
CircleSize:4.5
OverallDifficulty:8.5
ApproachRate:9.6
SliderMultiplier:2.04
SliderTickRate:1

[Events]
//Background and Video events
0,0,"owo.jpg",0,0
//Break Periods
//Storyboard Layer 0 (Background)
//Storyboard Layer 1 (Fail)
//Storyboard Layer 2 (Pass)
//Storyboard Layer 3 (Foreground)
//Storyboard Sound Samples

[TimingPoints]
740,352.941176470588,4,2,1,50,1,0
740,-200,4,2,1,50,0,0
12034,-100,4,2,1,60,0,0
17328,-71.4285714285714,4,2,1,70,0,0
22445,-50,4,2,1,70,0,0
22578,-50,4,2,1,5,0,0
22622,-50,4,2,1,70,0,0
22666,-50,4,2,1,5,0,0
23328,-100,4,2,1,70,0,0
27563,-66.6666666666667,4,2,1,70,0,0
28975,-100,4,2,1,70,0,0
33210,-66.6666666666667,4,2,1,70,0,0
39916,-100,4,2,1,70,0,0
40269,-83.3333333333333,4,2,1,70,0,0
45563,-133.333333333333,4,2,1,70,0,0
45916,-80,4,2,1,80,0,1
46048,-80,4,2,1,5,0,1
46092,-80,4,2,1,80,0,1
46225,-80,4,2,1,5,0,1
46269,-80,4,2,1,80,0,1
46578,-80,4,2,1,5,0,1
46622,-80,4,2,1,80,0,1
46754,-80,4,2,1,5,0,1
46798,-80,4,2,1,80,0,1
47460,-80,4,2,1,5,0,1
47504,-80,4,2,1,80,0,1
47637,-80,4,2,1,5,0,1
47681,-80,4,2,1,80,0,1
47989,-80,4,2,1,5,0,1
48034,-80,4,2,1,80,0,1
48166,-80,4,2,1,5,0,1
48210,-80,4,2,1,80,0,1
48872,-80,4,2,1,5,0,1
48916,-80,4,2,1,80,0,1
49048,-80,4,2,1,5,0,1
49092,-80,4,2,1,80,0,1
49401,-80,4,2,1,5,0,1
49445,-80,4,2,1,80,0,1
49578,-80,4,2,1,5,0,1
49622,-80,4,2,1,80,0,1
50284,-80,4,2,1,5,0,1
50328,-80,4,2,1,80,0,1
50460,-80,4,2,1,5,0,1
50504,-80,4,2,1,80,0,1
50813,-80,4,2,1,5,0,1
50857,-80,4,2,1,80,0,1
50989,-80,4,2,1,5,0,1
51034,-80,4,2,1,80,0,1
51210,-66.6666666666667,4,2,1,80,0,1
55092,-62.5,4,2,1,80,0,1
55445,-58.8235294117647,4,2,1,80,0,1
55798,-66.6666666666667,4,2,1,80,0,1
55975,-80,4,2,1,75,0,1
56151,-100,4,2,1,70,0,1
56328,-133.333333333333,4,2,1,65,0,1
56504,-133.333333333333,4,2,1,60,0,1
56681,-133.333333333333,4,2,1,50,0,1
56857,-133.333333333333,4,2,1,40,0,1
57210,-133.333333333333,4,2,1,50,0,0
68504,-133.333333333333,4,2,1,60,0,0
78387,-133.333333333333,4,2,1,70,0,0
79092,-100,4,2,1,70,0,0
79269,-66.6666666666667,4,2,1,70,0,0
79401,-66.6666666666667,4,2,1,5,0,0
79445,-66.6666666666667,4,2,1,70,0,0
79798,-100,4,2,1,60,0,0
85092,-71.4285714285714,4,2,1,60,0,0
85445,-71.4285714285714,4,2,1,65,0,0
89681,-71.4285714285714,4,2,1,70,0,0
90210,-50,4,2,1,70,0,0
90342,-50,4,2,1,5,0,0
90387,-50,4,2,1,70,0,0
90431,-50,4,2,1,5,0,0
91092,-80,4,2,1,80,0,1
102387,-66.6666666666667,4,2,1,80,0,1
107681,-50,4,2,1,70,0,1
108034,-66.6666666666667,4,2,1,65,0,1
109445,-62.5,4,2,1,70,0,1
110857,-58.8235294117647,4,2,1,75,0,1
112975,-100,4,2,1,80,0,1
113328,-50,4,2,1,80,0,1
113681,-133.333333333333,4,2,1,50,0,0
115445,-83.3333333333333,4,2,1,60,0,0
115798,-50,4,2,1,70,0,1
115887,-50,4,2,1,70,0,0
116151,-200,4,2,1,40,0,0

[Colours]
Combo1 : 238,238,0
Combo2 : 17,73,136
Combo3 : 0,128,192
Combo4 : 149,149,0

[HitObjects]
34,184,740,5,4,0:0:0:0:
113,165,1092,1,2,0:0:0:0:
194,182,1445,1,2,0:0:0:0:
245,245,1798,1,2,0:0:0:0:
315,286,2151,1,2,0:0:0:0:
396,282,2504,1,2,0:0:0:0:
458,229,2857,1,2,0:0:0:0:
463,147,3034,5,0,0:0:0:0:
463,147,3122,1,2,0:0:0:0:
427,72,3298,5,0,0:0:0:0:
427,72,3387,1,2,0:0:0:0:
498,31,3563,5,4,0:0:0:0:
427,72,3916,1,2,0:0:0:0:
345,81,4269,1,2,0:0:0:0:
265,62,4622,1,2,0:0:0:0:
191,27,4975,1,2,0:0:0:0:
109,30,5328,1,2,0:0:0:0:
39,72,5681,1,2,0:0:0:0:
28,152,5857,5,0,0:0:0:0:
28,152,5945,1,2,0:0:0:0:
68,213,6122,5,0,0:0:0:0:
61,237,6210,1,2,0:0:0:0:
66,262,6298,1,0,0:0:0:0:
61,289,6387,6,0,L|180:283,1,102,4|2,0:0|0:0,0:0:0:0:
328,324,7092,2,0,L|385:328,1,51,2|0,0:0|0:0,0:0:0:0:
274,262,7445,2,0,L|265:190,1,51,2|0,0:0|0:0,0:0:0:0:
376,84,7798,6,0,L|382:134,2,51,2|0|2,0:0|0:0|0:0,0:0:0:0:
306,143,8328,1,0,0:0:0:0:
381,69,8504,1,2,0:0:0:0:
457,170,8681,5,0,0:0:0:0:
457,170,8769,1,2,0:0:0:0:
238,59,8945,5,0,0:0:0:0:
238,59,9034,1,2,0:0:0:0:
321,333,9210,6,0,P|370:333|405:298,1,102,4|2,0:0|0:0,0:0:0:0:
217,190,9916,2,0,P|209:214|212:239,1,51,2|0,0:0|0:0,0:0:0:0:
326,246,10269,2,0,P|333:221|330:196,1,51,2|0,0:0|0:0,0:0:0:0:
224,175,10622,6,0,L|164:183,2,51,2|0|2,0:0|0:0|0:0,0:0:0:0:
250,79,11151,1,0,0:0:0:0:
91,222,11328,1,2,0:0:0:0:
156,30,11504,5,0,0:0:0:0:
156,30,11592,1,2,0:0:0:0:
237,330,11769,5,0,0:0:0:0:
251,257,11857,1,2,0:0:0:0:
178,243,11945,1,0,0:0:0:0:
164,316,12034,6,0,L|297:301,1,102,4|0,1:2|0:0,0:0:0:0:
422,131,12387,2,0,P|372:139|336:174,1,102,0|0,1:0|0:0,0:0:0:0:
305,380,12739,1,0,1:0:0:0:
248,176,13092,1,0,1:0:0:0:
164,316,13445,6,0,L|297:301,1,102,0|0,1:0|0:0,0:0:0:0:
422,131,13798,2,0,P|372:139|336:174,1,102,0|0,1:0|0:0,0:0:0:0:
305,380,14150,1,0,1:0:0:0:
248,176,14504,2,0,L|156:167,1,51,0|0,1:0|0:0,0:0:0:0:
124,161,14681,1,0,0:0:0:0:
49,228,14857,6,0,P|22:185|27:135,1,102,0|0,1:0|0:0,0:0:0:0:
197,0,15210,2,0,L|181:124,1,102,0|0,1:0|0:0,0:0:0:0:
157,283,15563,1,0,1:0:0:0:
88,52,15916,1,0,1:0:0:0:
49,228,16269,6,0,P|22:185|27:135,1,102,0|0,1:0|0:0,0:0:0:0:
197,0,16622,2,0,L|181:124,1,102,0|0,1:0|0:0,0:0:0:0:
157,283,16975,1,0,1:0:0:0:
88,52,17151,5,8,0:0:0:0:
112,125,17239,1,8,0:0:0:0:
183,101,17328,2,0,P|253:151|170:174,1,214.199993463135,0|0,1:2|0:0,0:0:0:0:
112,125,17681,5,8,0:0:0:0:
303,54,17857,1,0,1:0:0:0:
303,54,17945,1,8,0:0:0:0:
267,255,18122,1,0,1:0:0:0:
267,255,18210,1,8,0:0:0:0:
193,45,18387,1,0,1:0:0:0:
193,45,18475,1,8,0:0:0:0:
350,176,18652,1,0,1:0:0:0:
350,176,18739,6,0,L|363:83,1,71.399997821045,8|0,0:0|1:0,0:0:0:0:
276,13,18916,2,0,L|285:83,1,71.399997821045,0|0,1:0|1:0,0:0:0:0:
322,269,19092,5,8,0:0:0:0:
404,40,19269,1,0,1:0:0:0:
404,40,19357,1,8,0:0:0:0:
203,177,19534,1,0,1:0:0:0:
203,177,19622,1,8,0:0:0:0:
446,184,19798,1,0,1:0:0:0:
446,184,19886,1,8,0:0:0:0:
253,35,20063,1,0,1:0:0:0:
253,35,20151,6,0,L|264:92,2,35.6999989105225,8|0|0,0:0|1:0|1:0,0:0:0:0:
316,121,20328,2,0,L|302:226,1,71.399997821045,0|0,1:0|1:0,0:0:0:0:
169,331,20504,5,8,0:0:0:0:
125,97,20681,1,0,1:0:0:0:
125,97,20769,1,8,0:0:0:0:
359,53,20945,1,0,1:0:0:0:
359,53,21033,1,8,0:0:0:0:
403,287,21210,1,0,1:0:0:0:
403,287,21298,1,8,0:0:0:0:
123,216,21475,1,0,1:0:0:0:
123,216,21563,6,0,L|234:231,1,71.399997821045,8|0,0:0|1:0,0:0:0:0:
405,168,21739,2,0,L|294:153,1,71.399997821045,0|0,1:0|1:0,0:0:0:0:
204,241,21916,5,4,1:2:0:0:
209,321,22004,2,0,P|243:312|269:288,1,71.399997821045,0|0,1:0|1:0,0:0:0:0:
265,100,22181,2,0,P|239:75|131:92,1,142.79999564209,4|0,1:2|0:0,0:0:0:0:
195,142,22445,6,0,B|227:145|227:145|255:130|255:130|285:139|285:139|317:128|317:128|368:136,1,153,2|0,1:0|0:0,0:0:0:0:
405,168,22622,2,0,P|430:165|451:152,1,51,2|0,1:0|0:0,0:0:0:0:
412,64,23328,5,4,1:2:0:0:
402,87,23416,1,0,0:0:0:0:
401,112,23504,1,0,0:0:0:0:
408,136,23592,1,0,0:0:0:0:
463,191,23681,5,8,0:0:0:0:
463,191,23769,2,0,L|475:313,1,102,0|0,0:0|0:0,0:0:0:0:
463,305,24034,2,0,P|414:319|370:296,1,102,0|0,1:0|0:0,0:0:0:0:
315,247,24298,1,0,0:0:0:0:
249,279,24387,5,8,0:0:0:0:
249,279,24475,1,0,0:0:0:0:
249,279,24563,2,0,L|258:362,1,51,0|0,0:0|0:0,0:0:0:0:
100,320,24739,5,0,1:2:0:0:
110,297,24827,1,0,0:0:0:0:
111,272,24915,1,0,0:0:0:0:
104,248,25003,1,0,0:0:0:0:
65,193,25092,5,8,0:0:0:0:
65,193,25180,2,0,L|53:71,1,102,0|0,0:0|0:0,0:0:0:0:
64,78,25445,2,0,P|113:64|157:87,1,102,0|0,1:0|0:0,0:0:0:0:
213,137,25709,1,0,0:0:0:0:
279,105,25798,5,8,0:0:0:0:
279,105,25886,1,0,0:0:0:0:
279,105,25974,2,0,L|270:22,1,51,0|0,0:0|0:0,0:0:0:0:
452,56,26151,5,0,1:0:0:0:
450,81,26239,1,0,0:0:0:0:
448,106,26328,1,0,0:0:0:0:
446,131,26416,1,0,0:0:0:0:
497,191,26504,5,8,0:0:0:0:
497,191,26592,2,0,P|520:235|513:284,1,102,0|0,0:0|0:0,0:0:0:0:
501,297,26857,2,0,B|447:277|451:313|388:291,1,102,0|0,1:0|0:0,0:0:0:0:
333,264,27122,1,0,0:0:0:0:
274,314,27210,5,8,0:0:0:0:
274,314,27298,1,0,0:0:0:0:
274,314,27387,2,0,P|238:325|203:323,1,51,0|0,0:0|0:0,0:0:0:0:
75,349,27563,5,0,1:0:0:0:
104,307,27651,1,0,0:0:0:0:
111,256,27739,1,0,0:0:0:0:
98,206,27828,1,0,0:0:0:0:
62,169,27916,5,8,0:0:0:0:
54,167,28004,1,0,0:0:0:0:
46,165,28092,1,0,0:0:0:0:
38,163,28181,1,0,0:0:0:0:
12,237,28269,6,0,P|84:223|114:156,1,153.000005836487,0|0,1:0|0:0,0:0:0:0:
120,79,28534,1,0,0:0:0:0:
183,121,28622,5,8,0:0:0:0:
227,132,28710,1,0,0:0:0:0:
272,128,28798,1,0,0:0:0:0:
312,106,28887,1,0,0:0:0:0:
377,69,28975,5,0,1:0:0:0:
355,46,29063,1,0,0:0:0:0:
326,35,29151,1,0,0:0:0:0:
295,36,29239,1,0,0:0:0:0:
226,63,29328,5,8,0:0:0:0:
226,63,29416,2,0,L|103:54,1,102,0|0,0:0|0:0,0:0:0:0:
107,51,29681,2,0,P|94:101|129:155,1,102,0|0,1:0|0:0,0:0:0:0:
185,157,29945,1,0,0:0:0:0:
223,228,30034,5,8,0:0:0:0:
223,228,30122,1,0,0:0:0:0:
223,228,30210,2,0,L|211:299,1,51,0|0,0:0|0:0,0:0:0:0:
151,315,30387,5,0,1:0:0:0:
173,338,30475,1,0,0:0:0:0:
202,349,30563,1,0,0:0:0:0:
233,348,30651,1,0,0:0:0:0:
299,315,30740,5,8,0:0:0:0:
299,315,30828,2,0,L|422:324,1,102,0|0,0:0|0:0,0:0:0:0:
418,327,31093,2,0,P|431:277|396:223,1,102,0|0,1:0|0:0,0:0:0:0:
339,221,31357,1,0,0:0:0:0:
305,156,31446,5,8,0:0:0:0:
305,156,31534,1,0,0:0:0:0:
305,156,31622,2,0,L|317:85,1,51,0|0,0:0|0:0,0:0:0:0:
332,24,31798,5,0,1:0:0:0:
301,30,31887,1,0,0:0:0:0:
271,36,31975,1,0,0:0:0:0:
241,42,32063,1,0,0:0:0:0:
169,28,32151,5,8,0:0:0:0:
169,28,32239,2,0,P|125:53|110:100,1,102,0|0,0:0|0:0,0:0:0:0:
111,117,32504,2,0,L|120:246,1,102,0|0,1:0|0:0,0:0:0:0:
182,255,32769,1,0,0:0:0:0:
254,229,32857,5,8,0:0:0:0:
254,229,32945,1,0,0:0:0:0:
254,229,33034,2,0,L|260:150,1,51,0|0,0:0|0:0,0:0:0:0:
165,363,33210,5,0,1:0:0:0:
209,354,33298,1,0,0:0:0:0:
254,345,33387,1,0,0:0:0:0:
298,336,33475,1,0,0:0:0:0:
342,326,33563,5,8,0:0:0:0:
350,327,33651,1,0,0:0:0:0:
358,328,33739,1,0,0:0:0:0:
367,329,33827,1,0,0:0:0:0:
427,378,33916,6,0,P|441:347|440:305,1,76.5000029182435,4|0,1:2|0:0,0:0:0:0:
396,180,34092,2,0,P|378:172|359:170,1,38.2500014591218,0|0,1:0|0:0,0:0:0:0:
384,161,34181,2,0,P|364:161|346:167,1,38.2500014591218,0|0,1:0|0:0,0:0:0:0:
365,148,34269,2,0,P|348:156|333:169,1,38.2500014591218,0|0,1:0|0:0,0:0:0:0:
342,144,34357,2,0,P|330:159|323:176,1,38.2500014591218,0|0,1:0|0:0,0:0:0:0:
320,151,34445,2,0,P|315:169|316:188,1,38.2500014591218,0|0,1:0|0:0,0:0:0:0:
303,166,34534,2,0,P|307:184|315:201,1,38.2500014591218,0|0,1:0|0:0,0:0:0:0:
241,198,34622,6,0,L|152:193,1,76.5000029182435,4|0,1:2|0:0,0:0:0:0:
31,69,34798,2,0,P|63:50|100:50,1,76.5000029182435,2|0,0:0|0:0,0:0:0:0:
160,112,34975,1,8,0:0:0:0:
136,151,35063,1,0,0:0:0:0:
128,196,35151,1,2,0:0:0:0:
139,240,35239,1,0,0:0:0:0:
164,277,35328,6,0,P|169:315|68:355,1,153.000005836487,0|2,1:0|0:0,0:0:0:0:
30,312,35592,1,0,0:0:0:0:
62,243,35681,1,8,0:0:0:0:
62,243,35769,1,0,0:0:0:0:
62,243,35857,2,0,L|45:142,1,76.5000029182435,2|0,0:0|0:0,0:0:0:0:
170,36,36034,6,0,L|155:142,1,76.5000029182435,0|0,1:0|0:0,0:0:0:0:
274,239,36210,2,0,P|305:217|322:184,1,76.5000029182435,2|0,0:0|0:0,0:0:0:0:
137,192,36387,1,8,0:0:0:0:
168,225,36475,1,0,0:0:0:0:
180,268,36563,1,2,0:0:0:0:
174,313,36651,1,0,0:0:0:0:
153,353,36739,6,0,B|240:335|217:377|325:356,1,153.000005836487,0|2,1:0|0:0,0:0:0:0:
363,313,37004,1,0,0:0:0:0:
433,356,37092,1,8,0:0:0:0:
433,356,37181,1,0,0:0:0:0:
433,356,37269,2,0,P|479:352|514:326,1,76.5000029182435,2|0,0:0|0:0,0:0:0:0:
506,151,37445,6,0,P|472:132|434:130,1,76.5000029182435,0|0,1:0|0:0,0:0:0:0:
297,281,37622,2,0,L|411:261,1,76.5000029182435,2|0,0:0|0:0,0:0:0:0:
419,54,37798,1,8,0:0:0:0:
378,76,37887,1,0,0:0:0:0:
359,117,37975,1,2,0:0:0:0:
360,162,38063,1,0,0:0:0:0:
390,196,38151,6,0,L|368:20,1,153.000005836487,0|2,1:0|0:0,0:0:0:0:
303,12,38416,1,0,0:0:0:0:
248,71,38504,1,8,0:0:0:0:
248,71,38592,1,0,0:0:0:0:
247,71,38681,2,0,P|213:89|176:93,1,76.5000029182435,2|0,0:0|0:0,0:0:0:0:
16,72,38857,5,0,1:0:0:0:
90,57,38945,1,0,0:0:0:0:
159,91,39034,1,2,0:0:0:0:
188,161,39122,1,0,0:0:0:0:
165,233,39210,2,0,L|47:224,1,76.5000029182435,8|0,0:0|0:0,0:0:0:0:
11,317,39387,2,0,L|129:308,1,76.5000029182435,2|0,0:0|0:0,0:0:0:0:
268,376,39563,6,0,P|294:309|239:264,1,153.000005836487,0|0,1:0|1:0,0:0:0:0:
176,314,39828,1,0,1:0:0:0:
165,233,39916,6,0,L|160:190,6,25.5,8|0|0|0|0|0|0,0:0|0:0|0:0|0:0|0:0|0:0|0:0,0:0:0:0:
176,314,40269,5,4,1:2:0:0:
103,160,40445,1,0,1:0:0:0:
103,160,40534,1,8,0:0:0:0:
239,264,40710,1,0,1:0:0:0:
239,264,40798,1,8,0:0:0:0:
80,329,40975,1,0,1:0:0:0:
80,329,41063,1,8,0:0:0:0:
103,160,41239,1,0,1:0:0:0:
103,160,41328,6,0,L|176:168,1,61.1999981323243,8|0,0:0|1:0,0:0:0:0:
314,246,41504,2,0,L|240:252,1,61.1999981323243,0|0,1:0|1:0,0:0:0:0:
21,272,41681,5,8,0:0:0:0:
94,77,41857,1,0,1:0:0:0:
94,77,41945,1,8,0:0:0:0:
160,351,42122,1,0,1:0:0:0:
160,351,42210,1,8,0:0:0:0:
233,156,42386,1,0,1:0:0:0:
233,156,42474,1,8,0:0:0:0:
12,193,42651,1,0,1:0:0:0:
12,193,42739,6,0,L|61:199,2,30.5999990661621,8|0|0,0:0|1:0|1:0,0:0:0:0:
116,234,42916,2,0,L|184:219,1,61.1999981323243,0|0,1:0|1:0,0:0:0:0:
356,38,43092,5,8,0:0:0:0:
111,159,43269,1,0,1:0:0:0:
111,159,43357,1,8,0:0:0:0:
381,206,43534,1,0,1:0:0:0:
381,206,43622,1,8,0:0:0:0:
191,10,43799,1,0,1:0:0:0:
191,10,43887,1,8,0:0:0:0:
228,287,44063,1,0,1:0:0:0:
228,287,44151,5,8,0:0:0:0:
247,242,44239,1,0,1:0:0:0:
245,192,44328,1,0,1:0:0:0:
222,148,44416,1,0,1:0:0:0:
180,121,44504,6,0,L|114:112,1,61.1999981323243,4|0,1:2|0:0,0:0:0:0:
41,189,44681,2,0,L|107:198,1,61.1999981323243,2|0,0:0|0:0,0:0:0:0:
174,105,44857,6,0,L|108:96,1,61.1999981323243,2|0,0:0|0:0,0:0:0:0:
35,173,45034,2,0,L|101:182,1,61.1999981323243,2|0,0:0|0:0,0:0:0:0:
276,247,45210,6,0,L|290:219,1,30.5999990661621,0|0,0:0|0:0,0:0:0:0:
262,228,45298,2,0,L|261:196,1,30.5999990661621,0|0,0:0|0:0,0:0:0:0:
241,218,45387,2,0,L|224:191,1,30.5999990661621,0|0,0:0|0:0,0:0:0:0:
217,220,45475,2,0,L|189:206,1,30.5999990661621,0|0,0:0|0:0,0:0:0:0:
198,234,45564,6,2,L|215:360,1,114.750004377365,2|0,0:1|0:0,0:0:0:0:
136,370,45916,6,0,L|16:360,1,95.625,4|0,1:2|0:0,0:0:0:0:
33,349,46092,2,0,L|153:359,1,95.625,0|0,0:0|0:0,0:0:0:0:
213,347,46269,2,0,P|219:315|211:285,1,63.75,10|0,0:0|0:0,0:0:0:0:
114,218,46445,6,0,L|103:103,1,95.625,0|0,0:0|0:0,0:0:0:0:
113,108,46622,2,0,L|122:203,1,95.625,0|0,1:0|0:0,0:0:0:0:
65,276,46798,2,0,P|34:268|10:247,1,63.75,2|0,0:0|0:0,0:0:0:0:
6,79,46975,6,0,P|28:56|58:46,1,63.75,8|0,0:0|0:0,0:0:0:0:
206,126,47151,1,0,0:0:0:0:
139,164,47239,1,0,0:0:0:0:
72,202,47328,6,0,P|64:149|98:99,1,95.625,2|0,1:2|0:0,0:0:0:0:
206,126,47504,2,0,P|214:179|180:229,1,95.625,0|0,0:0|0:0,0:0:0:0:
139,164,47681,2,0,L|132:71,1,63.75,8|0,0:0|0:0,0:0:0:0:
280,0,47857,6,0,L|272:103,1,95.625,2|0,0:0|0:0,0:0:0:0:
283,169,48034,2,0,P|242:163|201:111,1,95.625,0|0,1:0|0:0,0:0:0:0:
260,26,48210,2,0,P|300:31|329:51,1,63.75
501,161,48387,5,10,0:0:0:0:
396,37,48563,1,0,0:0:0:0:
366,106,48651,1,0,0:0:0:0:
410,167,48739,6,0,L|423:290,1,95.625,0|0,1:0|0:0,0:0:0:0:
432,276,48916,2,0,L|421:180,1,95.625
366,106,49092,2,0,P|334:107|309:125,1,63.75,10|0,0:0|0:0,0:0:0:0:
269,214,49269,6,0,L|153:207,1,95.625,0|0,0:0|0:0,0:0:0:0:
163,196,49445,2,0,L|258:201,1,95.625,0|0,1:0|0:0,0:0:0:0:
333,255,49622,2,0,P|348:283|349:315,1,63.75,2|0,0:0|0:0,0:0:0:0:
126,366,49798,6,0,P|96:311|111:250,1,127.5,8|0,0:0|0:0,0:0:0:0:
163,196,50063,1,0,0:0:0:0:
119,134,50151,6,0,L|105:22,1,95.625,2|0,1:2|0:0,0:0:0:0:
94,29,50328,2,0,P|79:66|81:95,1,63.75
163,196,50504,2,0,P|201:197|240:177,1,63.75,8|0,0:0|0:0,0:0:0:0:
341,152,50681,6,0,L|330:247,1,95.625,2|0,0:0|0:0,0:0:0:0:
320,264,50858,2,0,P|307:233|307:197,1,63.75,0|0,1:0|0:0,0:0:0:0:
403,102,51034,2,0,P|441:101|480:121,1,63.75
501,313,51210,6,0,B|376:277|415:393|250:346,1,229.500008754731,12|0,0:0|0:0,0:0:0:0:
196,305,51563,5,8,0:0:0:0:
184,200,51739,1,0,1:0:0:0:
184,200,51828,1,8,0:0:0:0:
178,325,52004,1,0,1:0:0:0:
178,325,52092,1,8,0:0:0:0:
159,192,52269,1,0,1:0:0:0:
159,192,52357,1,8,0:0:0:0:
157,339,52534,1,0,1:0:0:0:
157,339,52623,6,0,L|78:360,1,76.5000029182435,8|0,0:0|1:0,0:0:0:0:
62,176,52798,2,0,L|139:179,1,76.5000029182435,0|0,1:0|1:0,0:0:0:0:
316,305,52975,5,8,0:0:0:0:
328,200,53151,1,0,1:0:0:0:
328,200,53240,1,8,0:0:0:0:
334,325,53416,1,0,1:0:0:0:
334,325,53504,1,8,0:0:0:0:
353,192,53681,1,0,1:0:0:0:
353,192,53769,1,8,0:0:0:0:
355,339,53946,1,0,1:0:0:0:
355,339,54035,6,0,L|434:360,1,76.5000029182435,8|0,0:0|1:0,0:0:0:0:
449,176,54210,2,0,L|373:179,1,76.5000029182435,0|0,1:0|1:0,0:0:0:0:
207,268,54387,6,0,P|166:194|197:126,1,153.000005836487,8|0,0:0|1:0,0:0:0:0:
305,116,54651,2,0,P|345:189|314:257,1,153.000005836487,8|0,0:0|1:0,0:0:0:0:
256,192,54916,1,8,0:0:0:0:
119,81,55092,5,0,1:0:0:0:
119,81,55181,2,0,L|299:113,1,163.2,8|0,0:0|1:0,0:0:0:0:
384,301,55445,2,0,L|288:285,1,86.7000016536713,8|0,0:0|1:0,0:0:0:0:
104,253,55622,1,0,1:0:0:0:
122,329,55710,1,0,1:0:0:0:
200,313,55798,6,0,P|215:276|206:232,1,76.5000029182435,4|0,1:2|1:0,0:0:0:0:
84,150,55975,6,0,P|52:152|25:168,1,63.75,0|0,1:0|1:0,0:0:0:0:
71,325,56151,6,0,P|96:331|121:328,1,51,0|0,1:0|1:0,0:0:0:0:
245,162,56328,6,0,P|243:142|236:125,1,38.2500014591218,0|0,1:0|1:0,0:0:0:0:
60,48,56504,6,0,L|23:45,2,19.1250007295609,0|0|0,1:0|1:0|1:0,0:0:0:0:
101,107,56681,2,0,L|138:104,2,19.1250007295609,0|0|0,1:0|1:0|1:0,0:0:0:0:
57,169,56857,6,0,L|53:196,1,19.1250007295609,0|0,1:0|1:0,0:0:0:0:
64,182,56945,2,0,L|60:209,1,19.1250007295609,0|0,1:0|1:0,0:0:0:0:
71,195,57034,2,0,L|67:222,1,19.1250007295609,0|0,1:0|1:0,0:0:0:0:
78,208,57122,2,0,L|74:235,1,19.1250007295609,0|0,1:0|1:0,0:0:0:0:
66,297,57210,5,4,0:0:0:0:
138,272,57563,1,2,0:0:0:0:
214,278,57916,1,0,0:0:0:0:
281,314,58092,1,0,0:0:0:0:
353,330,58269,1,2,0:0:0:0:
423,300,58622,1,0,0:0:0:0:
444,226,58975,1,2,0:0:0:0:
415,154,59328,1,0,0:0:0:0:
396,79,59504,1,0,0:0:0:0:
433,12,59681,1,2,0:0:0:0:
504,38,60034,5,0,0:0:0:0:
469,106,60387,1,2,0:0:0:0:
394,123,60739,1,0,0:0:0:0:
321,98,60916,1,0,0:0:0:0:
263,47,61092,1,2,0:0:0:0:
188,27,61445,1,0,0:0:0:0:
116,55,61798,1,2,0:0:0:0:
80,122,62151,1,0,0:0:0:0:
92,197,62328,1,0,0:0:0:0:
153,242,62504,1,2,0:0:0:0:
230,249,62681,1,0,0:0:0:0:
321,191,62857,5,0,0:0:0:0:
310,109,63210,1,2,0:0:0:0:
295,204,63563,1,0,0:0:0:0:
267,101,63739,1,0,0:0:0:0:
274,221,63916,1,2,0:0:0:0:
225,105,64269,1,0,0:0:0:0:
260,248,64622,1,2,0:0:0:0:
186,128,64975,1,0,0:0:0:0:
256,275,65151,1,0,0:0:0:0:
165,169,65328,1,2,0:0:0:0:
28,346,65681,5,0,0:0:0:0:
167,334,66034,1,2,0:0:0:0:
39,320,66387,1,0,0:0:0:0:
156,308,66563,1,0,0:0:0:0:
47,292,66739,1,2,0:0:0:0:
151,278,67092,1,0,0:0:0:0:
47,260,67445,1,2,0:0:0:0:
152,244,67798,1,0,0:0:0:0:
41,225,67975,1,0,0:0:0:0:
163,211,68151,1,2,0:0:0:0:
31,190,68328,1,0,0:0:0:0:
56,22,68504,5,4,0:0:0:0:
85,97,68857,1,2,0:0:0:0:
157,61,69210,1,0,0:0:0:0:
186,136,69387,1,0,0:0:0:0:
258,100,69563,1,2,0:0:0:0:
287,175,69916,1,0,0:0:0:0:
359,139,70269,1,2,0:0:0:0:
388,214,70622,1,0,0:0:0:0:
460,178,70798,1,0,0:0:0:0:
489,253,70975,1,2,0:0:0:0:
489,253,71063,1,0,0:0:0:0:
489,253,71151,1,0,0:0:0:0:
503,77,71328,5,4,0:0:0:0:
359,107,71681,1,2,0:0:0:0:
443,146,72034,1,0,0:0:0:0:
299,176,72210,1,0,0:0:0:0:
383,215,72387,1,2,0:0:0:0:
239,245,72739,1,0,0:0:0:0:
323,284,73092,1,2,0:0:0:0:
173,314,73445,1,0,0:0:0:0:
259,351,73622,1,0,0:0:0:0:
267,313,73710,1,0,0:0:0:0:
260,276,73798,1,2,0:0:0:0:
239,245,73886,1,0,0:0:0:0:
207,224,73974,1,0,0:0:0:0:
169,216,74063,1,0,0:0:0:0:
132,224,74151,6,0,P|110:193|110:155,1,76.5000029182435,4|0,0:0|0:0,0:0:0:0:
269,107,74504,2,0,L|185:112,1,76.5000029182435,2|0,0:0|0:0,0:0:0:0:
54,19,74857,2,0,P|90:28|115:56,1,76.5000029182435,0|0,0:0|0:0,0:0:0:0:
21,279,75210,1,2,0:0:0:0:
53,98,75387,2,0,L|60:147,1,38.2500014591218,0|0,0:0|0:0,0:0:0:0:
128,194,75563,6,0,L|121:285,1,76.5000029182435,0|0,0:0|0:0,0:0:0:0:
183,321,75828,1,0,0:0:0:0:
183,321,75916,2,0,P|224:321|273:279,1,76.5000029182435,2|0,0:0|0:0,0:0:0:0:
345,155,76269,2,0,P|312:134|275:130,1,76.5000029182435,0|0,0:0|0:0,0:0:0:0:
199,107,76534,2,0,L|211:196,1,76.5000029182435
263,232,76798,1,0,0:0:0:0:
69,145,76975,6,0,P|71:107|94:77,1,76.5000029182435,4|0,0:0|0:0,0:0:0:0:
132,221,77328,2,0,L|122:314,1,76.5000029182435,2|0,0:0|0:0,0:0:0:0:
279,356,77681,2,0,P|316:354|348:334,1,76.5000029182435,0|0,0:0|0:0,0:0:0:0:
365,185,78034,1,2,0:0:0:0:
200,371,78210,2,0,L|193:320,1,38.2500014591218,0|0,0:0|0:0,0:0:0:0:
158,117,78387,5,2,0:1:0:0:
155,130,78475,1,0,0:0:0:0:
169,133,78563,1,0,0:0:0:0:
171,119,78651,1,0,0:0:0:0:
103,134,78739,5,2,0:1:0:0:
146,192,78827,1,0,0:0:0:0:
215,168,78915,1,0,0:0:0:0:
214,95,79003,1,0,0:0:0:0:
144,74,79092,6,0,L|70:83,1,51,2|0,0:1|0:0,0:0:0:0:
1,272,79269,2,0,P|46:304|102:298,1,114.750004377365,0|0,1:0|0:0,0:0:0:0:
154,246,79445,6,0,B|179:193|162:131|85:133|54:164|52:212|72:250,1,229.500008754731,8|0,0:0|0:0,0:0:0:0:
102,297,79798,5,4,1:2:0:0:
225,142,79975,1,0,0:0:0:0:
264,354,80151,2,0,P|202:348|168:310,1,102,0|0,1:0|0:0,0:0:0:0:
150,120,80504,5,0,1:0:0:0:
241,281,80681,1,0,0:0:0:0:
225,142,80857,1,0,1:0:0:0:
266,208,81034,1,0,0:0:0:0:
301,140,81210,5,0,1:0:0:0:
164,278,81387,1,0,0:0:0:0:
369,357,81563,2,0,P|392:299|382:257,1,102,0|0,1:0|0:0,0:0:0:0:
225,142,81916,5,0,1:0:0:0:
315,297,82092,1,0,0:0:0:0:
315,297,82181,1,0,0:0:0:0:
425,153,82357,1,0,0:0:0:0:
425,153,82445,2,0,L|366:161,1,51,0|0,0:0|0:0,0:0:0:0:
209,233,82622,5,0,1:2:0:0:
315,61,82798,1,0,0:0:0:0:
272,283,82975,2,0,P|234:310|163:303,1,102,0|0,1:0|0:0,0:0:0:0:
135,96,83328,5,0,1:0:0:0:
209,233,83504,1,0,0:0:0:0:
195,150,83681,1,0,1:0:0:0:
180,310,83857,1,0,0:0:0:0:
266,183,84034,5,0,1:0:0:0:
104,293,84210,1,0,0:0:0:0:
127,17,84387,2,0,P|175:29|206:68,1,102,0|0,1:0|0:0,0:0:0:0:
209,233,84739,5,0,1:0:0:0:
52,115,84916,1,8,0:0:0:0:
129,98,85004,1,8,0:0:0:0:
148,172,85092,6,0,B|160:245|160:245|130:299|130:299|145:393,1,214.199993463135,0|0,1:0|0:0,0:0:0:0:
215,318,85445,5,8,0:0:0:0:
75,230,85622,1,0,1:0:0:0:
75,230,85710,1,8,0:0:0:0:
237,243,85887,1,0,1:0:0:0:
237,243,85975,1,8,0:0:0:0:
53,305,86151,1,0,1:0:0:0:
53,305,86239,1,8,0:0:0:0:
227,165,86416,1,0,1:0:0:0:
227,165,86504,6,0,L|146:183,1,71.399997821045,8|0,0:0|1:0,0:0:0:0:
63,383,86681,2,0,L|144:365,1,71.399997821045,0|0,1:0|1:0,0:0:0:0:
144,170,86857,5,8,0:0:0:0:
146,378,87034,1,0,1:0:0:0:
146,378,87122,1,8,0:0:0:0:
70,210,87298,1,0,1:0:0:0:
70,210,87387,1,8,0:0:0:0:
220,338,87563,1,0,1:0:0:0:
220,338,87651,1,8,0:0:0:0:
36,279,87828,1,0,1:0:0:0:
36,279,87916,6,0,L|48:359,1,71.399997821045,8|0,0:0|1:0,0:0:0:0:
254,269,88092,2,0,L|242:189,1,71.399997821045,0|0,1:0|1:0,0:0:0:0:
143,41,88269,5,8,0:0:0:0:
369,343,88445,1,0,1:0:0:0:
369,343,88533,1,8,0:0:0:0:
96,181,88710,1,0,1:0:0:0:
96,181,88798,1,8,0:0:0:0:
416,203,88975,1,0,1:0:0:0:
416,203,89063,1,8,0:0:0:0:
161,300,89239,1,0,1:0:0:0:
161,300,89328,6,0,P|197:293|246:288,1,71.399997821045,8|0,0:0|1:0,0:0:0:0:
351,84,89504,2,0,P|314:90|266:96,1,71.399997821045,0|0,1:0|1:0,0:0:0:0:
42,148,89681,5,8,1:2:0:0:
30,73,89769,2,0,P|66:75|96:94,1,71.399997821045,0|0,1:0|1:0,0:0:0:0:
97,357,89945,2,0,P|74:291|108:231,1,142.79999564209,8|0,1:2|0:0,0:0:0:0:
302,276,90210,6,0,B|273:274|248:270|248:270|216:291|216:291|187:285|187:285|171:298|146:303,1,153,2|0,1:0|0:0,0:0:0:0:
35,314,90387,2,0,P|32:285|58:247,1,51,2|0,1:0|0:0,0:0:0:0:
187,152,91092,5,4,1:2:0:0:
203,83,91181,1,0,0:0:0:0:
165,23,91269,1,2,0:0:0:0:
95,22,91357,1,0,0:0:0:0:
41,67,91445,5,8,0:0:0:0:
96,111,91534,1,0,0:0:0:0:
120,176,91622,1,2,0:0:0:0:
115,245,91710,1,0,0:0:0:0:
79,304,91798,6,0,L|9:298,1,63.75,0|0,1:2|0:0,0:0:0:0:
187,152,91975,2,0,L|257:146,1,63.75,2|0,0:0|0:0,0:0:0:0:
461,259,92151,1,8,0:0:0:0:
390,277,92239,1,0,0:0:0:0:
372,206,92328,1,2,0:0:0:0:
443,188,92416,1,0,0:0:0:0:
461,259,92504,6,0,P|460:294|446:327,1,63.75,0|0,1:0|0:0,0:0:0:0:
335,141,92681,1,2,0:0:0:0:
297,203,92769,2,0,P|271:227|238:240,1,63.75,0|8,0:0|0:0,0:0:0:0:
291,30,92946,1,0,0:0:0:0:
220,47,93034,2,0,P|184:45|152:31,1,63.75,2|0,0:0|0:0,0:0:0:0:
71,87,93210,6,0,P|93:111|121:125,1,63.75,0|0,1:0|0:0,0:0:0:0:
112,235,93387,1,2,0:0:0:0:
183,247,93475,2,0,P|214:248|244:238,1,63.75,0|8,0:0|0:0,0:0:0:0:
315,322,93651,1,0,0:0:0:0:
373,280,93739,2,0,P|396:258|410:230,1,63.75,2|0,0:0|0:0,0:0:0:0:
504,79,93916,6,0,L|439:89,1,63.75,0|0,1:0|0:0,0:0:0:0:
210,191,94092,1,2,0:0:0:0:
272,225,94181,2,0,L|335:215,1,63.75,0|8,0:0|0:0,0:0:0:0:
377,54,94357,1,0,0:0:0:0:
315,20,94446,2,0,L|251:29,1,63.75,2|0,0:0|0:0,0:0:0:0:
21,182,94622,5,0,1:0:0:0:
87,203,94710,1,0,0:0:0:0:
153,180,94798,1,2,0:0:0:0:
188,118,94887,1,0,0:0:0:0:
174,49,94975,5,8,0:0:0:0:
138,70,95063,1,0,0:0:0:0:
120,108,95151,1,2,0:0:0:0:
126,149,95239,1,0,0:0:0:0:
153,180,95328,6,0,L|223:169,1,63.75,0|0,1:0|0:0,0:0:0:0:
440,260,95504,2,0,L|370:271,1,63.75,2|0,0:0|0:0,0:0:0:0:
138,270,95681,6,0,L|208:259,1,63.75,8|0,0:0|0:0,0:0:0:0:
425,350,95857,2,0,L|355:361,1,63.75,2|0,0:0|0:0,0:0:0:0:
174,49,96034,6,0,B|226:57|226:57|245:73|245:73|297:83,1,127.5,0|2,1:0|0:0,0:0:0:0:
314,87,96298,1,0,0:0:0:0:
333,91,96387,5,8,0:0:0:0:
340,158,96475,1,0,0:0:0:0:
347,225,96563,2,0,L|354:307,1,63.75,2|0,0:0|0:0,0:0:0:0:
113,356,96739,5,0,1:0:0:0:
110,285,96828,1,0,0:0:0:0:
158,234,96916,1,2,0:0:0:0:
227,225,97004,1,0,0:0:0:0:
286,261,97092,5,8,0:0:0:0:
347,225,97181,1,0,0:0:0:0:
366,157,97269,1,2,0:0:0:0:
341,91,97357,1,0,0:0:0:0:
288,44,97445,6,0,L|200:63,1,63.75,0|0,1:0|0:0,0:0:0:0:
26,201,97622,2,0,L|88:214,1,63.75,2|0,0:0|0:0,0:0:0:0:
301,329,97798,1,8,0:0:0:0:
286,261,97886,1,0,0:0:0:0:
218,276,97975,1,2,0:0:0:0:
233,344,98062,1,0,0:0:0:0:
300,329,98151,6,0,P|314:300|316:268,1,63.75,0|0,1:0|0:0,0:0:0:0:
180,165,98328,1,2,0:0:0:0:
238,202,98417,2,0,P|267:190|291:169,1,63.75,0|8,0:0|0:0,0:0:0:0:
268,0,98592,1,0,0:0:0:0:
283,67,98681,2,0,P|311:80|343:82,1,63.75,2|0,0:0|0:0,0:0:0:0:
472,21,98857,6,0,P|440:22|411:36,1,63.75,0|0,1:0|0:0,0:0:0:0:
440,254,99034,1,2,0:0:0:0:
417,187,99122,2,0,P|393:165|363:154,1,63.75,0|8,0:0|0:0,0:0:0:0:
229,329,99299,1,0,0:0:0:0:
260,265,99387,2,0,P|258:233|244:204,1,63.75,2|0,0:0|0:0,0:0:0:0:
99,64,99563,6,0,L|193:54,1,63.75,0|0,1:0|0:0,0:0:0:0:
422,196,99739,1,2,0:0:0:0:
364,154,99828,2,0,L|300:160,1,63.75,0|8,0:0|0:0,0:0:0:0:
59,219,100004,1,0,0:0:0:0:
117,259,100093,2,0,L|180:253,1,63.75,2|0,0:0|0:0,0:0:0:0:
292,27,100269,5,0,1:0:0:0:
222,20,100357,1,0,0:0:0:0:
163,58,100445,1,2,0:0:0:0:
152,128,100534,1,0,0:0:0:0:
192,185,100622,5,8,0:0:0:0:
218,153,100710,1,0,0:0:0:0:
220,112,100798,1,2,0:0:0:0:
199,76,100887,1,0,0:0:0:0:
163,58,100975,6,0,L|85:54,1,63.75,0|0,1:0|0:0,0:0:0:0:
142,267,101151,2,0,L|206:271,1,63.75,2|0,0:0|0:0,0:0:0:0:
77,126,101328,6,0,L|-1:122,1,63.75,8|0,0:0|0:0,0:0:0:0:
56,335,101504,2,0,L|120:339,1,63.75,2|0,0:0|0:0,0:0:0:0:
333,168,101681,5,4,1:2:0:0:
340,178,101769,1,0,0:0:0:0:
348,256,101857,5,0,1:0:0:0:
280,233,101945,1,0,1:0:0:0:
255,166,102034,1,0,1:2:0:0:
291,105,102122,1,0,1:0:0:0:
362,96,102210,1,0,1:0:0:0:
414,145,102298,1,0,1:0:0:0:
407,214,102387,6,0,P|383:244|348:256,1,76.5000029182435,4|0,1:2|0:0,0:0:0:0:
66,185,102563,2,0,P|89:155|125:143,1,76.5000029182435,2|0,0:1|0:0,0:0:0:0:
286,356,102739,1,8,0:0:0:0:
219,374,102828,1,0,0:0:0:0:
156,346,102916,1,2,0:1:0:0:
122,285,103004,1,0,0:0:0:0:
132,217,103092,6,0,B|209:196|193:259|289:229,1,153.000005836487,0|2,1:0|0:1,0:0:0:0:
336,188,103357,1,0,0:0:0:0:
395,148,103445,5,8,0:0:0:0:
329,116,103533,1,0,0:0:0:0:
270,158,103621,1,2,0:1:0:0:
278,231,103709,1,0,0:0:0:0:
345,263,103798,6,0,P|386:246|410:206,1,76.5000029182435,0|0,1:0|0:0,0:0:0:0:
191,175,103975,1,2,0:1:0:0:
150,233,104063,2,0,P|144:277|166:318,1,76.5000029182435,0|8,0:0|0:0,0:0:0:0:
303,144,104239,1,0,0:0:0:0:
272,79,104328,1,2,0:1:0:0:
205,65,104416,1,0,0:0:0:0:
143,97,104504,6,0,P|115:121|102:157,1,76.5000029182435,0|0,1:0|0:0,0:0:0:0:
391,211,104681,1,2,0:1:0:0:
394,142,104769,2,0,P|387:105|362:76,1,76.5000029182435,0|8,0:0|0:0,0:0:0:0:
171,299,104945,1,0,0:0:0:0:
229,336,105033,2,0,P|265:348|302:342,1,76.5000029182435,2|0,0:1|0:0,0:0:0:0:
303,144,105210,5,0,1:0:0:0:
235,132,105298,1,0,0:0:0:0:
171,159,105387,1,2,0:1:0:0:
108,187,105475,1,0,0:0:0:0:
40,176,105563,6,0,P|28:141|36:100,1,76.5000029182435,8|0,0:0|0:0,0:0:0:0:
252,264,105739,2,0,P|264:299|255:339,1,76.5000029182435,2|0,0:1|0:0,0:0:0:0:
86,49,105916,5,0,1:0:0:0:
155,23,106004,1,0,0:0:0:0:
220,58,106092,1,2,0:1:0:0:
234,131,106180,1,0,0:0:0:0:
210,200,106269,5,8,0:0:0:0:
173,171,106357,1,0,0:0:0:0:
161,126,106445,1,2,0:1:0:0:
179,82,106533,1,0,0:0:0:0:
220,58,106622,6,0,L|311:49,1,76.5000029182435,0|0,1:0|0:0,0:0:0:0:
292,326,106798,2,0,L|201:335,1,76.5000029182435,2|0,0:1|0:0,0:0:0:0:
122,228,106975,6,0,L|113:137,1,76.5000029182435,8|0,0:0|0:0,0:0:0:0:
390,156,107151,2,0,L|399:247,1,76.5000029182435,2|0,0:1|0:0,0:0:0:0:
260,276,107328,6,0,B|256:214|256:214|236:183|236:183|233:130,1,153.000005836487,0|2,1:0|1:0,0:0:0:0:
235,54,107592,1,0,1:0:0:0:
167,161,107681,6,0,P|293:168|236:55,1,306,8|0,0:0|0:0,0:0:0:0:
158,83,108034,5,4,1:2:0:0:
112,221,108210,1,0,1:0:0:0:
112,221,108298,1,8,0:0:0:0:
209,330,108475,1,0,1:0:0:0:
209,330,108563,1,8,0:0:0:0:
353,300,108739,1,0,1:0:0:0:
353,300,108827,1,8,0:0:0:0:
398,161,109004,1,0,1:0:0:0:
398,161,109092,6,0,P|387:125|363:94,1,76.5000029182435,8|0,0:0|1:0,0:0:0:0:
301,52,109269,2,0,P|263:43|226:48,1,76.5000029182435,0|0,1:0|1:0,0:0:0:0:
158,83,109445,5,8,0:0:0:0:
121,250,109622,1,0,1:0:0:0:
121,250,109710,1,8,0:0:0:0:
270,336,109887,1,0,1:0:0:0:
270,336,109975,1,8,0:0:0:0:
397,222,110151,1,0,1:0:0:0:
397,222,110240,1,8,0:0:0:0:
329,65,110416,1,0,1:0:0:0:
329,65,110504,6,0,P|283:47|231:52,1,81.6,8|0,0:0|1:0,0:0:0:0:
157,83,110681,2,0,P|126:120|120:169,1,81.6,0|0,1:0|1:0,0:0:0:0:
121,250,110857,5,8,0:0:0:0:
314,326,111034,1,0,1:0:0:0:
314,326,111122,1,8,0:0:0:0:
385,134,111298,1,0,1:0:0:0:
385,134,111386,1,8,0:0:0:0:
197,57,111563,1,0,1:0:0:0:
197,57,111651,1,8,0:0:0:0:
121,250,111828,1,0,1:0:0:0:
120,249,111916,6,0,P|138:288|174:312,1,86.7000016536713,8|0,0:0|1:0,0:0:0:0:
313,326,112092,2,0,P|352:308|376:272,1,86.7000016536713,0|0,1:0|1:0,0:0:0:0:
385,134,112269,5,4,1:2:0:0:
341,112,112357,1,0,1:0:0:0:
294,122,112445,1,0,1:0:0:0:
263,161,112533,1,0,1:0:0:0:
265,210,112621,1,0,1:0:0:0:
297,246,112710,1,0,1:0:0:0:
344,254,112798,1,0,1:0:0:0:
387,230,112886,1,0,1:0:0:0:
335,184,112975,6,0,L|291:174,1,25.5,0|0,1:0|1:0,0:0:0:0:
294,188,113063,2,0,L|250:178,1,25.5,0|0,1:0|1:0,0:0:0:0:
252,192,113151,2,0,L|209:183,1,25.5,0|0,1:0|1:0,0:0:0:0:
211,197,113239,2,0,L|168:187,1,25.5,0|0,1:0|1:0,0:0:0:0:
170,201,113328,6,0,B|136:143|136:143|253:168|253:168|295:221|295:221|346:229,1,306,12|0,0:0|0:0,0:0:0:0:
418,243,113681,6,0,P|435:210|433:172,1,76.5000029182435,4|0,1:2|0:0,0:0:0:0:
334,31,114034,1,0,1:0:0:0:
321,37,114122,2,0,P|304:69|306:107,1,76.5000029182435,8|0,0:0|1:0,0:0:0:0:
317,120,114387,2,0,L|399:112,1,76.5000029182435,8|0,0:0|0:0,0:0:0:0:
329,285,114739,1,0,1:0:0:0:
315,279,114828,2,0,L|233:268,1,76.5000029182435,8|0,0:0|1:0,0:0:0:0:
93,234,115092,5,8,0:0:0:0:
94,243,115180,1,0,1:0:0:0:
94,252,115268,1,0,1:0:0:0:
96,262,115356,1,0,1:0:0:0:
92,331,115445,6,0,P|107:329|123:325,1,30.5999990661621,8|0,0:0|0:0,0:0:0:0:
141,316,115534,2,0,P|152:303|160:289,1,30.5999990661621,0|0,1:0|0:0,0:0:0:0:
165,269,115622,2,0,P|163:252|160:237,1,30.5999990661621,0|0,1:0|0:0,0:0:0:0:
149,220,115710,2,0,P|136:208|122:200,1,30.5999990661621,0|0,1:0|0:0,0:0:0:0:
96,262,115798,6,0,B|177:254|177:254|218:222|218:222|329:216,1,204,2|0,1:0|0:0,0:0:0:0:
288,218,116151,6,0,P|299:235|278:232,1,51
