osu file format v14

[General]
AudioFilename: audio.mp3
AudioLeadIn: 0
PreviewTime: 21872
Countdown: 0
SampleSet: Soft
StackLeniency: 0.3
Mode: 0
LetterboxInBreaks: 0
WidescreenStoryboard: 1

[Editor]
Bookmarks: 23328,57210,79798
DistanceSpacing: 0.3
BeatDivisor: 8
GridSize: 4
TimelineZoom: 2

[Metadata]
Title:Rock It
TitleUnicode:Rock It
Artist:Hommarju
ArtistUnicode:Hommarju
Creator:toybot
Version:Another
Source:beatmania IIDX 23 copula
Tags:bemani hardcore dashyy- stingy underdogs 09kami
BeatmapID:1563044
BeatmapSetID:700421

[Difficulty]
HPDrainRate:5
CircleSize:4.5
OverallDifficulty:7
ApproachRate:9
SliderMultiplier:1.7
SliderTickRate:1

[Events]
//Background and Video events
0,0,"owo.jpg",0,0
//Break Periods
2,57409,67904
//Storyboard Layer 0 (Background)
//Storyboard Layer 1 (Fail)
//Storyboard Layer 2 (Pass)
//Storyboard Layer 3 (Foreground)
//Storyboard Sound Samples

[TimingPoints]
740,352.941176470588,4,2,1,50,1,0
740,-100,4,2,1,50,0,0
1445,-133.333333333333,4,2,1,50,0,0
2151,-200,4,2,1,50,0,0
3563,-100,4,2,1,50,0,0
4269,-133.333333333333,4,2,1,50,0,0
4975,-200,4,2,1,50,0,0
12034,-133.333333333333,4,2,1,60,0,0
17328,-66.6666666666667,4,2,1,70,0,0
17681,-100,4,2,1,70,0,0
21916,-125,4,2,1,70,0,0
22445,-66.6666666666667,4,2,1,70,0,0
22578,-66.6666666666667,4,2,1,5,0,0
22622,-66.6666666666667,4,2,1,70,0,0
22666,-66.6666666666667,4,2,1,5,0,0
23328,-100,4,2,1,70,0,0
27563,-80,4,2,1,70,0,0
28975,-100,4,2,1,70,0,0
33210,-80,4,2,1,70,0,0
39916,-66.6666666666667,4,2,1,70,0,0
40269,-100,4,2,1,70,0,0
45210,-66.6666666666667,4,2,1,70,0,0
45563,-80,4,2,1,70,0,0
45916,-90.9090909090909,4,2,1,80,0,1
46048,-90.9090909090909,4,2,1,5,0,1
46092,-90.9090909090909,4,2,1,80,0,1
46225,-90.9090909090909,4,2,1,5,0,1
46269,-90.9090909090909,4,2,1,80,0,1
46578,-90.9090909090909,4,2,1,5,0,1
46622,-90.9090909090909,4,2,1,80,0,1
46754,-90.9090909090909,4,2,1,5,0,1
46798,-90.9090909090909,4,2,1,80,0,1
47460,-90.9090909090909,4,2,1,5,0,1
47504,-90.9090909090909,4,2,1,80,0,1
47637,-90.9090909090909,4,2,1,5,0,1
47681,-90.9090909090909,4,2,1,80,0,1
48872,-90.9090909090909,4,2,1,5,0,1
48916,-90.9090909090909,4,2,1,80,0,1
49048,-90.9090909090909,4,2,1,5,0,1
49092,-90.9090909090909,4,2,1,80,0,1
49401,-90.9090909090909,4,2,1,5,0,1
49445,-90.9090909090909,4,2,1,80,0,1
49578,-90.9090909090909,4,2,1,5,0,1
49622,-90.9090909090909,4,2,1,80,0,1
50284,-90.9090909090909,4,2,1,5,0,1
50328,-90.9090909090909,4,2,1,80,0,1
50460,-90.9090909090909,4,2,1,5,0,1
50504,-90.9090909090909,4,2,1,80,0,1
50813,-90.9090909090909,4,2,1,5,0,1
50857,-90.9090909090909,4,2,1,80,0,1
50989,-90.9090909090909,4,2,1,5,0,1
51034,-90.9090909090909,4,2,1,80,0,1
51210,-80,4,2,1,80,0,1
55975,-80,4,2,1,75,0,1
56151,-80,4,2,1,70,0,1
56328,-80,4,2,1,65,0,1
56504,-80,4,2,1,60,0,1
56681,-80,4,2,1,50,0,1
56857,-80,4,2,1,40,0,1
57210,-80,4,2,1,50,0,0
68504,-133.333333333333,4,2,1,60,0,0
78387,-100,4,2,1,70,0,0
79401,-100,4,2,1,5,0,0
79445,-66.6666666666667,4,2,1,70,0,0
79798,-133.333333333333,4,2,1,60,0,0
85092,-66.6666666666667,4,2,1,60,0,0
85445,-100,4,2,1,65,0,0
89681,-100,4,2,1,70,0,0
90210,-66.6666666666667,4,2,1,70,0,0
90342,-66.6666666666667,4,2,1,5,0,0
90387,-66.6666666666667,4,2,1,70,0,0
90431,-66.6666666666667,4,2,1,5,0,0
91092,-80,4,2,1,80,0,1
107681,-57.1428571428571,4,2,1,70,0,1
108034,-100,4,2,1,65,0,1
109445,-100,4,2,1,70,0,1
110857,-100,4,2,1,75,0,1
112975,-66.6666666666667,4,2,1,80,0,1
113681,-100,4,2,1,50,0,0
115445,-66.6666666666667,4,2,1,60,0,0
115798,-66.6666666666667,4,2,1,70,0,1
115887,-66.6666666666667,4,2,1,70,0,0
116151,-66.6666666666667,4,2,1,40,0,0

[Colours]
Combo1 : 238,238,0
Combo2 : 17,73,136
Combo3 : 0,128,192
Combo4 : 149,149,0

[HitObjects]
385,242,740,6,0,P|292:236|197:204,1,170,4|2,0:0|0:0,0:0:0:0:
410,246,1445,2,0,P|348:255|270:253,1,127.500004863739,2|2,0:0|0:0,0:0:0:0:
434,245,2151,2,0,P|394:259|351:269,1,85,2|2,0:0|0:0,0:0:0:0:
457,239,2857,2,0,P|435:262|410:284,2,63.75,2|2|2,0:0|0:0|0:0,0:0:0:0:
293,170,3563,6,0,P|211:146|127:142,1,170,4|2,0:0|0:0,0:0:0:0:
228,129,4269,2,0,P|165:128|102:138,1,127.500004863739,2|2,0:0|0:0,0:0:0:0:
159,115,4975,2,0,P|117:124|78:139,1,85,2|2,0:0|0:0,0:0:0:0:
100,100,5681,2,0,P|76:121|55:145,1,63.75,2|2,0:0|0:0,0:0:0:0:
18,226,6122,1,0,0:0:0:0:
18,226,6210,1,2,0:0:0:0:
84,284,6387,6,0,P|102:327|101:374,1,85,4|2,0:0|0:0,0:0:0:0:
102,364,7092,2,0,P|113:346|131:334,1,42.5,2|0,0:0|0:0,0:0:0:0:
157,265,7445,2,0,P|177:260|198:264,1,42.5,2|0,0:0|0:0,0:0:0:0:
302,314,7798,6,0,P|322:318|343:314,1,42.5,2|0,0:0|0:0,0:0:0:0:
415,355,8151,2,0,P|432:343|444:325,1,42.5,2|0,0:0|0:0,0:0:0:0:
512,273,8504,5,2,0:0:0:0:
482,182,8681,1,0,0:0:0:0:
482,182,8769,1,2,0:0:0:0:
452,91,8945,1,0,0:0:0:0:
452,91,9033,1,2,0:0:0:0:
393,223,9210,6,0,L|339:217,1,42.5,4|0,0:0|0:0,0:0:0:0:
363,132,9563,2,0,L|309:126,1,42.5,2|0,0:0|0:0,0:0:0:0:
201,47,9916,5,2,0:0:0:0:
186,128,10092,1,0,0:0:0:0:
104,156,10269,1,2,0:0:0:0:
119,75,10445,1,0,0:0:0:0:
224,205,10622,6,0,P|236:242|233:264,1,42.5,2|0,0:0|0:0,0:0:0:0:
177,305,10975,2,0,P|164:330|143:349,1,42.5,2|0,0:0|0:0,0:0:0:0:
75,327,11328,5,2,0:0:0:0:
116,226,11504,1,0,0:0:0:0:
116,226,11592,1,2,0:0:0:0:
52,143,11769,2,0,L|45:105,2,21.25,0|2|0,0:0|0:0|0:0,0:0:0:0:
52,143,12034,6,0,L|63:66,1,63.7500024318696,4|0,1:2|0:0,0:0:0:0:
222,185,12387,2,0,L|234:108,1,63.7500024318696,0|0,1:0|0:0,0:0:0:0:
392,227,12739,1,0,1:0:0:0:
392,227,13092,1,0,1:0:0:0:
392,227,13445,6,0,L|380:150,1,63.7500024318696,0|0,1:0|0:0,0:0:0:0:
222,269,13798,2,0,L|210:192,1,63.7500024318696,0|0,1:0|0:0,0:0:0:0:
52,311,14150,1,0,1:0:0:0:
52,311,14503,1,0,1:0:0:0:
52,311,14857,6,0,L|142:319,1,63.7500024318696,0|0,1:0|0:0,0:0:0:0:
52,73,15210,2,0,L|142:65,1,63.7500024318696,0|0,1:0|0:0,0:0:0:0:
28,192,15563,1,0,1:0:0:0:
28,192,15916,1,0,1:0:0:0:
328,128,16269,5,0,1:0:0:0:
256,288,16445,1,0,0:0:0:0:
184,128,16622,1,0,1:0:0:0:
288,208,16798,2,0,P|256:205|224:207,1,63.7500024318696,0|0,0:0|1:0,0:0:0:0:
172,268,17151,5,8,0:0:0:0:
172,268,17239,1,8,0:0:0:0:
171,268,17328,2,0,P|256:231|341:267,1,191.250007295609,0|0,1:2|0:0,0:0:0:0:
412,320,17681,6,0,L|424:220,1,85,8|0,0:0|1:0,0:0:0:0:
416,136,17945,2,0,L|404:236,1,85,8|0,0:0|1:0,0:0:0:0:
496,288,18210,1,8,0:0:0:0:
328,172,18387,1,0,1:0:0:0:
328,172,18475,1,8,0:0:0:0:
496,56,18651,1,0,1:0:0:0:
496,56,18739,2,0,L|488:108,3,42.5,8|0|0|0,0:0|1:0|1:0|1:0,0:0:0:0:
408,20,19092,6,0,L|312:32,1,85,8|0,0:0|1:0,0:0:0:0:
224,44,19357,2,0,L|320:56,1,85,8|0,0:0|1:0,0:0:0:0:
376,108,19622,1,8,0:0:0:0:
136,48,19798,1,0,1:0:0:0:
136,48,19887,1,8,0:0:0:0:
284,192,20063,1,0,1:0:0:0:
284,192,20151,2,0,L|276:136,3,42.5,8|0|0|0,0:0|1:0|1:0|1:0,0:0:0:0:
200,124,20504,6,0,L|188:212,1,85,8|0,0:0|1:0,0:0:0:0:
192,316,20769,2,0,L|204:228,1,85,8|0,0:0|1:0,0:0:0:0:
112,168,21034,1,8,0:0:0:0:
276,332,21210,1,0,1:0:0:0:
276,332,21298,1,8,0:0:0:0:
108,272,21475,1,0,1:0:0:0:
108,272,21563,2,0,L|52:280,1,42.5,8|0,0:0|1:0,0:0:0:0:
272,176,21739,2,0,L|328:168,1,42.5,0|0,1:0|1:0,0:0:0:0:
88,136,21916,5,4,1:2:0:0:
76,128,22004,1,0,1:0:0:0:
64,120,22092,1,0,1:0:0:0:
52,112,22181,2,0,L|64:32,1,68,4|0,1:2|0:0,0:0:0:0:
63,31,22445,6,0,P|75:61|71:92,1,63.7500024318696,2|0,1:0|0:0,0:0:0:0:
8,240,22622,2,0,P|-3:210|0:179,1,63.7500024318696,2|0,1:0|0:0,0:0:0:0:
0,178,23328,5,4,1:2:0:0:
16,184,23416,1,0,0:0:0:0:
32,189,23504,2,0,L|154:169,1,85,0|8,0:0|0:0,0:0:0:0:
185,219,23769,2,0,P|210:175|202:135,1,85,0|0,0:0|0:0,0:0:0:0:
154,85,24034,1,0,1:0:0:0:
250,282,24298,1,0,0:0:0:0:
250,282,24387,2,0,L|326:275,1,42.5,8|0,0:0|0:0,0:0:0:0:
351,333,24563,2,0,L|403:344,1,42.5,0|0,0:0|0:0,0:0:0:0:
477,237,24739,5,0,1:2:0:0:
461,243,24827,1,0,0:0:0:0:
445,248,24915,2,0,L|323:228,1,85,0|8,0:0|0:0,0:0:0:0:
292,278,25180,2,0,P|267:234|275:194,1,85,0|0,0:0|0:0,0:0:0:0:
323,144,25445,1,0,1:0:0:0:
200,304,25709,1,0,0:0:0:0:
200,304,25798,2,0,L|208:370,3,42.5,8|0|0|0,0:0|0:0|0:0|0:0,0:0:0:0:
121,264,26151,5,0,1:0:0:0:
110,250,26239,1,0,0:0:0:0:
99,236,26328,2,0,L|110:132,1,85,0|8,0:0|0:0,0:0:0:0:
72,77,26592,2,0,P|122:55|168:69,1,85,0|0,0:0|0:0,0:0:0:0:
212,110,26857,2,0,P|241:152|335:164,1,127.5,0|0,1:0|0:0,0:0:0:0:
395,145,27210,1,8,0:0:0:0:
395,145,27298,1,0,0:0:0:0:
395,145,27387,2,0,L|398:74,1,42.5,0|0,0:0|0:0,0:0:0:0:
473,38,27563,6,0,P|481:62|482:89,1,53.125,0|0,1:0|0:0,0:0:0:0:
321,222,27740,2,0,P|312:197|311:170,1,53.125,0|0,0:0|0:0,0:0:0:0:
487,109,27916,6,0,P|495:133|496:160,1,53.125,8|0,0:0|0:0,0:0:0:0:
308,152,28093,2,0,P|299:127|298:100,1,53.125,0|0,0:0|0:0,0:0:0:0:
498,182,28269,6,0,P|512:268|446:299,1,159.375,0|0,1:0|0:0,0:0:0:0:
387,261,28622,1,8,0:0:0:0:
366,266,28710,1,0,0:0:0:0:
344,267,28798,2,0,L|275:254,1,53.125,0|0,0:0|0:0,0:0:0:0:
214,284,28975,6,0,L|170:294,2,42.5,0|0|0,1:0|0:0|0:0,0:0:0:0:
107,209,29328,1,8,0:0:0:0:
107,209,29416,2,0,L|119:88,1,85,0|0,0:0|0:0,0:0:0:0:
90,43,29681,2,0,P|136:17|215:45,1,127.5,0|0,1:0|0:0,0:0:0:0:
220,54,30034,2,0,L|232:105,1,42.5,8|0,0:0|0:0,0:0:0:0:
193,164,30210,2,0,L|205:215,1,42.5,0|0,0:0|0:0,0:0:0:0:
268,253,30387,6,0,P|288:259|309:260,2,42.5,0|0|0,1:0|0:0|0:0,0:0:0:0:
397,213,30739,1,8,0:0:0:0:
397,213,30828,2,0,L|381:106,1,85,0|0,0:0|0:0,0:0:0:0:
396,52,31092,2,0,P|346:39|276:92,1,127.5,0|0,1:0|0:0,0:0:0:0:
271,101,31445,2,0,L|205:92,1,42.5,8|0,0:0|0:0,0:0:0:0:
165,142,31622,2,0,L|99:133,1,42.5,0|0,0:0|0:0,0:0:0:0:
59,93,31798,6,0,P|53:72|53:51,2,42.5,0|0|0,1:0|0:0|0:0,0:0:0:0:
131,223,32151,1,8,0:0:0:0:
131,223,32239,2,0,P|125:274|89:304,1,85,0|0,0:0|0:0,0:0:0:0:
50,356,32504,2,0,P|101:341|206:337,1,127.5,0|0,1:0|0:0,0:0:0:0:
257,361,32857,1,8,0:0:0:0:
257,361,32945,1,0,0:0:0:0:
257,361,33034,2,0,L|267:291,1,42.5,0|0,0:0|0:0,0:0:0:0:
208,195,33210,6,0,P|203:220|209:246,1,53.125,0|0,1:0|0:0,0:0:0:0:
393,142,33387,2,0,P|382:117|362:100,1,53.125,0|0,0:0|0:0,0:0:0:0:
275,293,33563,6,0,P|297:306|323:308,1,53.125,8|0,0:0|0:0,0:0:0:0:
282,102,33739,2,0,P|255:104|233:118,1,53.125,0|0,0:0|0:0,0:0:0:0:
388,260,33916,6,0,P|407:242|417:218,1,53.125,4|0,1:2|0:0,0:0:0:0:
380,70,34092,1,0,1:0:0:0:
331,86,34180,1,0,1:0:0:0:
282,102,34268,1,0,1:0:0:0:
233,118,34356,1,0,1:0:0:0:
184,134,34446,1,0,1:0:0:0:
135,150,34534,1,0,1:0:0:0:
86,166,34622,6,0,L|97:56,1,106.25,4|2,1:2|0:0,0:0:0:0:
243,265,34975,2,0,L|254:155,1,106.25,8|2,0:0|0:0,0:0:0:0:
41,341,35328,1,0,1:0:0:0:
0,169,35504,1,2,0:0:0:0:
170,294,35681,2,0,L|104:313,1,53.125,8|0,0:0|0:0,0:0:0:0:
8,260,35857,2,0,L|80:242,1,53.125,2|0,0:0|0:0,0:0:0:0:
239,213,36034,6,0,L|128:193,1,106.25,0|2,1:0|0:0,0:0:0:0:
378,83,36387,2,0,L|267:63,1,106.25,8|2,0:0|0:0,0:0:0:0:
352,286,36739,1,0,1:0:0:0:
208,126,36916,1,2,0:0:0:0:
405,164,37092,2,0,L|375:231,1,53.125,8|0,0:0|0:0,0:0:0:0:
221,263,37269,2,0,L|242:203,1,53.125,2|0,0:0|0:0,0:0:0:0:
287,91,37445,5,0,1:0:0:0:
324,303,37622,1,2,0:0:0:0:
160,173,37798,1,8,0:0:0:0:
334,323,37975,1,2,0:0:0:0:
197,93,38151,5,0,1:0:0:0:
167,268,38328,1,2,0:0:0:0:
167,268,38416,1,0,0:0:0:0:
166,267,38504,2,0,P|192:262|215:249,1,53.125,8|0,0:0|0:0,0:0:0:0:
306,173,38681,2,0,P|332:177|355:190,1,53.125,2|0,0:0|0:0,0:0:0:0:
454,287,38857,5,0,1:0:0:0:
443,251,38945,1,0,0:0:0:0:
447,213,39034,1,2,0:0:0:0:
466,181,39122,1,0,0:0:0:0:
497,160,39210,2,0,L|490:97,1,53.125,8|0,0:0|0:0,0:0:0:0:
365,100,39387,2,0,L|358:37,1,53.125,2|0,0:0|0:0,0:0:0:0:
446,18,39563,5,0,1:0:0:0:
331,228,39739,2,0,P|308:241|282:243,1,53.125,0|0,1:0|1:0,0:0:0:0:
265,137,39916,6,0,P|358:133|434:189,1,191.250007295609,8|0,0:0|0:0,0:0:0:0:
447,213,40269,6,0,L|453:114,1,85,4|0,1:2|1:0,0:0:0:0:
465,21,40534,2,0,L|470:105,1,85,8|0,0:0|1:0,0:0:0:0:
386,56,40798,1,8,0:0:0:0:
368,248,40975,1,0,1:0:0:0:
368,248,41063,1,8,0:0:0:0:
270,94,41239,1,0,1:0:0:0:
270,94,41328,2,0,L|340:117,3,42.5,8|0|0|0,0:0|1:0|1:0|1:0,0:0:0:0:
368,248,41681,6,0,L|374:149,1,85,8|0,0:0|1:0,0:0:0:0:
386,56,41946,2,0,L|391:140,1,85,8|0,0:0|1:0,0:0:0:0:
447,213,42210,1,8,0:0:0:0:
267,93,42387,1,0,1:0:0:0:
267,93,42476,1,0,0:0:0:0:
319,313,42651,1,0,1:0:0:0:
319,313,42739,2,0,P|287:326|261:327,3,42.5,8|0|0|0,0:0|1:0|1:0|1:0,0:0:0:0:
205,351,43092,6,0,L|98:328,1,85,8|0,0:0|1:0,0:0:0:0:
21,331,43357,2,0,L|104:313,1,85,8|0,0:0|1:0,0:0:0:0:
180,264,43622,1,8,0:0:0:0:
134,78,43798,1,0,1:0:0:0:
134,78,43887,1,8,0:0:0:0:
35,225,44063,1,0,1:0:0:0:
35,225,44151,2,0,L|110:234,1,42.5,8|0,0:0|1:0,0:0:0:0:
182,173,44328,2,0,L|140:168,1,42.5,0|0,1:0|1:0,0:0:0:0:
21,123,44504,6,0,L|14:63,3,42.5,4|0|2|0,1:2|0:0|0:0|0:0,0:0:0:0:
101,96,44857,2,0,L|94:36,3,42.5,2|0|2|0,0:0|0:0|0:0|0:0,0:0:0:0:
181,69,45210,6,0,L|174:15,6,31.8750012159348,0|0|0|0|0|0|0,0:0|0:0|0:0|0:0|0:0|0:0|0:0,0:0:0:0:
195,149,45563,6,0,P|257:172|252:105,1,159.375,2|0,0:1|0:0,0:0:0:0:
181,69,45916,6,0,L|113:62,1,46.7500014266968,4|0,1:2|0:0,0:0:0:0:
21,123,46092,2,0,L|67:127,1,46.7500014266968,0|0,0:0|0:0,0:0:0:0:
195,149,46269,2,0,L|204:242,1,93.5000028533936,10|0,0:0|0:0,0:0:0:0:
287,173,46622,1,0,1:0:0:0:
151,310,46798,2,0,P|115:265|122:215,1,93.5000028533936,2|8,0:0|0:0,0:0:0:0:
295,258,47151,2,0,L|302:335,1,46.7500014266968,0|0,0:0|0:0,0:0:0:0:
371,346,47328,5,2,1:2:0:0:
439,166,47504,2,0,P|393:172|364:207,1,93.5000028533936,0|8,0:0|0:0,0:0:0:0:
429,84,47857,1,2,0:0:0:0:
436,248,48034,2,0,P|445:293|478:324,1,93.5000028533936,0|0,1:0|0:0,0:0:0:0:
512,86,48387,2,0,P|502:40|469:9,1,93.5000028533936,10|0,0:0|0:0,0:0:0:0:
429,84,48651,1,0,0:0:0:0:
429,84,48739,6,0,L|348:70,1,46.7500014266968,0|0,1:0|0:0,0:0:0:0:
380,258,48916,2,0,L|426:250,1,46.7500014266968,0|0,0:0|0:0,0:0:0:0:
330,167,49092,2,0,L|207:147,1,93.5000028533936,10|0,0:0|0:0,0:0:0:0:
274,248,49445,1,0,1:0:0:0:
246,67,49622,2,0,P|192:74|162:113,1,93.5000028533936,2|8,0:0|0:0,0:0:0:0:
155,300,49975,5,0,0:0:0:0:
155,300,50063,1,0,0:0:0:0:
155,300,50151,2,0,L|141:193,1,93.5000028533936,2|0,1:2|0:0,0:0:0:0:
53,178,50504,1,8,0:0:0:0:
238,241,50681,1,2,0:0:0:0:
77,353,50857,6,0,L|66:279,1,46.7500014266968,0|0,1:0|0:0,0:0:0:0:
59,224,51034,2,0,L|48:150,1,46.7500014266968,0|0,0:0|0:0,0:0:0:0:
41,95,51210,5,12,0:0:0:0:
41,95,51563,6,0,B|90:106|90:106|144:92,1,106.25,8|0,0:0|1:0,0:0:0:0:
270,104,51828,2,0,B|221:93|221:93|166:106,1,106.25,8|0,0:0|1:0,0:0:0:0:
77,187,52092,2,0,B|131:173|131:173|180:184,1,106.25,8|0,0:0|1:0,0:0:0:0:
305,175,52357,2,0,B|250:188|250:188|201:177,1,106.25,8|0,0:0|1:0,0:0:0:0:
166,106,52622,6,0,L|171:51,1,53.125,8|0,0:0|1:0,0:0:0:0:
257,235,52798,2,0,L|261:287,1,53.125,0|0,1:0|1:0,0:0:0:0:
365,346,52975,6,0,B|344:322|344:322|354:233,1,106.25,8|0,0:0|1:0,0:0:0:0:
354,132,53239,2,0,B|375:156|375:156|365:245,1,106.25,8|0,0:0|1:0,0:0:0:0:
437,299,53504,2,0,B|458:275|458:275|448:186,1,106.25,8|0,0:0|1:0,0:0:0:0:
472,86,53769,2,0,B|451:110|451:110|461:199,1,106.25,8|0,0:0|1:0,0:0:0:0:
366,229,54034,6,0,L|305:236,1,53.125,8|0,0:0|1:0,0:0:0:0:
232,110,54210,2,0,L|291:162,1,53.125,0|0,1:0|1:0,0:0:0:0:
354,132,54387,5,8,0:0:0:0:
252,296,54563,1,0,1:0:0:0:
252,296,54651,2,0,B|200:308|200:308|139:274,1,106.25,8|0,0:0|1:0,0:0:0:0:
175,147,54916,2,0,B|227:135|227:135|288:169,1,106.25,8|0,0:0|1:0,0:0:0:0:
212,224,55181,2,0,B|130:208|153:265|57:248,1,159.375,8|8,0:0|0:0,0:0:0:0:
52,98,55622,1,0,1:0:0:0:
66,109,55710,1,0,1:0:0:0:
75,122,55798,6,0,P|89:151|89:174,3,53.125,4|0|0|0,1:2|1:0|1:0|1:0,0:0:0:0:
188,300,56151,2,0,P|173:329|173:352,3,53.125,0|0|0|0,1:0|1:0|1:0|1:0,0:0:0:0:
206,196,56504,6,0,P|174:207|158:223,1,53.125,0|0,1:0|1:0,0:0:0:0:
292,135,56681,2,0,P|262:120|239:120,1,53.125,0|0,1:0|1:0,0:0:0:0:
296,249,56857,1,0,1:0:0:0:
295,243,56945,1,0,1:0:0:0:
294,237,57033,1,0,1:0:0:0:
293,231,57121,1,0,1:0:0:0:
292,225,57209,5,4,0:0:0:0:
176,84,68504,6,0,P|185:153|188:232,2,127.500004863739,4|2|0,0:0|0:0|0:0,0:0:0:0:
104,146,69387,1,0,0:0:0:0:
271,176,69563,1,2,0:0:0:0:
289,188,69916,6,0,P|279:257|277:336,2,127.500004863739,0|2|0,0:0|0:0|0:0,0:0:0:0:
366,254,70798,1,0,0:0:0:0:
196,341,70975,2,0,P|191:306|195:274,1,63.7500024318696,2|0,0:0|0:0,0:0:0:0:
344,130,71328,6,0,P|282:144|204:154,2,127.500004863739,4|2|0,0:0|0:0|0:0,0:0:0:0:
393,61,72210,1,0,0:0:0:0:
446,221,72387,1,2,0:0:0:0:
465,228,72739,6,0,P|473:164|487:102,2,127.500004863739,0|2|0,0:0|0:0|0:0,0:0:0:0:
485,316,73622,1,0,0:0:0:0:
383,183,73798,2,0,P|348:171|292:159,1,63.7500024318696,2|0,0:0|0:0,0:0:0:0:
169,156,74151,6,0,P|225:124|276:86,2,127.500004863739,4|2|0,0:0|0:0|0:0,0:0:0:0:
169,60,75034,1,0,0:0:0:0:
256,201,75210,1,2,0:0:0:0:
177,249,75387,1,0,0:0:0:0:
177,249,75475,1,0,0:0:0:0:
177,249,75563,6,0,P|116:226|42:215,2,127.500004863739,0|2|0,0:0|0:0|0:0,0:0:0:0:
255,312,76445,1,0,0:0:0:0:
255,312,76534,1,0,0:0:0:0:
337,268,76710,1,0,0:0:0:0:
337,268,76798,1,0,0:0:0:0:
259,204,76975,6,0,P|260:142|270:53,2,127.500004863739,4|2|0,0:0|0:0|0:0,0:0:0:0:
185,104,77857,1,0,0:0:0:0:
340,155,78034,2,0,P|347:123|356:93,1,63.7500024318696,2|0,0:0|0:0,0:0:0:0:
184,258,78387,5,2,0:1:0:0:
106,242,78739,1,2,0:1:0:0:
28,226,79092,1,2,0:1:0:0:
184,258,79269,6,0,L|197:328,1,42.5,0|0,1:0|0:0,0:0:0:0:
274,353,79445,2,0,B|278:280|298:203|298:203|256:244,1,191.250007295609,8|0,0:0|0:0,0:0:0:0:
295,361,79798,6,0,L|375:349,1,63.7500024318696,4|0,1:2|0:0,0:0:0:0:
378,239,80151,2,0,L|458:227,1,63.7500024318696,0|0,1:0|0:0,0:0:0:0:
202,372,80504,1,0,1:0:0:0:
285,250,80857,1,0,1:0:0:0:
151,148,81210,6,0,L|71:136,1,63.7500024318696,0|0,1:0|0:0,0:0:0:0:
68,26,81563,2,0,L|-12:14,1,63.7500024318696,0|0,1:0|0:0,0:0:0:0:
244,159,81916,1,0,1:0:0:0:
161,37,82269,1,0,0:0:0:0:
141,255,82622,6,0,L|156:338,1,63.7500024318696,0|0,1:2|0:0,0:0:0:0:
371,255,82975,2,0,L|356:338,1,63.7500024318696,0|0,1:0|0:0,0:0:0:0:
256,264,83328,1,0,1:0:0:0:
256,264,83681,1,0,1:0:0:0:
371,129,84034,6,0,L|356:46,1,63.7500024318696,0|0,1:0|0:0,0:0:0:0:
141,129,84387,2,0,L|156:46,1,63.7500024318696,0|0,1:0|0:0,0:0:0:0:
256,120,84740,1,0,1:0:0:0:
336,252,84916,1,8,0:0:0:0:
336,252,85004,1,8,0:0:0:0:
336,252,85092,6,0,B|284:240|256:200|256:200|224:248|140:252,1,191.250007295609,0|0,1:0|0:0,0:0:0:0:
92,288,85445,6,0,P|66:255|65:213,1,85,8|0,0:0|1:0,0:0:0:0:
117,133,85710,2,0,P|77:148|56:184,1,85,8|0,0:0|1:0,0:0:0:0:
0,300,85975,1,8,0:0:0:0:
178,247,86151,1,0,1:0:0:0:
178,247,86239,1,8,0:0:0:0:
8,112,86416,1,0,1:0:0:0:
8,112,86504,2,0,P|0:84|8:48,3,42.5,8|0|0|0,0:0|1:0|1:0|1:0,0:0:0:0:
80,32,86857,6,0,P|121:38|154:64,1,85,8|0,0:0|1:0,0:0:0:0:
248,52,87122,2,0,P|214:77|173:84,1,85,8|0,0:0|1:0,0:0:0:0:
92,112,87387,1,8,0:0:0:0:
304,124,87563,1,0,1:0:0:0:
304,124,87651,1,8,0:0:0:0:
144,228,87828,1,0,1:0:0:0:
144,228,87916,2,0,P|134:209|132:188,3,42.5,8|0|0|0,0:0|1:0|1:0|1:0,0:0:0:0:
216,184,88269,6,0,P|228:224|221:265,1,85,8|0,0:0|1:0,0:0:0:0:
172,329,88534,2,0,P|211:315|240:284,1,85,8|0,0:0|1:0,0:0:0:0:
312,216,88798,1,8,0:0:0:0:
88,288,88975,1,0,1:0:0:0:
88,288,89063,1,8,0:0:0:0:
296,372,89239,1,0,1:0:0:0:
296,371,89328,2,0,P|302:351|303:330,1,42.5,8|0,0:0|1:0,0:0:0:0:
223,142,89504,2,0,P|216:162|215:183,1,42.5,0|0,1:0|1:0,0:0:0:0:
376,276,89681,5,8,1:2:0:0:
397,274,89769,1,0,1:0:0:0:
418,272,89857,1,0,1:0:0:0:
439,268,89945,2,0,P|451:227|437:188,1,85,8|0,1:2|0:0,0:0:0:0:
448,172,90210,6,0,L|384:162,1,63.7500024318696,2|0,1:0|0:0,0:0:0:0:
248,64,90387,2,0,L|311:54,1,63.7500024318696,2|0,1:0|0:0,0:0:0:0:
392,16,91092,6,0,L|379:152,1,106.25,4|2,1:2|0:0,0:0:0:0:
328,180,91357,1,0,0:0:0:0:
336,200,91445,2,0,P|291:159|190:181,1,159.375,8|0,0:0|0:0,0:0:0:0:
185,191,91798,6,0,P|237:187|277:133,1,106.25,0|2,1:2|0:0,0:0:0:0:
246,36,92151,1,8,0:0:0:0:
80,168,92328,5,2,0:0:0:0:
80,168,92416,1,0,0:0:0:0:
80,168,92504,2,0,L|68:48,1,106.25,0|2,1:0|0:0,0:0:0:0:
136,16,92769,1,0,0:0:0:0:
144,35,92857,2,0,P|164:51|189:57,1,53.125,8|0,0:0|0:0,0:0:0:0:
244,115,93034,2,0,P|270:112|292:98,1,53.125,2|0,0:0|0:0,0:0:0:0:
363,50,93210,6,0,P|418:50|472:100,1,106.25,0|2,1:0|0:0,0:0:0:0:
480,112,93475,1,0,0:0:0:0:
480,112,93563,2,0,L|490:231,1,106.25,8|2,0:0|0:0,0:0:0:0:
299,336,93916,5,0,1:0:0:0:
339,164,94092,1,2,0:0:0:0:
353,170,94181,1,0,0:0:0:0:
367,175,94269,2,0,P|315:197|264:188,1,106.25,8|2,0:0|0:0,0:0:0:0:
122,68,94622,6,0,P|132:43|150:24,2,53.125,0|0|2,1:0|0:0|0:0,0:0:0:0:
163,175,94975,1,8,0:0:0:0:
255,76,95151,6,0,P|228:77|203:86,1,53.125,2|0,0:0|0:0,0:0:0:0:
77,175,95328,1,0,1:0:0:0:
300,167,95504,6,0,P|273:165|248:156,1,53.125,2|0,0:0|0:0,0:0:0:0:
122,68,95681,1,8,0:0:0:0:
341,76,95857,6,0,P|314:77|289:86,1,53.125,2|0,0:0|0:0,0:0:0:0:
163,175,96034,2,0,P|227:184|263:273,1,159.375,0|0,1:0|0:0,0:0:0:0:
241,260,96387,2,0,L|229:311,2,53.125,8|0|2,0:0|0:0|0:0,0:0:0:0:
337,162,96739,5,0,1:0:0:0:
367,351,96916,1,2,0:0:0:0:
367,351,97004,1,0,0:0:0:0:
367,351,97092,2,0,L|349:240,1,106.25,8|2,0:0|0:0,0:0:0:0:
388,71,97445,6,0,P|336:127|259:120,1,159.375,0|0,1:0|0:0,0:0:0:0:
240,105,97798,2,0,P|293:106|332:140,1,106.25,8|2,0:0|0:0,0:0:0:0:
277,313,98151,5,0,1:0:0:0:
117,195,98328,1,2,0:0:0:0:
117,195,98416,1,0,0:0:0:0:
116,195,98504,2,0,P|132:174|155:160,1,53.125,8|0,0:0|0:0,0:0:0:0:
191,88,98681,2,0,P|217:92|240:104,1,53.125,2|0,0:0|0:0,0:0:0:0:
50,237,98857,6,0,P|67:188|55:137,1,106.25,0|2,1:0|0:0,0:0:0:0:
33,98,99122,1,0,0:0:0:0:
33,98,99210,2,0,L|162:116,1,106.25,8|2,0:0|0:0,0:0:0:0:
326,230,99563,5,0,1:0:0:0:
283,54,99739,1,2,0:0:0:0:
276,68,99828,1,0,0:0:0:0:
268,81,99916,2,0,P|320:88|366:62,1,106.25,8|2,0:0|0:0,0:0:0:0:
427,197,100269,6,0,P|421:178|427:129,2,53.125,0|0|2,1:0|0:0|0:0,0:0:0:0:
446,70,100622,1,8,0:0:0:0:
493,251,100798,6,0,P|473:269|449:279,1,53.125,2|0,0:0|0:0,0:0:0:0:
297,213,100975,1,0,1:0:0:0:
439,305,101151,6,0,P|412:308|387:302,1,53.125,2|0,0:0|0:0,0:0:0:0:
293,183,101328,1,8,0:0:0:0:
363,318,101504,6,0,P|339:306|321:286,1,53.125,2|0,0:0|0:0,0:0:0:0:
297,154,101681,1,4,1:2:0:0:
431,73,101857,5,0,1:0:0:0:
433,81,101945,1,0,1:0:0:0:
435,90,102033,1,0,1:2:0:0:
438,98,102121,1,0,1:0:0:0:
440,107,102209,1,0,1:0:0:0:
443,115,102298,1,0,1:0:0:0:
445,124,102386,5,4,1:2:0:0:
321,286,102563,2,0,L|216:274,1,106.25,2|8,0:1|0:0,0:0:0:0:
345,100,102916,2,0,B|326:140|326:140|346:218,1,106.25,2|0,0:1|1:0,0:0:0:0:
205,99,103269,2,0,L|256:84,2,53.125,2|0|8,0:1|0:0|0:0,0:0:0:0:
90,249,103622,1,2,0:1:0:0:
125,54,103798,5,0,1:0:0:0:
185,216,103975,1,2,0:1:0:0:
185,216,104063,1,0,0:0:0:0:
185,216,104151,2,0,P|133:168|84:156,1,106.25,8|2,0:0|0:1,0:0:0:0:
90,249,104504,5,0,1:0:0:0:
205,99,104681,1,2,0:1:0:0:
205,99,104769,1,0,0:0:0:0:
205,99,104857,2,0,P|257:51|306:39,1,106.25,8|2,0:0|0:1,0:0:0:0:
289,134,105210,5,0,1:0:0:0:
125,54,105387,2,0,L|72:44,2,53.125,2|0|8,0:1|0:0|0:0,0:0:0:0:
191,204,105739,2,0,L|204:98,1,106.25,2|0,0:1|1:0,0:0:0:0:
324,234,106092,2,0,L|272:243,1,53.125,2|0,0:1|0:0,0:0:0:0:
205,291,106269,1,8,0:0:0:0:
330,142,106445,5,2,0:1:0:0:
330,142,106534,1,0,0:0:0:0:
330,142,106622,2,0,P|379:160|413:200,1,106.25,0|2,1:0|0:1,0:0:0:0:
428,304,106975,1,8,0:0:0:0:
271,227,107151,6,0,P|298:228|324:234,1,53.125,2|0,0:1|0:0,0:0:0:0:
446,321,107328,1,0,1:0:0:0:
237,330,107504,6,0,P|260:317|285:312,1,53.125,2|0,1:0|1:0,0:0:0:0:
460,344,107681,2,0,B|532:283|493:196|493:196|492:238|460:257,1,223.125002127886,8|0,0:0|0:0,0:0:0:0:
405,285,108034,6,0,P|363:277|333:248,1,85,4|0,1:2|1:0,0:0:0:0:
340,226,108298,2,0,L|318:117,1,85,8|0,0:0|1:0,0:0:0:0:
354,69,108563,1,8,0:0:0:0:
251,197,108739,1,0,1:0:0:0:
251,197,108828,1,8,0:0:0:0:
192,47,109004,1,0,1:0:0:0:
191,46,109092,2,0,P|212:52|230:63,3,42.5,8|0|0|0,0:0|1:0|1:0|1:0,0:0:0:0:
178,132,109445,6,0,P|144:157|103:160,1,85,8|0,0:0|1:0,0:0:0:0:
5,135,109710,2,0,L|89:145,1,85,8|0,0:0|1:0,0:0:0:0:
165,233,109975,1,8,0:0:0:0:
61,63,110151,1,0,1:0:0:0:
61,63,110239,1,8,0:0:0:0:
262,156,110416,1,0,1:0:0:0:
262,156,110504,2,0,L|269:235,3,42.5,8|0|0|0,0:0|1:0|1:0|1:0,0:0:0:0:
331,250,110857,6,0,B|352:214|352:214|339:154,1,85,8|0,0:0|1:0,0:0:0:0:
196,104,111122,2,0,B|175:140|175:140|188:200,1,85,8|0,0:0|1:0,0:0:0:0:
348,263,111387,2,0,L|452:242,1,85,8|0,0:0|1:0,0:0:0:0:
363,140,111651,2,0,L|259:161,1,85,8|0,0:0|1:0,0:0:0:0:
200,267,111916,1,8,0:0:0:0:
159,279,112004,1,0,1:0:0:0:
118,271,112092,1,0,1:0:0:0:
86,244,112180,1,0,1:0:0:0:
70,205,112269,6,0,L|78:140,3,42.5,4|0|0|0,1:2|1:0|1:0|1:0,0:0:0:0:
161,195,112622,2,0,L|169:130,3,42.5,0|0|0|0,1:0|1:0|1:0|1:0,0:0:0:0:
252,185,112975,6,0,L|259:133,6,31.8750012159348,0|0|0|0|0|0|0,1:0|1:0|1:0|1:0|1:0|1:0|1:0,0:0:0:0:
287,265,113328,6,0,P|366:273|338:199,1,191.250007295609,12|0,0:0|0:0,0:0:0:0:
338,199,113681,6,0,L|346:290,1,85,4|0,1:2|0:0,0:0:0:0:
466,46,114034,1,0,1:0:0:0:
466,46,114122,2,0,L|474:137,1,85,8|0,0:0|1:0,0:0:0:0:
484,144,114387,6,0,L|399:136,1,85,8|0,0:0|0:0,0:0:0:0:
170,246,114739,1,0,1:0:0:0:
170,246,114828,2,0,L|255:254,1,85,8|0,0:0|1:0,0:0:0:0:
272,263,115092,6,0,L|265:201,1,42.5,8|0,0:0|1:0,0:0:0:0:
247,88,115269,2,0,L|254:150,1,42.5,0|0,1:0|0:0,0:0:0:0:
337,164,115445,6,0,L|375:160,2,31.8750012159348,8|0|0,0:0|0:0|1:0,0:0:0:0:
181,185,115622,2,0,L|112:193,1,63.7500024318696,0|0,1:0|1:0,0:0:0:0:
259,173,115798,5,2,1:0:0:0:
