osu file format v14

[General]
AudioFilename: audio.mp3
AudioLeadIn: 0
PreviewTime: 21916
Countdown: 0
SampleSet: Normal
StackLeniency: 0.7
Mode: 3
LetterboxInBreaks: 0
SpecialStyle: 0
WidescreenStoryboard: 1

[Editor]
DistanceSpacing: 1.4
BeatDivisor: 8
GridSize: 32
TimelineZoom: 2.1

[Metadata]
Title:Rock It
TitleUnicode:Rock It
Artist:Hommarju
ArtistUnicode:Hommarju
Creator:Tofu1222
Version:Extra
Source:beatmania IIDX 23 copula
Tags:hardcore EedowChyan0w0
BeatmapID:1208071
BeatmapSetID:569903

[Difficulty]
HPDrainRate:8
CircleSize:4
OverallDifficulty:8.5
ApproachRate:5
SliderMultiplier:1.4
SliderTickRate:1

[Events]
//Background and Video events
0,0,"bg.jpg",0,0
//Break Periods
//Storyboard Layer 0 (Background)
//Storyboard Layer 1 (Fail)
//Storyboard Layer 2 (Pass)
//Storyboard Layer 3 (Foreground)
//Storyboard Sound Samples

[TimingPoints]
740,352.941176470588,4,1,1,50,1,0
740,-111.111111111111,4,1,1,50,0,0
1869,-110.344827586207,4,1,1,50,0,0
2999,-108.695652173913,4,1,1,50,0,0
4128,-107.52688172043,4,1,1,50,0,0
5258,-106.382978723404,4,1,1,50,0,0
6387,-105.263157894737,4,1,1,50,0,0
7516,-104.166666666667,4,1,1,50,0,0
8646,-103.092783505155,4,1,1,50,0,0
9775,-102.040816326531,4,1,1,50,0,0
10905,-101.010101010101,4,1,1,50,0,0
12034,-100,4,1,1,50,0,0
17151,-60.6060606060606,4,1,1,50,0,0
17195,-285.714285714286,4,1,1,50,0,0
17239,-60.6060606060606,4,1,1,50,0,0
17283,-285.714285714286,4,1,1,50,0,0
17328,-40,4,1,1,50,0,0
17416,-200,4,1,1,50,0,0
17681,-100,4,1,1,50,0,0
18651,-66.6666666666667,4,1,1,50,0,0
18695,-200,4,1,1,50,0,0
18739,-66.6666666666667,4,1,1,50,0,0
18783,-200,4,1,1,50,0,0
18828,-66.6666666666667,4,1,1,50,0,0
18872,-200,4,1,1,50,0,0
18916,-66.6666666666667,4,1,1,50,0,0
18960,-200,4,1,1,50,0,0
19004,-66.6666666666667,4,1,1,50,0,0
19048,-200,4,1,1,50,0,0
19092,-100,4,1,1,50,0,0
21475,-66.6666666666667,4,1,1,50,0,0
21519,-200,4,1,1,50,0,0
21563,-66.6666666666667,4,1,1,50,0,0
21607,-200,4,1,1,50,0,0
21651,-66.6666666666667,4,1,1,50,0,0
21695,-200,4,1,1,50,0,0
21739,-66.6666666666667,4,1,1,50,0,0
21783,-200,4,1,1,50,0,0
21828,-66.6666666666667,4,1,1,50,0,0
21872,-200,4,1,1,50,0,0
21916,-100,4,1,1,50,0,0
22445,-40,4,1,1,50,0,0
22489,-200,4,1,1,50,0,0
22622,-40,4,1,1,50,0,0
22666,-200,4,1,1,50,0,0
22798,-44.4444444444445,4,1,1,50,0,0
22887,-133.333333333333,4,1,1,50,0,0
23328,-100,4,1,1,50,0,1
34092,-66.6666666666667,4,1,1,50,0,1
34137,-200,4,1,1,50,0,1
34181,-66.6666666666667,4,1,1,50,0,1
34226,-200,4,1,1,50,0,1
34269,-66.6666666666667,4,1,1,50,0,1
34314,-200,4,1,1,50,0,1
34357,-66.6666666666667,4,1,1,50,0,1
34402,-200,4,1,1,50,0,1
34445,-66.6666666666667,4,1,1,50,0,1
34490,-200,4,1,1,50,0,1
34534,-66.6666666666667,4,1,1,50,0,1
34579,-200,4,1,1,50,0,1
34622,-100,4,1,1,50,0,1
39916,-40,4,1,1,50,0,1
40004,-200,4,1,1,50,0,1
40269,-100,4,1,1,50,0,0
41239,-66.6666666666667,4,1,1,50,0,0
41283,-200,4,1,1,50,0,0
41327,-66.6666666666667,4,1,1,50,0,0
41371,-200,4,1,1,50,0,0
41416,-66.6666666666667,4,1,1,50,0,0
41460,-200,4,1,1,50,0,0
41504,-66.6666666666667,4,1,1,50,0,0
41548,-200,4,1,1,50,0,0
41592,-66.6666666666667,4,1,1,50,0,0
41636,-200,4,1,1,50,0,0
41680,-100,4,1,1,50,0,0
44063,-66.6666666666667,4,1,1,50,0,0
44107,-200,4,1,1,50,0,0
44151,-66.6666666666667,4,1,1,50,0,0
44195,-200,4,1,1,50,0,0
44239,-66.6666666666667,4,1,1,50,0,0
44283,-200,4,1,1,50,0,0
44327,-66.6666666666667,4,1,1,50,0,0
44371,-200,4,1,1,50,0,0
44416,-66.6666666666667,4,1,1,50,0,0
44460,-200,4,1,1,50,0,0
44504,-100,4,1,1,50,0,0
45210,-90.9090909090909,4,1,1,50,0,0
45563,-40,4,1,1,50,0,0
45651,-400,4,1,1,50,0,0
45916,-100,4,1,1,50,0,0
51210,-40,4,1,1,50,0,0
51298,-200,4,1,1,50,0,0
51563,-100,4,1,1,50,0,0
52533,-66.6666666666667,4,1,1,50,0,0
52577,-200,4,1,1,50,0,0
52621,-66.6666666666667,4,1,1,50,0,0
52665,-200,4,1,1,50,0,0
52710,-66.6666666666667,4,1,1,50,0,0
52754,-200,4,1,1,50,0,0
52798,-66.6666666666667,4,1,1,50,0,0
52842,-200,4,1,1,50,0,0
52886,-66.6666666666667,4,1,1,50,0,0
52930,-200,4,1,1,50,0,0
52974,-100,4,1,1,50,0,0
56504,-90.9090909090909,4,1,1,50,0,0
57210,-125,4,1,1,50,0,0
58339,-123.456790123457,4,1,1,50,0,0
59469,-121.951219512195,4,1,1,50,0,0
60598,-120.481927710843,4,1,1,50,0,0
61728,-119.047619047619,4,1,1,50,0,0
62857,-117.647058823529,4,1,1,50,0,0
63986,-116.279069767442,4,1,1,50,0,0
65116,-114.942528735632,4,1,1,50,0,0
66245,-113.636363636364,4,1,1,50,0,0
67375,-112.359550561798,4,1,1,50,0,0
68504,-111.111111111111,4,1,1,50,0,0
69633,-110.344827586207,4,1,1,50,0,0
70763,-108.695652173913,4,1,1,50,0,0
71892,-107.52688172043,4,1,1,50,0,0
73022,-106.382978723404,4,1,1,50,0,0
74151,-105.263157894737,4,1,1,50,0,0
75280,-104.166666666667,4,1,1,50,0,0
76410,-103.092783505155,4,1,1,50,0,0
77539,-102.040816326531,4,1,1,50,0,0
78669,-101.010101010101,4,1,1,50,0,0
79445,-40,4,1,1,50,0,0
79534,-200,4,1,1,50,0,0
79798,-100,4,1,1,50,0,0
84916,-60.6060606060606,4,1,1,50,0,0
84960,-285.714285714286,4,1,1,50,0,0
85004,-60.6060606060606,4,1,1,50,0,0
85048,-285.714285714286,4,1,1,50,0,0
85093,-40,4,1,1,50,0,0
85181,-200,4,1,1,50,0,0
85446,-100,4,1,1,50,0,0
86416,-66.6666666666667,4,1,1,50,0,0
86460,-200,4,1,1,50,0,0
86504,-66.6666666666667,4,1,1,50,0,0
86548,-200,4,1,1,50,0,0
86593,-66.6666666666667,4,1,1,50,0,0
86637,-200,4,1,1,50,0,0
86681,-66.6666666666667,4,1,1,50,0,0
86725,-200,4,1,1,50,0,0
86769,-66.6666666666667,4,1,1,50,0,0
86813,-200,4,1,1,50,0,0
86857,-100,4,1,1,50,0,0
89240,-66.6666666666667,4,1,1,50,0,0
89284,-200,4,1,1,50,0,0
89328,-66.6666666666667,4,1,1,50,0,0
89372,-200,4,1,1,50,0,0
89416,-66.6666666666667,4,1,1,50,0,0
89460,-200,4,1,1,50,0,0
89504,-66.6666666666667,4,1,1,50,0,0
89548,-200,4,1,1,50,0,0
89593,-66.6666666666667,4,1,1,50,0,0
89637,-200,4,1,1,50,0,0
89681,-100,4,1,1,50,0,0
90210,-40,4,1,1,50,0,0
90254,-200,4,1,1,50,0,0
90387,-40,4,1,1,50,0,0
90431,-200,4,1,1,50,0,0
90563,-44.4444444444445,4,1,1,50,0,0
90651,-133.333333333333,4,1,1,50,0,0
91092,-100,4,1,1,50,0,1
101857,-66.6666666666667,4,1,1,50,0,1
101902,-200,4,1,1,50,0,1
101945,-66.6666666666667,4,1,1,50,0,1
101990,-200,4,1,1,50,0,1
102034,-66.6666666666667,4,1,1,50,0,1
102079,-200,4,1,1,50,0,1
102122,-66.6666666666667,4,1,1,50,0,1
102167,-200,4,1,1,50,0,1
102210,-66.6666666666667,4,1,1,50,0,1
102255,-200,4,1,1,50,0,1
102298,-66.6666666666667,4,1,1,50,0,1
102343,-200,4,1,1,50,0,1
102387,-100,4,1,1,50,0,1
107681,-40,4,1,1,50,0,1
107769,-200,4,1,1,50,0,1
108034,-100,4,1,1,50,0,1
109004,-66.6666666666667,4,1,1,50,0,1
109048,-200,4,1,1,50,0,1
109092,-66.6666666666667,4,1,1,50,0,1
109136,-200,4,1,1,50,0,1
109181,-66.6666666666667,4,1,1,50,0,1
109225,-200,4,1,1,50,0,1
109269,-66.6666666666667,4,1,1,50,0,1
109313,-200,4,1,1,50,0,1
109357,-66.6666666666667,4,1,1,50,0,1
109401,-200,4,1,1,50,0,1
109445,-100,4,1,1,50,0,1
111828,-66.6666666666667,4,1,1,50,0,1
111872,-200,4,1,1,50,0,1
111916,-66.6666666666667,4,1,1,50,0,1
111960,-200,4,1,1,50,0,1
112004,-66.6666666666667,4,1,1,50,0,1
112048,-200,4,1,1,50,0,1
112092,-66.6666666666667,4,1,1,50,0,1
112136,-200,4,1,1,50,0,1
112181,-66.6666666666667,4,1,1,50,0,1
112225,-200,4,1,1,50,0,1
112269,-100,4,1,1,50,0,1
112975,-90.9090909090909,4,1,1,50,0,1
113328,-40,4,1,1,50,0,1
113416,-400,4,1,1,50,0,1
113681,-100,4,1,1,50,0,0
115798,-28.5714285714286,4,1,1,50,0,0
115842,-200,4,1,1,50,0,0
116063,-100,4,1,1,50,0,0

[HitObjects]
64,192,740,5,4,0:0:0:0:
448,192,740,1,0,0:0:0:0:
320,192,740,1,0,0:0:0:0:
192,192,828,1,0,0:0:0:0:
320,192,916,1,0,0:0:0:0:
64,192,1004,1,0,0:0:0:0:
448,192,1092,1,0,0:0:0:0:
192,192,1181,1,0,0:0:0:0:
320,192,1269,1,0,0:0:0:0:
64,192,1357,1,0,0:0:0:0:
448,192,1445,1,0,0:0:0:0:
320,192,1534,1,0,0:0:0:0:
192,192,1622,1,0,0:0:0:0:
64,192,1710,1,0,0:0:0:0:
448,192,1798,1,0,0:0:0:0:
320,192,1887,1,0,0:0:0:0:
64,192,1975,1,0,0:0:0:0:
192,192,2063,1,0,0:0:0:0:
448,192,2151,1,0,0:0:0:0:
64,192,2239,1,0,0:0:0:0:
320,192,2328,1,0,0:0:0:0:
192,192,2416,1,0,0:0:0:0:
448,192,2504,1,0,0:0:0:0:
320,192,2592,1,0,0:0:0:0:
192,192,2681,1,0,0:0:0:0:
64,192,2769,1,0,0:0:0:0:
448,192,2857,1,0,0:0:0:0:
320,192,2945,1,0,0:0:0:0:
64,192,3034,1,0,0:0:0:0:
192,192,3122,1,0,0:0:0:0:
448,192,3210,1,0,0:0:0:0:
64,192,3298,1,0,0:0:0:0:
320,192,3387,1,0,0:0:0:0:
192,192,3475,1,0,0:0:0:0:
64,192,3563,1,4,0:0:0:0:
448,192,3563,1,0,0:0:0:0:
320,192,3651,1,0,0:0:0:0:
192,192,3739,1,0,0:0:0:0:
448,192,3828,1,0,0:0:0:0:
64,192,3916,1,0,0:0:0:0:
320,192,4004,1,0,0:0:0:0:
192,192,4092,1,0,0:0:0:0:
448,192,4181,1,0,0:0:0:0:
64,192,4269,1,0,0:0:0:0:
192,192,4357,1,0,0:0:0:0:
320,192,4445,1,0,0:0:0:0:
448,192,4534,1,0,0:0:0:0:
64,192,4622,1,0,0:0:0:0:
192,192,4710,1,0,0:0:0:0:
448,192,4798,1,0,0:0:0:0:
320,192,4887,1,0,0:0:0:0:
64,192,4975,1,0,0:0:0:0:
448,192,5063,1,0,0:0:0:0:
192,192,5151,1,0,0:0:0:0:
320,192,5239,1,0,0:0:0:0:
64,192,5328,1,0,0:0:0:0:
320,192,5416,1,0,0:0:0:0:
192,192,5504,1,0,0:0:0:0:
64,192,5592,1,0,0:0:0:0:
448,192,5681,1,0,0:0:0:0:
192,192,5769,128,0,5857:0:0:0:0:
320,192,5857,128,0,5945:0:0:0:0:
448,192,5945,128,0,6034:0:0:0:0:
64,192,6034,1,0,0:0:0:0:
192,192,6122,128,0,6210:0:0:0:0:
320,192,6210,128,0,6298:0:0:0:0:
192,192,6298,128,0,6387:0:0:0:0:
448,192,6387,1,0,0:0:0:0:
64,192,6387,1,4,0:0:0:0:
320,192,6475,1,0,0:0:0:0:
192,192,6563,1,0,0:0:0:0:
448,192,6651,1,0,0:0:0:0:
64,192,6739,1,0,0:3:0:0:
320,192,6828,1,0,0:0:0:0:
192,192,6916,1,0,0:0:0:0:
448,192,7004,1,0,0:0:0:0:
64,192,7092,1,0,0:0:0:0:
192,192,7181,1,0,0:0:0:0:
320,192,7269,1,0,0:0:0:0:
448,192,7357,1,0,0:0:0:0:
64,192,7445,1,0,0:0:0:0:
192,192,7534,1,0,0:0:0:0:
448,192,7622,1,0,0:0:0:0:
320,192,7710,1,0,0:0:0:0:
64,192,7798,1,0,0:0:0:0:
448,192,7887,1,0,0:0:0:0:
192,192,7975,1,0,0:0:0:0:
320,192,8063,1,0,0:0:0:0:
64,192,8151,1,0,0:0:0:0:
192,192,8239,1,0,0:0:0:0:
448,192,8328,1,0,0:0:0:0:
320,192,8416,1,0,0:0:0:0:
64,192,8504,1,0,0:0:0:0:
320,192,8592,128,0,8681:0:0:0:0:
192,192,8681,128,0,8769:0:0:0:0:
64,192,8769,128,0,8857:0:0:0:0:
320,192,8857,1,0,0:0:0:0:
448,192,8945,128,0,9034:0:0:0:0:
320,192,9034,128,0,9122:0:0:0:0:
192,192,9122,1,0,0:0:0:0:
64,192,9210,1,4,0:0:0:0:
448,192,9210,1,0,0:0:0:0:
192,192,9298,1,0,0:0:0:0:
320,192,9387,1,0,0:0:0:0:
64,192,9475,1,0,0:0:0:0:
448,192,9563,1,0,0:0:0:0:
192,192,9651,1,0,0:0:0:0:
320,192,9739,1,0,0:0:0:0:
64,192,9828,1,0,0:0:0:0:
448,192,9916,1,0,0:0:0:0:
320,192,10004,1,0,0:0:0:0:
192,192,10092,1,0,0:0:0:0:
64,192,10181,1,0,0:0:0:0:
448,192,10269,1,0,0:0:0:0:
320,192,10357,1,0,0:0:0:0:
64,192,10445,1,0,0:0:0:0:
192,192,10534,1,0,0:0:0:0:
448,192,10622,1,0,0:0:0:0:
64,192,10710,1,0,0:0:0:0:
320,192,10798,1,0,0:0:0:0:
192,192,10887,1,0,0:0:0:0:
448,192,10975,1,0,0:0:0:0:
320,192,11063,1,0,0:0:0:0:
192,192,11151,1,0,0:0:0:0:
64,192,11239,1,0,0:0:0:0:
448,192,11328,1,0,0:0:0:0:
192,192,11416,128,0,11504:0:0:0:0:
320,192,11504,128,0,11592:0:0:0:0:
448,192,11592,128,0,11681:0:0:0:0:
64,192,11681,1,0,0:0:0:0:
320,192,11769,128,0,11857:0:0:0:0:
192,192,11857,128,0,11945:0:0:0:0:
320,192,11945,128,0,12034:0:0:0:0:
64,192,12034,1,4,0:0:0:0:
448,192,12034,1,0,0:0:0:0:
192,192,12122,1,0,0:0:0:0:
320,192,12210,1,0,0:0:0:0:
448,192,12298,1,0,0:0:0:0:
64,192,12387,1,8,0:0:0:0:
192,192,12387,1,0,0:0:0:0:
320,192,12475,1,0,0:0:0:0:
192,192,12563,1,0,0:0:0:0:
320,192,12651,1,0,0:0:0:0:
448,192,12739,1,0,0:0:0:0:
64,192,12739,1,8,0:0:0:0:
192,192,12828,1,0,0:0:0:0:
448,192,12916,1,0,0:0:0:0:
320,192,13004,1,0,0:0:0:0:
64,192,13092,1,8,0:0:0:0:
192,192,13092,1,0,0:0:0:0:
320,192,13181,1,0,0:0:0:0:
192,192,13269,1,0,0:0:0:0:
64,192,13357,1,0,0:0:0:0:
448,192,13445,1,8,0:0:0:0:
192,192,13445,1,0,0:0:0:0:
320,192,13534,1,0,0:0:0:0:
192,192,13622,1,0,0:0:0:0:
64,192,13710,1,0,0:0:0:0:
448,192,13798,1,8,0:0:0:0:
320,192,13798,1,0,0:0:0:0:
192,192,13887,1,0,0:0:0:0:
320,192,13975,1,0,0:0:0:0:
192,192,14063,1,0,0:0:0:0:
448,192,14151,1,8,0:0:0:0:
64,192,14151,1,0,0:0:0:0:
320,192,14239,1,0,0:0:0:0:
64,192,14328,1,0,0:0:0:0:
192,192,14416,1,0,0:0:0:0:
448,192,14504,1,8,0:0:0:0:
320,192,14504,1,0,0:0:0:0:
192,192,14592,1,0,0:0:0:0:
64,192,14681,1,0,0:0:0:0:
320,192,14769,1,0,0:0:0:0:
64,192,14857,1,8,0:0:0:0:
448,192,14857,1,0,0:0:0:0:
192,192,14945,1,0,0:0:0:0:
320,192,15034,1,0,0:0:0:0:
448,192,15122,1,0,0:0:0:0:
64,192,15210,1,8,0:0:0:0:
192,192,15210,1,0,0:0:0:0:
320,192,15298,1,0,0:0:0:0:
192,192,15387,1,0,0:0:0:0:
320,192,15475,1,0,0:0:0:0:
64,192,15563,1,8,0:0:0:0:
448,192,15563,1,0,0:0:0:0:
192,192,15651,1,0,0:0:0:0:
448,192,15739,1,0,0:0:0:0:
320,192,15828,1,0,0:0:0:0:
64,192,15916,1,8,0:0:0:0:
192,192,15916,1,0,0:0:0:0:
320,192,16004,1,0,0:0:0:0:
192,192,16092,1,0,0:0:0:0:
64,192,16181,1,0,0:0:0:0:
320,192,16269,1,0,0:0:0:0:
448,192,16269,1,8,0:0:0:0:
192,192,16357,1,0,0:0:0:0:
320,192,16445,1,0,0:0:0:0:
192,192,16534,1,0,0:0:0:0:
64,192,16622,1,0,0:0:0:0:
448,192,16622,1,8,0:0:0:0:
320,192,16710,1,0,0:0:0:0:
192,192,16798,1,0,0:0:0:0:
320,192,16887,1,0,0:0:0:0:
64,192,16975,1,0,0:0:0:0:
448,192,16975,1,8,0:0:0:0:
320,192,17063,1,0,0:0:0:0:
192,192,17151,1,0,0:0:0:0:
64,192,17151,1,8,0:0:0:0:
192,192,17239,1,0,0:0:0:0:
64,192,17239,1,8,0:0:0:0:
320,192,17328,128,0,17681:0:0:0:0:
448,192,17328,128,8,17681:0:0:0:0:
64,192,17681,1,2,0:0:0:0:
192,192,17681,1,0,0:0:0:0:
64,192,17857,1,8,0:0:0:0:
320,192,17857,1,0,0:0:0:0:
448,192,17945,1,0,0:0:0:0:
192,192,17945,1,8,0:0:0:0:
64,192,18122,1,8,0:0:0:0:
192,192,18122,1,0,0:0:0:0:
448,192,18210,1,8,0:0:0:0:
320,192,18210,1,0,0:0:0:0:
320,192,18387,1,0,0:0:0:0:
64,192,18387,1,8,0:0:0:0:
448,192,18475,1,0,0:0:0:0:
192,192,18475,1,8,0:0:0:0:
64,192,18651,1,8,0:0:0:0:
192,192,18651,1,0,0:0:0:0:
448,192,18739,1,8,0:0:0:0:
320,192,18739,1,0,0:0:0:0:
192,192,18828,1,0,0:0:0:0:
64,192,18828,1,0,0:0:0:0:
448,192,18916,1,0,0:0:0:0:
320,192,18916,1,0,0:0:0:0:
192,192,19004,1,0,0:0:0:0:
64,192,19004,1,0,0:0:0:0:
448,192,19092,1,2,0:0:0:0:
320,192,19092,1,0,0:0:0:0:
448,192,19269,1,8,0:0:0:0:
192,192,19269,1,0,0:0:0:0:
64,192,19357,1,0,0:0:0:0:
320,192,19357,1,8,0:0:0:0:
448,192,19534,1,8,0:0:0:0:
320,192,19534,1,0,0:0:0:0:
64,192,19622,1,8,0:0:0:0:
192,192,19622,1,0,0:0:0:0:
448,192,19798,1,8,0:0:0:0:
192,192,19798,1,0,0:0:0:0:
320,192,19887,1,8,0:0:0:0:
64,192,19887,1,0,0:0:0:0:
448,192,20063,1,8,0:0:0:0:
320,192,20063,1,0,0:0:0:0:
64,192,20151,1,8,0:0:0:0:
192,192,20151,1,0,0:0:0:0:
448,192,20195,1,0,0:0:0:0:
320,192,20239,1,0,0:0:0:0:
192,192,20284,1,0,0:0:0:0:
64,192,20328,1,0,0:0:0:0:
448,192,20328,1,0,0:0:0:0:
320,192,20416,1,0,0:0:0:0:
192,192,20416,1,0,0:0:0:0:
64,192,20504,1,2,0:0:0:0:
448,192,20504,1,0,0:0:0:0:
192,192,20681,1,0,0:0:0:0:
320,192,20681,1,8,0:0:0:0:
448,192,20769,1,8,0:0:0:0:
64,192,20769,1,0,0:0:0:0:
448,192,20945,1,0,0:0:0:0:
64,192,20945,1,8,0:0:0:0:
192,192,21034,1,8,0:0:0:0:
320,192,21034,1,0,0:0:0:0:
320,192,21210,1,8,0:0:0:0:
192,192,21210,1,0,0:0:0:0:
448,192,21298,1,8,0:0:0:0:
64,192,21298,1,0,0:0:0:0:
64,192,21475,1,8,0:0:0:0:
192,192,21475,1,0,0:0:0:0:
320,192,21563,1,0,0:0:0:0:
448,192,21563,1,8,0:0:0:0:
64,192,21651,1,0,0:0:0:0:
192,192,21651,1,0,0:0:0:0:
320,192,21739,1,0,0:0:0:0:
448,192,21739,1,0,0:0:0:0:
192,192,21828,1,0,0:0:0:0:
64,192,21828,1,0,0:0:0:0:
320,192,21916,1,0,0:0:0:0:
64,192,21916,1,8,0:0:0:0:
448,192,21916,1,0,0:0:0:0:
192,192,22004,1,0,0:0:0:0:
320,192,22092,1,0,0:0:0:0:
448,192,22181,1,8,0:0:0:0:
64,192,22181,1,0,0:0:0:0:
192,192,22181,1,0,0:0:0:0:
320,192,22269,1,0,0:0:0:0:
64,192,22445,1,0,0:0:0:0:
192,192,22445,1,0,0:0:0:0:
448,192,22445,1,8,0:0:0:0:
192,192,22622,128,0,22798:0:0:0:0:
64,192,22622,128,0,22798:0:0:0:0:
448,192,22622,128,8,22798:0:0:0:0:
64,192,23328,1,2,0:0:0:0:
448,192,23328,1,0,0:0:0:0:
320,192,23328,1,0,0:0:0:0:
192,192,23416,1,0,0:0:0:0:
320,192,23504,1,0,0:0:0:0:
192,192,23592,1,0,0:0:0:0:
64,192,23681,1,8,0:0:0:0:
448,192,23681,1,0,0:0:0:0:
320,192,23681,1,0,0:0:0:0:
192,192,23769,1,0,0:0:0:0:
320,192,23857,1,0,0:0:0:0:
64,192,23945,1,0,0:0:0:0:
448,192,24034,1,2,0:0:0:0:
192,192,24034,1,0,0:0:0:0:
320,192,24122,1,0,0:0:0:0:
192,192,24210,1,0,0:0:0:0:
320,192,24298,1,0,0:0:0:0:
448,192,24387,1,8,0:0:0:0:
64,192,24387,1,0,0:0:0:0:
192,192,24387,1,0,0:0:0:0:
320,192,24475,1,0,0:0:0:0:
192,192,24563,1,0,0:0:0:0:
64,192,24651,1,0,0:0:0:0:
448,192,24739,1,2,0:0:0:0:
320,192,24739,1,0,0:0:0:0:
192,192,24828,1,0,0:0:0:0:
320,192,24916,1,0,0:0:0:0:
192,192,25004,1,0,0:0:0:0:
64,192,25092,1,8,0:0:0:0:
448,192,25092,1,0,0:0:0:0:
320,192,25092,1,0,0:0:0:0:
192,192,25181,1,0,0:0:0:0:
320,192,25269,1,0,0:0:0:0:
64,192,25357,1,0,0:0:0:0:
448,192,25445,1,0,0:0:0:0:
192,192,25445,1,2,0:0:0:0:
320,192,25534,1,0,0:0:0:0:
64,192,25622,1,0,0:0:0:0:
192,192,25710,1,0,0:0:0:0:
64,192,25798,1,8,0:0:0:0:
448,192,25798,1,0,0:0:0:0:
320,192,25798,1,0,0:0:0:0:
192,192,25887,1,0,0:0:0:0:
320,192,25975,1,0,0:0:0:0:
448,192,26063,1,0,0:0:0:0:
64,192,26151,1,2,0:0:0:0:
320,192,26151,1,0,0:0:0:0:
192,192,26239,1,0,0:0:0:0:
448,192,26328,1,0,0:0:0:0:
320,192,26416,1,0,0:0:0:0:
64,192,26504,1,0,0:0:0:0:
448,192,26504,1,8,0:0:0:0:
192,192,26504,1,0,0:0:0:0:
320,192,26592,1,0,0:0:0:0:
192,192,26681,1,0,0:0:0:0:
320,192,26769,1,0,0:0:0:0:
64,192,26857,1,0,0:0:0:0:
448,192,26857,1,2,0:0:0:0:
192,192,26945,1,0,0:0:0:0:
320,192,27034,1,0,0:0:0:0:
192,192,27122,1,0,0:0:0:0:
64,192,27210,1,8,0:0:0:0:
448,192,27210,1,0,0:0:0:0:
320,192,27210,1,0,0:0:0:0:
192,192,27298,1,0,0:0:0:0:
320,192,27387,1,0,0:0:0:0:
448,192,27475,1,0,0:0:0:0:
64,192,27563,1,2,0:0:0:0:
192,192,27563,1,0,0:0:0:0:
320,192,27651,1,0,0:0:0:0:
192,192,27739,1,0,0:0:0:0:
320,192,27828,1,0,0:0:0:0:
448,192,27916,1,8,0:0:0:0:
64,192,27916,1,0,0:0:0:0:
192,192,27916,1,0,0:0:0:0:
320,192,28004,1,0,0:0:0:0:
64,192,28092,1,0,0:0:0:0:
192,192,28181,1,0,0:0:0:0:
448,192,28269,1,2,0:0:0:0:
320,192,28269,1,0,0:0:0:0:
64,192,28357,1,0,0:0:0:0:
192,192,28445,1,0,0:0:0:0:
320,192,28534,1,0,0:0:0:0:
192,192,28622,1,0,0:0:0:0:
448,192,28622,1,8,0:0:0:0:
64,192,28622,1,0,0:0:0:0:
320,192,28710,1,0,0:0:0:0:
192,192,28798,1,0,0:0:0:0:
64,192,28887,1,0,0:0:0:0:
448,192,28975,1,2,0:0:0:0:
320,192,28975,1,0,0:0:0:0:
64,192,29063,1,0,0:0:0:0:
192,192,29151,1,0,0:0:0:0:
320,192,29239,1,0,0:0:0:0:
448,192,29328,1,8,0:0:0:0:
64,192,29328,1,0,0:0:0:0:
192,192,29328,1,0,0:0:0:0:
320,192,29416,1,0,0:0:0:0:
192,192,29504,1,0,0:0:0:0:
320,192,29592,1,0,0:0:0:0:
448,192,29681,1,0,0:0:0:0:
64,192,29681,1,2,0:0:0:0:
192,192,29769,1,0,0:0:0:0:
320,192,29857,1,0,0:0:0:0:
192,192,29945,1,0,0:0:0:0:
448,192,30034,1,0,0:0:0:0:
64,192,30034,1,8,0:0:0:0:
320,192,30034,1,0,0:0:0:0:
192,192,30122,1,0,0:0:0:0:
320,192,30210,1,0,0:0:0:0:
448,192,30298,1,0,0:0:0:0:
64,192,30387,1,2,0:0:0:0:
192,192,30387,1,0,0:0:0:0:
320,192,30475,1,0,0:0:0:0:
448,192,30563,1,0,0:0:0:0:
320,192,30651,1,0,0:0:0:0:
64,192,30739,1,0,0:0:0:0:
448,192,30739,1,8,0:0:0:0:
192,192,30739,1,0,0:0:0:0:
320,192,30828,1,0,0:0:0:0:
192,192,30916,1,0,0:0:0:0:
320,192,31004,1,0,0:0:0:0:
448,192,31092,1,0,0:0:0:0:
64,192,31092,1,2,0:0:0:0:
192,192,31181,1,0,0:0:0:0:
320,192,31269,1,0,0:0:0:0:
192,192,31357,1,0,0:0:0:0:
448,192,31445,1,0,0:0:0:0:
64,192,31445,1,8,0:0:0:0:
320,192,31445,1,0,0:0:0:0:
192,192,31534,1,0,0:0:0:0:
320,192,31622,1,0,0:0:0:0:
448,192,31710,1,0,0:0:0:0:
64,192,31798,1,2,0:0:0:0:
192,192,31798,1,0,0:0:0:0:
320,192,31887,1,0,0:0:0:0:
448,192,31975,1,0,0:0:0:0:
192,192,32063,1,0,0:0:0:0:
64,192,32151,1,8,0:0:0:0:
448,192,32151,1,0,0:0:0:0:
320,192,32151,1,0,0:0:0:0:
192,192,32239,1,0,0:0:0:0:
320,192,32328,1,0,0:0:0:0:
192,192,32416,1,0,0:0:0:0:
448,192,32504,1,2,0:0:0:0:
64,192,32504,1,0,0:0:0:0:
320,192,32592,1,0,0:0:0:0:
192,192,32681,1,0,0:0:0:0:
320,192,32769,1,0,0:0:0:0:
64,192,32857,1,0,0:0:0:0:
192,192,32857,1,0,0:0:0:0:
448,192,32857,1,8,0:0:0:0:
320,192,32945,1,0,0:0:0:0:
64,192,33034,1,0,0:0:0:0:
192,192,33122,1,0,0:0:0:0:
448,192,33210,1,2,0:0:0:0:
320,192,33210,1,0,0:0:0:0:
64,192,33298,1,0,0:0:0:0:
192,192,33387,1,0,0:0:0:0:
320,192,33475,1,0,0:0:0:0:
64,192,33563,1,8,0:0:0:0:
448,192,33563,1,0,0:0:0:0:
192,192,33563,1,0,0:0:0:0:
320,192,33651,1,0,0:0:0:0:
64,192,33739,1,0,0:0:0:0:
192,192,33828,1,0,0:0:0:0:
64,192,33916,1,2,0:0:0:0:
448,192,33916,1,0,0:0:0:0:
320,192,33916,1,0,0:0:0:0:
192,192,34004,1,0,0:0:0:0:
320,192,34092,1,0,0:0:0:0:
448,192,34092,1,0,0:0:0:0:
192,192,34181,1,0,0:0:0:0:
64,192,34181,1,0,0:0:0:0:
320,192,34269,1,0,0:0:0:0:
448,192,34269,1,0,0:0:0:0:
192,192,34357,1,0,0:0:0:0:
64,192,34357,1,0,0:0:0:0:
448,192,34445,1,0,0:0:0:0:
320,192,34445,1,0,0:0:0:0:
192,192,34534,1,0,0:0:0:0:
64,192,34534,1,0,0:0:0:0:
448,192,34622,1,0,0:0:0:0:
320,192,34622,1,0,0:0:0:0:
64,192,34622,1,2,0:0:0:0:
192,192,34710,1,0,0:0:0:0:
320,192,34798,128,0,34887:0:0:0:0:
448,192,34887,1,0,0:0:0:0:
64,192,34975,1,8,0:0:0:0:
192,192,34975,1,0,0:0:0:0:
320,192,35063,1,0,0:0:0:0:
192,192,35151,128,0,35239:0:0:0:0:
320,192,35239,1,0,0:0:0:0:
448,192,35328,1,2,0:0:0:0:
64,192,35328,1,0,0:0:0:0:
320,192,35416,1,0,0:0:0:0:
192,192,35504,128,0,35592:0:0:0:0:
64,192,35592,1,0,0:0:0:0:
448,192,35681,1,8,0:0:0:0:
320,192,35681,1,0,0:0:0:0:
192,192,35769,1,0,0:0:0:0:
320,192,35857,128,0,35945:0:0:0:0:
192,192,35945,1,0,0:0:0:0:
448,192,36034,1,2,0:0:0:0:
64,192,36034,1,0,0:0:0:0:
320,192,36122,1,0,0:0:0:0:
192,192,36210,128,0,36298:0:0:0:0:
64,192,36298,1,0,0:0:0:0:
448,192,36387,1,8,0:0:0:0:
320,192,36387,1,0,0:0:0:0:
192,192,36475,1,0,0:0:0:0:
320,192,36563,128,0,36651:0:0:0:0:
192,192,36651,1,0,0:0:0:0:
64,192,36739,1,2,0:0:0:0:
448,192,36739,1,0,0:0:0:0:
192,192,36828,1,0,0:0:0:0:
320,192,36916,128,0,37004:0:0:0:0:
448,192,37004,1,0,0:0:0:0:
192,192,37092,1,0,0:0:0:0:
64,192,37092,1,8,0:0:0:0:
320,192,37181,1,0,0:0:0:0:
192,192,37269,128,0,37357:0:0:0:0:
320,192,37357,1,0,0:0:0:0:
448,192,37445,1,0,0:0:0:0:
64,192,37445,1,2,0:0:0:0:
192,192,37534,1,0,0:0:0:0:
320,192,37622,128,0,37710:0:0:0:0:
448,192,37710,1,0,0:0:0:0:
64,192,37798,1,8,0:0:0:0:
192,192,37798,1,0,0:0:0:0:
320,192,37887,1,0,0:0:0:0:
192,192,37975,128,0,38063:0:0:0:0:
320,192,38063,1,0,0:0:0:0:
448,192,38151,1,2,0:0:0:0:
64,192,38151,1,0,0:0:0:0:
320,192,38239,1,0,0:0:0:0:
192,192,38328,128,0,38416:0:0:0:0:
64,192,38416,1,0,0:0:0:0:
448,192,38504,1,8,0:0:0:0:
320,192,38504,1,0,0:0:0:0:
192,192,38592,1,0,0:0:0:0:
320,192,38681,128,0,38769:0:0:0:0:
192,192,38769,1,0,0:0:0:0:
448,192,38857,1,2,0:0:0:0:
64,192,38857,1,0,0:0:0:0:
320,192,38945,1,0,0:0:0:0:
192,192,39034,128,0,39122:0:0:0:0:
64,192,39122,1,0,0:0:0:0:
448,192,39210,1,8,0:0:0:0:
320,192,39210,1,0,0:0:0:0:
192,192,39298,1,0,0:0:0:0:
320,192,39387,128,0,39475:0:0:0:0:
192,192,39475,1,0,0:0:0:0:
64,192,39563,1,2,0:0:0:0:
448,192,39563,1,0,0:0:0:0:
192,192,39651,1,0,0:0:0:0:
320,192,39739,128,0,39828:0:0:0:0:
448,192,39828,1,0,0:0:0:0:
192,192,39916,128,0,40269:0:0:0:0:
64,192,39916,128,8,40269:0:0:0:0:
448,192,40269,1,2,0:0:0:0:
320,192,40269,1,0,0:0:0:0:
64,192,40445,1,8,0:0:0:0:
192,192,40445,1,0,0:0:0:0:
448,192,40534,1,8,0:0:0:0:
320,192,40534,1,0,0:0:0:0:
64,192,40710,1,8,0:0:0:0:
320,192,40710,1,0,0:0:0:0:
448,192,40798,1,0,0:0:0:0:
192,192,40798,1,8,0:0:0:0:
192,192,40975,1,0,0:0:0:0:
64,192,40975,1,8,0:0:0:0:
448,192,41063,1,8,0:0:0:0:
320,192,41063,1,0,0:0:0:0:
320,192,41239,1,8,0:0:0:0:
192,192,41239,1,0,0:0:0:0:
64,192,41328,1,0,0:0:0:0:
448,192,41328,1,8,0:0:0:0:
192,192,41416,1,0,0:0:0:0:
320,192,41416,1,0,0:0:0:0:
64,192,41504,1,0,0:0:0:0:
448,192,41504,1,0,0:0:0:0:
192,192,41592,1,0,0:0:0:0:
320,192,41592,1,0,0:0:0:0:
448,192,41681,1,0,0:0:0:0:
64,192,41681,1,2,0:0:0:0:
448,192,41857,1,8,0:0:0:0:
320,192,41857,1,0,0:0:0:0:
64,192,41945,1,8,0:0:0:0:
192,192,41945,1,0,0:0:0:0:
192,192,42122,1,8,0:0:0:0:
448,192,42122,1,0,0:0:0:0:
64,192,42210,1,8,0:0:0:0:
320,192,42210,1,0,0:0:0:0:
448,192,42387,1,8,0:0:0:0:
320,192,42387,1,0,0:0:0:0:
64,192,42475,1,8,0:0:0:0:
192,192,42475,1,0,0:0:0:0:
64,192,42651,1,8,0:0:0:0:
192,192,42651,1,0,0:0:0:0:
448,192,42739,1,8,0:0:0:0:
320,192,42739,1,0,0:0:0:0:
64,192,42784,1,0,0:0:0:0:
192,192,42828,1,0,0:0:0:0:
320,192,42872,1,0,0:0:0:0:
64,192,42916,1,0,0:0:0:0:
448,192,42916,1,0,0:0:0:0:
320,192,43004,1,0,0:0:0:0:
192,192,43004,1,0,0:0:0:0:
64,192,43092,1,0,0:0:0:0:
448,192,43092,1,2,0:0:0:0:
320,192,43269,1,8,0:0:0:0:
192,192,43269,1,0,0:0:0:0:
448,192,43357,1,8,0:0:0:0:
64,192,43357,1,0,0:0:0:0:
64,192,43534,1,8,0:0:0:0:
320,192,43534,1,0,0:0:0:0:
192,192,43622,1,8,0:0:0:0:
448,192,43622,1,0,0:0:0:0:
448,192,43798,1,8,0:0:0:0:
192,192,43798,1,0,0:0:0:0:
320,192,43887,1,8,0:0:0:0:
64,192,43887,1,0,0:0:0:0:
448,192,44063,1,8,0:0:0:0:
320,192,44063,1,0,0:0:0:0:
64,192,44151,1,8,0:0:0:0:
192,192,44151,1,0,0:0:0:0:
320,192,44239,1,0,0:0:0:0:
64,192,44328,1,0,0:0:0:0:
448,192,44328,1,8,0:0:0:0:
192,192,44416,1,0,0:0:0:0:
448,192,44504,1,8,0:0:0:0:
320,192,44504,1,0,0:0:0:0:
192,192,44592,1,0,0:0:0:0:
64,192,44592,1,0,0:0:0:0:
320,192,44681,1,0,0:0:0:0:
448,192,44681,1,0,0:0:0:0:
192,192,44769,1,0,0:0:0:0:
64,192,44769,1,0,0:0:0:0:
320,192,44857,1,0,0:0:0:0:
448,192,44857,1,0,0:0:0:0:
192,192,44945,1,0,0:0:0:0:
64,192,44945,1,0,0:0:0:0:
320,192,45034,1,0,0:0:0:0:
448,192,45034,1,0,0:0:0:0:
192,192,45122,1,0,0:0:0:0:
64,192,45122,1,0,0:0:0:0:
448,192,45210,1,0,0:0:0:0:
320,192,45254,1,0,0:0:0:0:
192,192,45298,1,0,0:0:0:0:
64,192,45342,1,0,0:0:0:0:
448,192,45387,1,0,0:0:0:0:
320,192,45431,1,0,0:0:0:0:
192,192,45475,1,0,0:0:0:0:
64,192,45519,1,0,0:0:0:0:
448,192,45563,128,8,45916:0:0:0:0:
320,192,45563,128,0,45916:0:0:0:0:
64,192,45916,1,2,0:0:0:0:
192,192,45916,1,0,0:0:0:0:
448,192,46092,1,0,0:0:0:0:
320,192,46092,1,0,0:0:0:0:
320,192,46269,1,0,0:0:0:0:
64,192,46269,1,8,0:0:0:0:
192,192,46269,1,0,0:0:0:0:
64,192,46445,1,0,0:0:0:0:
192,192,46445,1,0,0:0:0:0:
192,192,46622,1,0,0:0:0:0:
320,192,46622,1,0,0:0:0:0:
448,192,46622,1,2,0:0:0:0:
64,192,46798,1,0,0:0:0:0:
320,192,46798,1,0,0:0:0:0:
64,192,46975,1,8,0:0:0:0:
320,192,46975,1,0,0:0:0:0:
448,192,46975,1,0,0:0:0:0:
192,192,47151,1,0,0:0:0:0:
448,192,47151,1,0,0:0:0:0:
320,192,47239,1,0,0:0:0:0:
64,192,47328,1,0,0:0:0:0:
448,192,47328,1,2,0:0:0:0:
192,192,47328,1,0,0:0:0:0:
448,192,47504,1,0,0:0:0:0:
320,192,47504,1,0,0:0:0:0:
192,192,47681,1,0,0:0:0:0:
448,192,47681,1,8,0:0:0:0:
320,192,47681,1,0,0:0:0:0:
64,192,47857,1,0,0:0:0:0:
192,192,47857,1,0,0:0:0:0:
64,192,48034,1,2,0:0:0:0:
320,192,48034,1,0,0:0:0:0:
192,192,48034,1,0,0:0:0:0:
192,192,48210,1,0,0:0:0:0:
448,192,48210,1,0,0:0:0:0:
64,192,48387,1,0,0:0:0:0:
448,192,48387,1,8,0:0:0:0:
192,192,48387,1,0,0:0:0:0:
320,192,48563,1,0,0:0:0:0:
64,192,48563,1,0,0:0:0:0:
192,192,48651,1,0,0:0:0:0:
64,192,48739,1,2,0:0:0:0:
320,192,48739,1,0,0:0:0:0:
448,192,48739,1,0,0:0:0:0:
320,192,48916,1,0,0:0:0:0:
448,192,48916,1,0,0:0:0:0:
64,192,49092,1,8,0:0:0:0:
192,192,49092,1,0,0:0:0:0:
320,192,49092,1,0,0:0:0:0:
64,192,49269,1,0,0:0:0:0:
192,192,49269,1,0,0:0:0:0:
192,192,49445,1,0,0:0:0:0:
320,192,49445,1,0,0:0:0:0:
448,192,49445,1,2,0:0:0:0:
64,192,49622,1,0,0:0:0:0:
320,192,49622,1,0,0:0:0:0:
64,192,49798,1,8,0:0:0:0:
320,192,49798,1,0,0:0:0:0:
448,192,49798,1,0,0:0:0:0:
192,192,49975,1,0,0:0:0:0:
448,192,49975,1,0,0:0:0:0:
320,192,50063,1,0,0:0:0:0:
64,192,50151,1,0,0:0:0:0:
192,192,50151,1,0,0:0:0:0:
448,192,50151,1,2,0:0:0:0:
192,192,50328,1,0,0:0:0:0:
448,192,50328,1,0,0:0:0:0:
448,192,50504,1,8,0:0:0:0:
192,192,50504,1,0,0:0:0:0:
320,192,50504,1,0,0:0:0:0:
64,192,50681,1,0,0:0:0:0:
320,192,50681,1,0,0:0:0:0:
320,192,50857,1,0,0:0:0:0:
64,192,50857,1,2,0:0:0:0:
192,192,50857,1,0,0:0:0:0:
192,192,51034,1,0,0:0:0:0:
320,192,51034,1,0,0:0:0:0:
320,192,51210,128,0,51563:0:0:0:0:
448,192,51210,128,8,51563:0:0:0:0:
64,192,51210,1,0,0:0:0:0:
192,192,51210,1,0,0:0:0:0:
64,192,51563,1,2,0:0:0:0:
192,192,51563,1,0,0:0:0:0:
448,192,51739,1,8,0:0:0:0:
192,192,51739,1,0,0:0:0:0:
64,192,51828,1,0,0:0:0:0:
320,192,51828,1,8,0:0:0:0:
448,192,52004,1,8,0:0:0:0:
320,192,52004,1,0,0:0:0:0:
192,192,52092,1,0,0:0:0:0:
64,192,52092,1,8,0:0:0:0:
448,192,52269,1,8,0:0:0:0:
192,192,52269,1,0,0:0:0:0:
320,192,52357,1,8,0:0:0:0:
64,192,52357,1,0,0:0:0:0:
64,192,52534,1,8,0:0:0:0:
192,192,52534,1,0,0:0:0:0:
448,192,52622,1,8,0:0:0:0:
320,192,52622,1,0,0:0:0:0:
64,192,52710,1,0,0:0:0:0:
192,192,52710,1,0,0:0:0:0:
320,192,52798,1,0,0:0:0:0:
448,192,52798,1,0,0:0:0:0:
192,192,52887,1,0,0:0:0:0:
64,192,52887,1,0,0:0:0:0:
448,192,52975,1,2,0:0:0:0:
320,192,52975,1,0,0:0:0:0:
64,192,53151,1,8,0:0:0:0:
320,192,53151,1,0,0:0:0:0:
192,192,53239,1,8,0:0:0:0:
448,192,53239,1,0,0:0:0:0:
192,192,53416,1,0,0:0:0:0:
64,192,53416,1,8,0:0:0:0:
320,192,53504,1,0,0:0:0:0:
448,192,53504,1,8,0:0:0:0:
64,192,53681,1,8,0:0:0:0:
320,192,53681,1,0,0:0:0:0:
192,192,53769,1,8,0:0:0:0:
448,192,53769,1,0,0:0:0:0:
448,192,53945,1,8,0:0:0:0:
320,192,53945,1,0,0:0:0:0:
192,192,54034,1,0,0:0:0:0:
64,192,54034,1,8,0:0:0:0:
448,192,54078,1,0,0:0:0:0:
320,192,54122,1,0,0:0:0:0:
192,192,54166,1,0,0:0:0:0:
448,192,54210,1,0,0:0:0:0:
64,192,54210,1,0,0:0:0:0:
320,192,54298,1,0,0:0:0:0:
192,192,54298,1,0,0:0:0:0:
448,192,54387,1,2,0:0:0:0:
64,192,54387,1,0,0:0:0:0:
320,192,54563,1,8,0:0:0:0:
64,192,54651,128,8,54916:0:0:0:0:
192,192,54651,1,0,0:0:0:0:
448,192,54651,1,0,0:0:0:0:
320,192,54828,1,8,0:0:0:0:
192,192,54916,1,0,0:0:0:0:
448,192,54916,128,8,55181:0:0:0:0:
192,192,55092,1,8,0:0:0:0:
320,192,55181,1,0,0:0:0:0:
64,192,55181,128,8,55445:0:0:0:0:
320,192,55357,1,8,0:0:0:0:
192,192,55445,1,0,0:0:0:0:
448,192,55445,128,8,55622:0:0:0:0:
320,192,55534,1,0,0:0:0:0:
64,192,55622,1,8,0:0:0:0:
320,192,55710,1,8,0:0:0:0:
64,192,55798,1,0,0:0:0:0:
192,192,55798,1,8,0:0:0:0:
448,192,55887,1,0,0:0:0:0:
320,192,55887,1,0,0:0:0:0:
64,192,55975,1,0,0:0:0:0:
192,192,55975,1,0,0:0:0:0:
448,192,56063,1,0,0:0:0:0:
320,192,56063,1,0,0:0:0:0:
64,192,56151,1,0,0:0:0:0:
192,192,56151,1,0,0:0:0:0:
448,192,56239,1,0,0:0:0:0:
320,192,56239,1,0,0:0:0:0:
64,192,56328,1,0,0:0:0:0:
192,192,56328,1,0,0:0:0:0:
448,192,56416,1,0,0:0:0:0:
320,192,56416,1,0,0:0:0:0:
64,192,56504,1,0,0:0:0:0:
192,192,56548,1,0,0:0:0:0:
448,192,56592,1,0,0:0:0:0:
320,192,56637,1,0,0:0:0:0:
64,192,56681,1,0,0:0:0:0:
192,192,56725,1,0,0:0:0:0:
448,192,56769,1,0,0:0:0:0:
320,192,56813,1,0,0:0:0:0:
64,192,56857,1,0,0:0:0:0:
192,192,56901,1,0,0:0:0:0:
448,192,56945,1,0,0:0:0:0:
320,192,56989,1,0,0:0:0:0:
64,192,57034,1,0,0:0:0:0:
192,192,57078,1,0,0:0:0:0:
448,192,57122,1,0,0:0:0:0:
320,192,57166,1,0,0:0:0:0:
64,192,57210,1,4,0:0:0:0:
192,192,57210,1,0,0:0:0:0:
448,192,57563,1,0,0:0:0:0:
64,192,57916,1,0,0:0:0:0:
320,192,58092,1,0,0:0:0:0:
64,192,58269,1,0,0:0:0:0:
192,192,58622,1,0,0:0:0:0:
448,192,58975,1,0,0:0:0:0:
64,192,59328,1,0,0:0:0:0:
320,192,59504,1,0,0:0:0:0:
64,192,59681,1,0,0:0:0:0:
192,192,60034,1,0,0:0:0:0:
448,192,60387,1,0,0:0:0:0:
64,192,60739,1,0,0:0:0:0:
320,192,60916,1,0,0:0:0:0:
64,192,61092,1,0,0:0:0:0:
192,192,61445,1,0,0:0:0:0:
448,192,61798,1,0,0:0:0:0:
64,192,62151,1,0,0:0:0:0:
320,192,62328,1,0,0:0:0:0:
64,192,62504,1,0,0:0:0:0:
320,192,62857,1,0,0:0:0:0:
64,192,63210,1,0,0:0:0:0:
448,192,63563,1,0,0:0:0:0:
192,192,63739,1,0,0:0:0:0:
448,192,63916,1,0,0:0:0:0:
320,192,64269,1,0,0:0:0:0:
64,192,64622,1,0,0:0:0:0:
448,192,64975,1,0,0:0:0:0:
192,192,65151,1,0,0:0:0:0:
448,192,65328,1,0,0:0:0:0:
320,192,65681,1,0,0:0:0:0:
64,192,66034,1,0,0:0:0:0:
448,192,66387,1,0,0:0:0:0:
192,192,66563,1,0,0:0:0:0:
448,192,66739,1,0,0:0:0:0:
320,192,67092,1,0,0:0:0:0:
64,192,67445,1,0,0:0:0:0:
448,192,67798,1,0,0:0:0:0:
192,192,67975,1,0,0:0:0:0:
448,192,68151,1,0,0:0:0:0:
64,192,68504,1,4,0:0:0:0:
448,192,68504,1,0,0:0:0:0:
192,192,68592,1,0,0:0:0:0:
448,192,68681,1,0,0:0:0:0:
320,192,68769,1,0,0:0:0:0:
64,192,68857,1,0,0:0:0:0:
192,192,68945,1,0,0:0:0:0:
320,192,69034,1,0,0:0:0:0:
448,192,69122,1,0,0:0:0:0:
64,192,69210,1,0,0:0:0:0:
192,192,69298,1,0,0:0:0:0:
448,192,69387,1,0,0:0:0:0:
320,192,69475,1,0,0:0:0:0:
64,192,69563,1,0,0:0:0:0:
192,192,69651,1,0,0:0:0:0:
320,192,69739,1,0,0:0:0:0:
192,192,69828,1,0,0:0:0:0:
64,192,69916,1,0,0:0:0:0:
192,192,70004,1,0,0:0:0:0:
448,192,70092,1,0,0:0:0:0:
320,192,70181,1,0,0:0:0:0:
64,192,70269,1,0,0:0:0:0:
192,192,70357,1,0,0:0:0:0:
320,192,70445,1,0,0:0:0:0:
448,192,70534,1,0,0:0:0:0:
64,192,70622,1,0,0:0:0:0:
192,192,70710,1,0,0:0:0:0:
448,192,70798,1,0,0:0:0:0:
320,192,70887,1,0,0:0:0:0:
64,192,70975,1,0,0:0:0:0:
192,192,71063,1,0,0:0:0:0:
320,192,71151,1,0,0:0:0:0:
192,192,71239,1,0,0:0:0:0:
448,192,71328,1,0,0:0:0:0:
64,192,71328,1,4,0:0:0:0:
320,192,71416,1,0,0:0:0:0:
64,192,71504,1,0,0:0:0:0:
192,192,71592,1,0,0:0:0:0:
448,192,71681,1,0,0:0:0:0:
320,192,71769,1,0,0:0:0:0:
192,192,71857,1,0,0:0:0:0:
64,192,71945,1,0,0:0:0:0:
448,192,72034,1,0,0:0:0:0:
320,192,72122,1,0,0:0:0:0:
64,192,72210,1,0,0:0:0:0:
192,192,72298,1,0,0:0:0:0:
448,192,72387,1,0,0:0:0:0:
320,192,72475,1,0,0:0:0:0:
192,192,72563,1,0,0:0:0:0:
320,192,72651,1,0,0:0:0:0:
448,192,72739,1,0,0:0:0:0:
320,192,72828,1,0,0:0:0:0:
64,192,72916,1,0,0:0:0:0:
192,192,73004,1,0,0:0:0:0:
448,192,73092,1,0,0:0:0:0:
320,192,73181,1,0,0:0:0:0:
192,192,73269,1,0,0:0:0:0:
64,192,73357,1,0,0:0:0:0:
448,192,73445,1,0,0:0:0:0:
320,192,73534,1,0,0:0:0:0:
64,192,73622,1,0,0:0:0:0:
192,192,73710,1,0,0:0:0:0:
448,192,73798,1,0,0:0:0:0:
320,192,73887,1,0,0:0:0:0:
192,192,73975,1,0,0:0:0:0:
320,192,74063,1,0,0:0:0:0:
448,192,74151,1,0,0:0:0:0:
64,192,74151,1,4,0:0:0:0:
192,192,74239,1,0,0:0:0:0:
448,192,74328,1,0,0:0:0:0:
320,192,74416,1,0,0:0:0:0:
64,192,74504,1,0,0:0:0:0:
192,192,74592,1,0,0:0:0:0:
320,192,74681,1,0,0:0:0:0:
448,192,74769,1,0,0:0:0:0:
64,192,74857,1,0,0:0:0:0:
192,192,74945,1,0,0:0:0:0:
448,192,75034,1,0,0:0:0:0:
320,192,75122,1,0,0:0:0:0:
64,192,75210,1,0,0:0:0:0:
192,192,75298,1,0,0:0:0:0:
320,192,75387,1,0,0:0:0:0:
192,192,75475,1,0,0:0:0:0:
64,192,75563,1,0,0:0:0:0:
320,192,75651,1,0,0:0:0:0:
192,192,75739,1,0,0:0:0:0:
320,192,75828,1,0,0:0:0:0:
448,192,75916,1,0,0:0:0:0:
192,192,76004,1,0,0:0:0:0:
320,192,76092,1,0,0:0:0:0:
192,192,76181,1,0,0:0:0:0:
64,192,76269,1,0,0:0:0:0:
192,192,76357,1,0,0:0:0:0:
320,192,76445,1,0,0:0:0:0:
448,192,76534,1,0,0:0:0:0:
64,192,76622,1,0,0:0:0:0:
192,192,76710,1,0,0:0:0:0:
320,192,76798,1,0,0:0:0:0:
192,192,76887,1,0,0:0:0:0:
64,192,76975,1,4,0:0:0:0:
448,192,76975,1,0,0:0:0:0:
192,192,77063,1,0,0:0:0:0:
320,192,77151,1,0,0:0:0:0:
448,192,77239,1,0,0:0:0:0:
192,192,77328,1,0,0:0:0:0:
320,192,77416,1,0,0:0:0:0:
64,192,77504,1,0,0:0:0:0:
192,192,77592,1,0,0:0:0:0:
320,192,77681,1,0,0:0:0:0:
448,192,77769,1,0,0:0:0:0:
320,192,77857,1,0,0:0:0:0:
192,192,77945,1,0,0:0:0:0:
64,192,78034,1,0,0:0:0:0:
192,192,78122,1,0,0:0:0:0:
320,192,78210,1,0,0:0:0:0:
448,192,78298,1,0,0:0:0:0:
64,192,78387,1,4,0:0:0:0:
320,192,78387,1,0,0:0:0:0:
192,192,78475,1,0,0:0:0:0:
320,192,78563,1,0,0:0:0:0:
64,192,78651,1,0,0:0:0:0:
192,192,78739,1,4,0:0:0:0:
448,192,78739,1,0,0:0:0:0:
320,192,78828,1,0,0:0:0:0:
64,192,78916,1,0,0:0:0:0:
192,192,79004,1,0,0:0:0:0:
320,192,79092,1,4,0:0:0:0:
448,192,79092,1,0,0:0:0:0:
192,192,79181,1,0,0:0:0:0:
64,192,79269,1,0,0:0:0:0:
448,192,79269,1,8,0:0:0:0:
320,192,79357,1,0,0:0:0:0:
64,192,79445,128,8,79798:0:0:0:0:
192,192,79445,128,0,79798:0:0:0:0:
448,192,79798,1,4,0:0:0:0:
320,192,79798,1,0,0:0:0:0:
192,192,79887,1,0,0:0:0:0:
320,192,79975,1,0,0:0:0:0:
448,192,80063,1,0,0:0:0:0:
64,192,80151,1,8,0:0:0:0:
192,192,80151,1,0,0:0:0:0:
320,192,80239,1,0,0:0:0:0:
192,192,80328,1,0,0:0:0:0:
320,192,80416,1,0,0:0:0:0:
448,192,80504,1,0,0:0:0:0:
64,192,80504,1,8,0:0:0:0:
192,192,80592,1,0,0:0:0:0:
448,192,80681,1,0,0:0:0:0:
320,192,80769,1,0,0:0:0:0:
64,192,80857,1,8,0:0:0:0:
192,192,80857,1,0,0:0:0:0:
320,192,80945,1,0,0:0:0:0:
192,192,81034,1,0,0:0:0:0:
64,192,81122,1,0,0:0:0:0:
448,192,81210,1,8,0:0:0:0:
192,192,81210,1,0,0:0:0:0:
320,192,81298,1,0,0:0:0:0:
192,192,81387,1,0,0:0:0:0:
64,192,81475,1,0,0:0:0:0:
448,192,81563,1,8,0:0:0:0:
320,192,81563,1,0,0:0:0:0:
192,192,81651,1,0,0:0:0:0:
320,192,81739,1,0,0:0:0:0:
192,192,81828,1,0,0:0:0:0:
448,192,81916,1,8,0:0:0:0:
64,192,81916,1,0,0:0:0:0:
320,192,82004,1,0,0:0:0:0:
64,192,82092,1,0,0:0:0:0:
192,192,82181,1,0,0:0:0:0:
448,192,82269,1,8,0:0:0:0:
320,192,82269,1,0,0:0:0:0:
192,192,82357,1,0,0:0:0:0:
64,192,82445,1,0,0:0:0:0:
320,192,82534,1,0,0:0:0:0:
64,192,82622,1,8,0:0:0:0:
448,192,82622,1,0,0:0:0:0:
192,192,82710,1,0,0:0:0:0:
320,192,82798,1,0,0:0:0:0:
448,192,82887,1,0,0:0:0:0:
64,192,82975,1,8,0:0:0:0:
192,192,82975,1,0,0:0:0:0:
320,192,83063,1,0,0:0:0:0:
192,192,83151,1,0,0:0:0:0:
320,192,83239,1,0,0:0:0:0:
64,192,83328,1,8,0:0:0:0:
448,192,83328,1,0,0:0:0:0:
192,192,83416,1,0,0:0:0:0:
448,192,83504,1,0,0:0:0:0:
320,192,83592,1,0,0:0:0:0:
64,192,83681,1,8,0:0:0:0:
192,192,83681,1,0,0:0:0:0:
320,192,83769,1,0,0:0:0:0:
192,192,83857,1,0,0:0:0:0:
64,192,83945,1,0,0:0:0:0:
448,192,84034,1,8,0:0:0:0:
320,192,84034,1,0,0:0:0:0:
192,192,84122,1,0,0:0:0:0:
320,192,84210,1,0,0:0:0:0:
192,192,84298,1,0,0:0:0:0:
448,192,84387,1,8,0:0:0:0:
64,192,84387,1,0,0:0:0:0:
320,192,84475,1,0,0:0:0:0:
192,192,84563,1,0,0:0:0:0:
320,192,84651,1,0,0:0:0:0:
448,192,84739,1,8,0:0:0:0:
64,192,84739,1,0,0:0:0:0:
192,192,84828,1,0,0:0:0:0:
320,192,84916,1,0,0:0:0:0:
448,192,84916,1,8,0:0:0:0:
320,192,85004,1,0,0:0:0:0:
448,192,85004,1,8,0:0:0:0:
192,192,85092,128,0,85445:0:0:0:0:
64,192,85092,128,8,85445:0:0:0:0:
448,192,85445,1,2,0:0:0:0:
320,192,85445,1,0,0:0:0:0:
448,192,85622,1,8,0:0:0:0:
320,192,85622,1,0,0:0:0:0:
64,192,85710,1,8,0:0:0:0:
192,192,85710,1,0,0:0:0:0:
448,192,85887,1,8,0:0:0:0:
192,192,85887,1,0,0:0:0:0:
320,192,85975,1,8,0:0:0:0:
64,192,85975,1,0,0:0:0:0:
448,192,86151,1,8,0:0:0:0:
320,192,86151,1,0,0:0:0:0:
64,192,86239,1,8,0:0:0:0:
192,192,86239,1,0,0:0:0:0:
448,192,86416,1,8,0:0:0:0:
320,192,86416,1,0,0:0:0:0:
64,192,86504,1,8,0:0:0:0:
192,192,86504,1,0,0:0:0:0:
320,192,86592,1,0,0:0:0:0:
448,192,86592,1,0,0:0:0:0:
64,192,86681,1,0,0:0:0:0:
192,192,86681,1,0,0:0:0:0:
320,192,86769,1,0,0:0:0:0:
448,192,86769,1,0,0:0:0:0:
64,192,86857,1,2,0:0:0:0:
192,192,86857,1,0,0:0:0:0:
64,192,87034,1,8,0:0:0:0:
192,192,87034,1,0,0:0:0:0:
320,192,87122,1,0,0:0:0:0:
448,192,87122,1,8,0:0:0:0:
64,192,87298,1,8,0:0:0:0:
320,192,87298,1,0,0:0:0:0:
192,192,87387,1,0,0:0:0:0:
448,192,87387,1,8,0:0:0:0:
64,192,87563,1,8,0:0:0:0:
192,192,87563,1,0,0:0:0:0:
448,192,87651,1,8,0:0:0:0:
320,192,87651,1,0,0:0:0:0:
64,192,87828,1,8,0:0:0:0:
192,192,87828,1,0,0:0:0:0:
448,192,87916,1,8,0:0:0:0:
320,192,87916,1,0,0:0:0:0:
64,192,87960,1,0,0:0:0:0:
192,192,88004,1,0,0:0:0:0:
320,192,88048,1,0,0:0:0:0:
448,192,88092,1,0,0:0:0:0:
64,192,88092,1,0,0:0:0:0:
192,192,88181,1,0,0:0:0:0:
320,192,88181,1,0,0:0:0:0:
448,192,88269,1,2,0:0:0:0:
64,192,88269,1,0,0:0:0:0:
192,192,88445,1,8,0:0:0:0:
320,192,88445,1,0,0:0:0:0:
64,192,88534,1,8,0:0:0:0:
448,192,88534,1,0,0:0:0:0:
448,192,88710,1,8,0:0:0:0:
64,192,88710,1,0,0:0:0:0:
320,192,88798,1,8,0:0:0:0:
192,192,88798,1,0,0:0:0:0:
320,192,88975,1,0,0:0:0:0:
192,192,88975,1,8,0:0:0:0:
64,192,89063,1,8,0:0:0:0:
448,192,89063,1,0,0:0:0:0:
448,192,89239,1,8,0:0:0:0:
320,192,89239,1,0,0:0:0:0:
192,192,89328,1,0,0:0:0:0:
64,192,89328,1,8,0:0:0:0:
448,192,89416,1,0,0:0:0:0:
320,192,89416,1,0,0:0:0:0:
192,192,89504,1,0,0:0:0:0:
64,192,89504,1,0,0:0:0:0:
320,192,89592,1,0,0:0:0:0:
448,192,89592,1,0,0:0:0:0:
192,192,89681,1,0,0:0:0:0:
448,192,89681,1,8,0:0:0:0:
64,192,89681,1,0,0:0:0:0:
320,192,89769,1,0,0:0:0:0:
192,192,89857,1,0,0:0:0:0:
64,192,89945,1,8,0:0:0:0:
448,192,89945,1,0,0:0:0:0:
320,192,89945,1,0,0:0:0:0:
192,192,90034,1,0,0:0:0:0:
64,192,90210,1,0,0:0:0:0:
320,192,90210,1,0,0:0:0:0:
448,192,90210,1,8,0:0:0:0:
64,192,90387,128,0,90563:0:0:0:0:
320,192,90387,128,0,90563:0:0:0:0:
448,192,90387,128,8,90563:0:0:0:0:
448,192,91092,1,2,0:0:0:0:
64,192,91092,1,0,0:0:0:0:
192,192,91092,1,0,0:0:0:0:
320,192,91181,1,0,0:0:0:0:
192,192,91269,1,0,0:0:0:0:
320,192,91357,1,0,0:0:0:0:
448,192,91445,1,8,0:0:0:0:
64,192,91445,1,0,0:0:0:0:
192,192,91445,1,0,0:0:0:0:
320,192,91534,1,0,0:0:0:0:
192,192,91622,1,0,0:0:0:0:
448,192,91710,1,0,0:0:0:0:
64,192,91798,1,2,0:0:0:0:
320,192,91798,1,0,0:0:0:0:
192,192,91887,1,0,0:0:0:0:
320,192,91975,1,0,0:0:0:0:
192,192,92063,1,0,0:0:0:0:
64,192,92151,1,8,0:0:0:0:
448,192,92151,1,0,0:0:0:0:
320,192,92151,1,0,0:0:0:0:
192,192,92239,1,0,0:0:0:0:
320,192,92328,1,0,0:0:0:0:
448,192,92416,1,0,0:0:0:0:
64,192,92504,1,2,0:0:0:0:
192,192,92504,1,0,0:0:0:0:
320,192,92592,1,0,0:0:0:0:
192,192,92681,1,0,0:0:0:0:
320,192,92769,1,0,0:0:0:0:
448,192,92857,1,8,0:0:0:0:
64,192,92857,1,0,0:0:0:0:
192,192,92857,1,0,0:0:0:0:
320,192,92945,1,0,0:0:0:0:
192,192,93034,1,0,0:0:0:0:
448,192,93122,1,0,0:0:0:0:
64,192,93210,1,0,0:0:0:0:
320,192,93210,1,2,0:0:0:0:
192,192,93298,1,0,0:0:0:0:
448,192,93387,1,0,0:0:0:0:
320,192,93475,1,0,0:0:0:0:
448,192,93563,1,8,0:0:0:0:
64,192,93563,1,0,0:0:0:0:
192,192,93563,1,0,0:0:0:0:
320,192,93651,1,0,0:0:0:0:
192,192,93739,1,0,0:0:0:0:
64,192,93828,1,0,0:0:0:0:
448,192,93916,1,2,0:0:0:0:
192,192,93916,1,0,0:0:0:0:
320,192,94004,1,0,0:0:0:0:
64,192,94092,1,0,0:0:0:0:
192,192,94181,1,0,0:0:0:0:
448,192,94269,1,0,0:0:0:0:
64,192,94269,1,8,0:0:0:0:
320,192,94269,1,0,0:0:0:0:
192,192,94357,1,0,0:0:0:0:
320,192,94445,1,0,0:0:0:0:
192,192,94534,1,0,0:0:0:0:
448,192,94622,1,0,0:0:0:0:
64,192,94622,1,2,0:0:0:0:
320,192,94710,1,0,0:0:0:0:
192,192,94798,1,0,0:0:0:0:
320,192,94887,1,0,0:0:0:0:
448,192,94975,1,8,0:0:0:0:
64,192,94975,1,0,0:0:0:0:
192,192,94975,1,0,0:0:0:0:
320,192,95063,1,0,0:0:0:0:
192,192,95151,1,0,0:0:0:0:
64,192,95239,1,0,0:0:0:0:
448,192,95328,1,2,0:0:0:0:
320,192,95328,1,0,0:0:0:0:
192,192,95416,1,0,0:0:0:0:
320,192,95504,1,0,0:0:0:0:
192,192,95592,1,0,0:0:0:0:
64,192,95681,1,8,0:0:0:0:
448,192,95681,1,0,0:0:0:0:
320,192,95681,1,0,0:0:0:0:
192,192,95769,1,0,0:0:0:0:
448,192,95857,1,0,0:0:0:0:
320,192,95945,1,0,0:0:0:0:
64,192,96034,1,2,0:0:0:0:
192,192,96034,1,0,0:0:0:0:
448,192,96122,1,0,0:0:0:0:
320,192,96210,1,0,0:0:0:0:
192,192,96298,1,0,0:0:0:0:
320,192,96387,1,0,0:0:0:0:
64,192,96387,1,8,0:0:0:0:
448,192,96387,1,0,0:0:0:0:
192,192,96475,1,0,0:0:0:0:
320,192,96563,1,0,0:0:0:0:
448,192,96651,1,0,0:0:0:0:
64,192,96739,1,2,0:0:0:0:
192,192,96739,1,0,0:0:0:0:
448,192,96828,1,0,0:0:0:0:
320,192,96916,1,0,0:0:0:0:
192,192,97004,1,0,0:0:0:0:
64,192,97092,1,8,0:0:0:0:
448,192,97092,1,0,0:0:0:0:
320,192,97092,1,0,0:0:0:0:
192,192,97181,1,0,0:0:0:0:
320,192,97269,1,0,0:0:0:0:
192,192,97357,1,0,0:0:0:0:
64,192,97445,1,0,0:0:0:0:
448,192,97445,1,2,0:0:0:0:
320,192,97534,1,0,0:0:0:0:
192,192,97622,1,0,0:0:0:0:
320,192,97710,1,0,0:0:0:0:
64,192,97798,1,0,0:0:0:0:
448,192,97798,1,8,0:0:0:0:
192,192,97798,1,0,0:0:0:0:
320,192,97887,1,0,0:0:0:0:
192,192,97975,1,0,0:0:0:0:
64,192,98063,1,0,0:0:0:0:
448,192,98151,1,2,0:0:0:0:
320,192,98151,1,0,0:0:0:0:
192,192,98239,1,0,0:0:0:0:
64,192,98328,1,0,0:0:0:0:
192,192,98416,1,0,0:0:0:0:
448,192,98504,1,0,0:0:0:0:
64,192,98504,1,8,0:0:0:0:
320,192,98504,1,0,0:0:0:0:
192,192,98592,1,0,0:0:0:0:
320,192,98681,1,0,0:0:0:0:
192,192,98769,1,0,0:0:0:0:
64,192,98857,1,0,0:0:0:0:
448,192,98857,1,2,0:0:0:0:
320,192,98945,1,0,0:0:0:0:
192,192,99034,1,0,0:0:0:0:
320,192,99122,1,0,0:0:0:0:
64,192,99210,1,0,0:0:0:0:
448,192,99210,1,8,0:0:0:0:
192,192,99210,1,0,0:0:0:0:
320,192,99298,1,0,0:0:0:0:
192,192,99387,1,0,0:0:0:0:
64,192,99475,1,0,0:0:0:0:
448,192,99563,1,2,0:0:0:0:
320,192,99563,1,0,0:0:0:0:
192,192,99651,1,0,0:0:0:0:
64,192,99739,1,0,0:0:0:0:
320,192,99828,1,0,0:0:0:0:
448,192,99916,1,8,0:0:0:0:
64,192,99916,1,0,0:0:0:0:
192,192,99916,1,0,0:0:0:0:
320,192,100004,1,0,0:0:0:0:
192,192,100092,1,0,0:0:0:0:
320,192,100181,1,0,0:0:0:0:
64,192,100269,1,2,0:0:0:0:
448,192,100269,1,0,0:0:0:0:
192,192,100357,1,0,0:0:0:0:
320,192,100445,1,0,0:0:0:0:
192,192,100534,1,0,0:0:0:0:
448,192,100622,1,0,0:0:0:0:
320,192,100622,1,0,0:0:0:0:
64,192,100622,1,8,0:0:0:0:
192,192,100710,1,0,0:0:0:0:
448,192,100798,1,0,0:0:0:0:
320,192,100887,1,0,0:0:0:0:
64,192,100975,1,2,0:0:0:0:
192,192,100975,1,0,0:0:0:0:
448,192,101063,1,0,0:0:0:0:
320,192,101151,1,0,0:0:0:0:
192,192,101239,1,0,0:0:0:0:
448,192,101328,1,8,0:0:0:0:
64,192,101328,1,0,0:0:0:0:
320,192,101328,1,0,0:0:0:0:
192,192,101416,1,0,0:0:0:0:
448,192,101504,1,0,0:0:0:0:
320,192,101592,1,0,0:0:0:0:
448,192,101681,1,2,0:0:0:0:
64,192,101681,1,0,0:0:0:0:
192,192,101681,1,0,0:0:0:0:
320,192,101769,1,0,0:0:0:0:
192,192,101857,1,0,0:0:0:0:
64,192,101857,1,0,0:0:0:0:
320,192,101945,1,0,0:0:0:0:
448,192,101945,1,0,0:0:0:0:
192,192,102034,1,0,0:0:0:0:
64,192,102034,1,0,0:0:0:0:
320,192,102122,1,0,0:0:0:0:
448,192,102122,1,0,0:0:0:0:
64,192,102210,1,0,0:0:0:0:
192,192,102210,1,0,0:0:0:0:
320,192,102298,1,0,0:0:0:0:
448,192,102298,1,0,0:0:0:0:
64,192,102387,1,0,0:0:0:0:
192,192,102387,1,0,0:0:0:0:
448,192,102387,1,2,0:0:0:0:
320,192,102475,1,0,0:0:0:0:
192,192,102563,128,0,102651:0:0:0:0:
64,192,102651,1,0,0:0:0:0:
448,192,102739,1,8,0:0:0:0:
320,192,102739,1,0,0:0:0:0:
192,192,102828,1,0,0:0:0:0:
320,192,102916,128,0,103004:0:0:0:0:
192,192,103004,1,0,0:0:0:0:
64,192,103092,1,2,0:0:0:0:
448,192,103092,1,0,0:0:0:0:
192,192,103181,1,0,0:0:0:0:
320,192,103269,128,0,103357:0:0:0:0:
448,192,103357,1,0,0:0:0:0:
64,192,103445,1,8,0:0:0:0:
192,192,103445,1,0,0:0:0:0:
320,192,103534,1,0,0:0:0:0:
192,192,103622,128,0,103710:0:0:0:0:
320,192,103710,1,0,0:0:0:0:
64,192,103798,1,2,0:0:0:0:
448,192,103798,1,0,0:0:0:0:
192,192,103887,1,0,0:0:0:0:
320,192,103975,128,0,104063:0:0:0:0:
448,192,104063,1,0,0:0:0:0:
64,192,104151,1,8,0:0:0:0:
192,192,104151,1,0,0:0:0:0:
320,192,104239,1,0,0:0:0:0:
192,192,104328,128,0,104416:0:0:0:0:
320,192,104416,1,0,0:0:0:0:
448,192,104504,1,2,0:0:0:0:
64,192,104504,1,0,0:0:0:0:
320,192,104592,1,0,0:0:0:0:
192,192,104681,128,0,104769:0:0:0:0:
64,192,104769,1,0,0:0:0:0:
320,192,104857,1,0,0:0:0:0:
448,192,104857,1,8,0:0:0:0:
192,192,104945,1,0,0:0:0:0:
320,192,105034,128,0,105122:0:0:0:0:
192,192,105122,1,0,0:0:0:0:
64,192,105210,1,0,0:0:0:0:
448,192,105210,1,2,0:0:0:0:
320,192,105298,1,0,0:0:0:0:
192,192,105387,128,0,105475:0:0:0:0:
64,192,105475,1,0,0:0:0:0:
448,192,105563,1,8,0:0:0:0:
320,192,105563,1,0,0:0:0:0:
192,192,105651,1,0,0:0:0:0:
320,192,105739,128,0,105828:0:0:0:0:
192,192,105828,1,0,0:0:0:0:
64,192,105916,1,2,0:0:0:0:
448,192,105916,1,0,0:0:0:0:
192,192,106004,1,0,0:0:0:0:
320,192,106092,128,0,106181:0:0:0:0:
448,192,106181,1,0,0:0:0:0:
64,192,106269,1,8,0:0:0:0:
192,192,106269,1,0,0:0:0:0:
320,192,106357,1,0,0:0:0:0:
192,192,106445,128,0,106534:0:0:0:0:
320,192,106534,1,0,0:0:0:0:
64,192,106622,1,2,0:0:0:0:
448,192,106622,1,0,0:0:0:0:
192,192,106710,1,0,0:0:0:0:
320,192,106798,128,0,106887:0:0:0:0:
448,192,106887,1,0,0:0:0:0:
64,192,106975,1,8,0:0:0:0:
192,192,106975,1,0,0:0:0:0:
320,192,107063,1,0,0:0:0:0:
192,192,107151,128,0,107239:0:0:0:0:
320,192,107239,1,0,0:0:0:0:
448,192,107328,1,2,0:0:0:0:
64,192,107328,1,0,0:0:0:0:
320,192,107416,1,0,0:0:0:0:
192,192,107504,128,0,107592:0:0:0:0:
64,192,107592,1,0,0:0:0:0:
320,192,107681,128,0,108034:0:0:0:0:
448,192,107681,128,8,108034:0:0:0:0:
192,192,108034,1,0,0:0:0:0:
64,192,108034,1,2,0:0:0:0:
448,192,108210,1,8,0:0:0:0:
320,192,108210,1,0,0:0:0:0:
64,192,108298,1,8,0:0:0:0:
192,192,108298,1,0,0:0:0:0:
448,192,108475,1,0,0:0:0:0:
192,192,108475,1,8,0:0:0:0:
320,192,108563,1,0,0:0:0:0:
64,192,108563,1,8,0:0:0:0:
448,192,108739,1,8,0:0:0:0:
320,192,108739,1,0,0:0:0:0:
192,192,108828,1,0,0:0:0:0:
64,192,108828,1,8,0:0:0:0:
192,192,109004,1,8,0:0:0:0:
320,192,109004,1,0,0:0:0:0:
448,192,109092,1,0,0:0:0:0:
64,192,109092,1,8,0:0:0:0:
320,192,109181,1,0,0:0:0:0:
192,192,109181,1,0,0:0:0:0:
448,192,109269,1,0,0:0:0:0:
64,192,109269,1,0,0:0:0:0:
320,192,109357,1,0,0:0:0:0:
192,192,109357,1,0,0:0:0:0:
64,192,109445,1,0,0:0:0:0:
448,192,109445,1,2,0:0:0:0:
64,192,109622,1,8,0:0:0:0:
192,192,109622,1,0,0:0:0:0:
448,192,109710,1,8,0:0:0:0:
320,192,109710,1,0,0:0:0:0:
64,192,109887,1,8,0:0:0:0:
320,192,109887,1,0,0:0:0:0:
448,192,109975,1,0,0:0:0:0:
192,192,109975,1,8,0:0:0:0:
192,192,110151,1,0,0:0:0:0:
64,192,110151,1,8,0:0:0:0:
448,192,110239,1,8,0:0:0:0:
320,192,110239,1,0,0:0:0:0:
448,192,110416,1,8,0:0:0:0:
320,192,110416,1,0,0:0:0:0:
64,192,110504,1,8,0:0:0:0:
192,192,110504,1,0,0:0:0:0:
448,192,110548,1,0,0:0:0:0:
320,192,110592,1,0,0:0:0:0:
192,192,110637,1,0,0:0:0:0:
448,192,110681,1,0,0:0:0:0:
64,192,110681,1,0,0:0:0:0:
192,192,110769,1,0,0:0:0:0:
320,192,110769,1,0,0:0:0:0:
448,192,110857,1,0,0:0:0:0:
64,192,110857,1,2,0:0:0:0:
192,192,111034,1,0,0:0:0:0:
320,192,111034,1,8,0:0:0:0:
64,192,111122,1,0,0:0:0:0:
448,192,111122,1,8,0:0:0:0:
448,192,111298,1,0,0:0:0:0:
64,192,111298,1,8,0:0:0:0:
320,192,111387,1,0,0:0:0:0:
192,192,111387,1,8,0:0:0:0:
192,192,111563,1,0,0:0:0:0:
320,192,111563,1,8,0:0:0:0:
64,192,111651,1,0,0:0:0:0:
448,192,111651,1,8,0:0:0:0:
192,192,111828,1,8,0:0:0:0:
64,192,111828,1,0,0:0:0:0:
320,192,111916,1,8,0:0:0:0:
448,192,111916,1,0,0:0:0:0:
192,192,112004,1,0,0:0:0:0:
64,192,112092,1,8,0:0:0:0:
448,192,112092,1,0,0:0:0:0:
320,192,112181,1,0,0:0:0:0:
192,192,112269,1,0,0:0:0:0:
64,192,112269,1,8,0:0:0:0:
448,192,112357,1,0,0:0:0:0:
320,192,112357,1,0,0:0:0:0:
64,192,112445,1,0,0:0:0:0:
192,192,112445,1,0,0:0:0:0:
320,192,112534,1,0,0:0:0:0:
448,192,112534,1,0,0:0:0:0:
192,192,112622,1,0,0:0:0:0:
64,192,112622,1,0,0:0:0:0:
320,192,112710,1,0,0:0:0:0:
448,192,112710,1,0,0:0:0:0:
192,192,112798,1,0,0:0:0:0:
64,192,112798,1,0,0:0:0:0:
448,192,112887,1,0,0:0:0:0:
320,192,112887,1,0,0:0:0:0:
64,192,112975,1,0,0:0:0:0:
192,192,113019,1,0,0:0:0:0:
320,192,113063,1,0,0:0:0:0:
448,192,113107,1,0,0:0:0:0:
64,192,113151,1,0,0:0:0:0:
192,192,113195,1,0,0:0:0:0:
320,192,113239,1,0,0:0:0:0:
448,192,113284,1,0,0:0:0:0:
192,192,113328,128,0,113681:0:0:0:0:
64,192,113328,128,8,113681:0:0:0:0:
448,192,113681,1,2,0:0:0:0:
320,192,113681,1,0,0:0:0:0:
192,192,113769,1,0,0:0:0:0:
448,192,113857,1,8,0:0:0:0:
64,192,113857,1,0,0:0:0:0:
192,192,113945,1,0,0:0:0:0:
320,192,114034,1,0,0:0:0:0:
448,192,114034,1,8,0:0:0:0:
192,192,114122,1,0,0:0:0:0:
64,192,114122,1,8,0:0:0:0:
320,192,114210,1,0,0:0:0:0:
448,192,114298,1,8,0:0:0:0:
64,192,114298,1,0,0:0:0:0:
192,192,114387,1,0,0:0:0:0:
320,192,114387,1,8,0:0:0:0:
448,192,114475,1,0,0:0:0:0:
320,192,114563,1,0,0:0:0:0:
64,192,114563,1,8,0:0:0:0:
192,192,114651,1,0,0:0:0:0:
320,192,114739,1,0,0:0:0:0:
448,192,114739,1,8,0:0:0:0:
64,192,114828,1,8,0:0:0:0:
192,192,114828,1,0,0:0:0:0:
320,192,114916,1,0,0:0:0:0:
448,192,115004,1,0,0:0:0:0:
192,192,115004,1,8,0:0:0:0:
64,192,115092,1,8,0:0:0:0:
320,192,115092,1,0,0:0:0:0:
192,192,115181,1,0,0:0:0:0:
320,192,115269,1,0,0:0:0:0:
448,192,115357,1,0,0:0:0:0:
64,192,115445,1,0,0:0:0:0:
192,192,115489,1,0,0:0:0:0:
320,192,115534,1,0,0:0:0:0:
448,192,115578,1,0,0:0:0:0:
192,192,115622,1,0,0:0:0:0:
64,192,115622,1,0,0:0:0:0:
320,192,115710,1,0,0:0:0:0:
448,192,115710,1,0,0:0:0:0:
64,192,115798,128,8,116063:0:0:0:0:
192,192,115798,128,0,116063:0:0:0:0:
