osu file format v14

[General]
AudioFilename: audio.mp3
AudioLeadIn: 0
PreviewTime: 21916
Countdown: 0
SampleSet: Normal
StackLeniency: 0.7
Mode: 3
LetterboxInBreaks: 0
SpecialStyle: 0
WidescreenStoryboard: 0

[Editor]
DistanceSpacing: 1.4
BeatDivisor: 4
GridSize: 32
TimelineZoom: 1.6

[Metadata]
Title:Rock It
TitleUnicode:Rock It
Artist:Hommarju
ArtistUnicode:Hommarju
Creator:Tofu1222
Version:Beginner
Source:beatmania IIDX 23 copula
Tags:hardcore EedowChyan0w0
BeatmapID:1214565
BeatmapSetID:569903

[Difficulty]
HPDrainRate:6
CircleSize:4
OverallDifficulty:6.5
ApproachRate:5
SliderMultiplier:1.4
SliderTickRate:1

[Events]
//Background and Video events
0,0,"bg.jpg",0,0
//Break Periods
//Storyboard Layer 0 (Background)
//Storyboard Layer 1 (Fail)
//Storyboard Layer 2 (Pass)
//Storyboard Layer 3 (Foreground)
//Storyboard Sound Samples

[TimingPoints]
740,352.941176470588,4,1,1,50,1,0
23328,-100,4,1,1,50,0,1
45916,-100,4,1,1,50,0,0
91092,-100,4,1,1,50,0,1
113681,-100,4,1,1,50,0,0

[HitObjects]
320,192,740,5,4,0:0:0:0:
64,192,740,1,0,0:0:0:0:
192,192,1092,1,0,0:0:0:0:
64,192,1445,1,0,0:0:0:0:
320,192,1798,1,0,0:0:0:0:
192,192,2151,1,0,0:0:0:0:
448,192,2504,1,0,0:0:0:0:
320,192,2857,1,0,0:0:0:0:
64,192,3210,1,0,0:0:0:0:
320,192,3563,1,4,0:0:0:0:
448,192,3563,1,0,0:0:0:0:
64,192,3916,1,0,0:0:0:0:
320,192,4269,1,0,0:0:0:0:
192,192,4622,1,0,0:0:0:0:
448,192,4975,1,0,0:0:0:0:
320,192,5328,1,0,0:0:0:0:
64,192,5681,1,0,0:0:0:0:
192,192,6034,1,0,0:0:0:0:
320,192,6387,1,0,0:0:0:0:
64,192,6387,1,4,0:0:0:0:
192,192,6739,1,0,0:3:0:0:
448,192,7092,1,0,0:0:0:0:
192,192,7445,1,0,0:0:0:0:
320,192,7798,1,0,0:0:0:0:
64,192,8151,1,0,0:0:0:0:
320,192,8504,1,0,0:0:0:0:
192,192,8857,1,0,0:0:0:0:
64,192,9210,1,4,0:0:0:0:
448,192,9210,1,0,0:0:0:0:
192,192,9563,1,0,0:0:0:0:
320,192,9916,1,0,0:0:0:0:
64,192,10269,1,0,0:0:0:0:
320,192,10622,1,0,0:0:0:0:
192,192,10975,1,0,0:0:0:0:
448,192,11328,1,0,0:0:0:0:
320,192,11681,1,0,0:0:0:0:
64,192,12034,1,4,0:0:0:0:
448,192,12034,1,0,0:0:0:0:
320,192,12387,1,8,0:0:0:0:
64,192,12739,1,8,0:0:0:0:
320,192,13092,1,8,0:0:0:0:
448,192,13445,1,8,0:0:0:0:
192,192,13798,1,8,0:0:0:0:
448,192,14151,1,8,0:0:0:0:
64,192,14504,1,8,0:0:0:0:
320,192,14857,1,8,0:0:0:0:
192,192,15210,1,8,0:0:0:0:
320,192,15563,1,8,0:0:0:0:
64,192,15916,1,8,0:0:0:0:
448,192,16269,1,8,0:0:0:0:
320,192,16622,1,8,0:0:0:0:
192,192,16975,1,8,0:0:0:0:
448,192,17151,1,8,0:0:0:0:
64,192,17328,128,8,17681:0:0:0:0:
448,192,17681,1,2,0:0:0:0:
320,192,17945,1,8,0:0:0:0:
64,192,18210,1,8,0:0:0:0:
192,192,18475,1,8,0:0:0:0:
448,192,18739,128,8,19092:0:0:0:0:
64,192,19092,1,2,0:0:0:0:
320,192,19357,1,8,0:0:0:0:
64,192,19622,1,8,0:0:0:0:
448,192,19887,1,8,0:0:0:0:
192,192,20151,128,8,20504:0:0:0:0:
448,192,20504,1,2,0:0:0:0:
64,192,20769,1,8,0:0:0:0:
320,192,21034,1,8,0:0:0:0:
192,192,21298,1,8,0:0:0:0:
320,192,21563,128,8,21916:0:0:0:0:
64,192,21916,1,8,0:0:0:0:
448,192,22181,1,8,0:0:0:0:
192,192,22445,1,8,0:0:0:0:
320,192,22622,1,8,0:0:0:0:
64,192,23328,1,2,0:0:0:0:
320,192,23328,1,0,0:0:0:0:
192,192,23681,1,8,0:0:0:0:
448,192,24034,1,2,0:0:0:0:
64,192,24387,1,8,0:0:0:0:
448,192,24739,1,2,0:0:0:0:
192,192,24739,1,0,0:0:0:0:
320,192,25092,1,8,0:0:0:0:
64,192,25445,1,2,0:0:0:0:
320,192,25798,1,8,0:0:0:0:
192,192,26151,1,2,0:0:0:0:
64,192,26151,1,0,0:0:0:0:
448,192,26504,1,8,0:0:0:0:
192,192,26857,1,2,0:0:0:0:
320,192,27210,1,8,0:0:0:0:
64,192,27563,1,2,0:0:0:0:
448,192,27563,1,0,0:0:0:0:
192,192,27916,1,8,0:0:0:0:
448,192,28269,1,2,0:0:0:0:
192,192,28622,1,8,0:0:0:0:
64,192,28975,1,2,0:0:0:0:
320,192,28975,1,0,0:0:0:0:
192,192,29328,1,8,0:0:0:0:
448,192,29681,1,2,0:0:0:0:
320,192,30034,1,8,0:0:0:0:
448,192,30387,1,0,0:0:0:0:
64,192,30387,1,2,0:0:0:0:
192,192,30739,1,8,0:0:0:0:
320,192,31092,1,2,0:0:0:0:
64,192,31445,1,8,0:0:0:0:
448,192,31798,1,2,0:0:0:0:
192,192,31798,1,0,0:0:0:0:
320,192,32151,1,8,0:0:0:0:
192,192,32504,1,2,0:0:0:0:
320,192,32857,1,8,0:0:0:0:
64,192,33210,1,2,0:0:0:0:
448,192,33210,1,0,0:0:0:0:
192,192,33563,1,8,0:0:0:0:
448,192,33916,1,2,0:0:0:0:
64,192,34092,128,0,34445:0:0:0:0:
448,192,34622,1,2,0:0:0:0:
192,192,34798,1,0,0:0:0:0:
192,192,35151,1,0,0:0:0:0:
320,192,35504,1,0,0:0:0:0:
320,192,35857,1,0,0:0:0:0:
64,192,36210,1,0,0:0:0:0:
64,192,36563,1,0,0:0:0:0:
448,192,36916,1,0,0:0:0:0:
448,192,37269,1,0,0:0:0:0:
320,192,37622,1,0,0:0:0:0:
320,192,37975,1,0,0:0:0:0:
64,192,38328,1,0,0:0:0:0:
64,192,38681,1,0,0:0:0:0:
192,192,39034,1,0,0:0:0:0:
192,192,39387,1,0,0:0:0:0:
448,192,39739,1,0,0:0:0:0:
64,192,39916,128,8,40269:0:0:0:0:
448,192,40269,1,2,0:0:0:0:
192,192,40534,1,8,0:0:0:0:
448,192,40798,1,8,0:0:0:0:
192,192,41063,1,8,0:0:0:0:
448,192,41328,128,8,41681:0:0:0:0:
64,192,41681,1,2,0:0:0:0:
320,192,41945,1,8,0:0:0:0:
64,192,42210,1,8,0:0:0:0:
320,192,42475,1,8,0:0:0:0:
64,192,42739,128,8,43092:0:0:0:0:
320,192,43092,1,2,0:0:0:0:
192,192,43357,1,8,0:0:0:0:
320,192,43622,1,8,0:0:0:0:
64,192,43887,1,8,0:0:0:0:
448,192,44151,1,8,0:0:0:0:
320,192,44328,1,8,0:0:0:0:
64,192,44504,128,8,45563:0:0:0:0:
320,192,45210,128,0,45563:0:0:0:0:
192,192,45563,128,8,45916:0:0:0:0:
448,192,45916,1,2,0:0:0:0:
192,192,46269,1,8,0:0:0:0:
448,192,46622,1,2,0:0:0:0:
192,192,46975,1,8,0:0:0:0:
320,192,47328,1,2,0:0:0:0:
64,192,47681,1,8,0:0:0:0:
320,192,48034,1,2,0:0:0:0:
192,192,48387,1,8,0:0:0:0:
64,192,48739,1,2,0:0:0:0:
448,192,49092,1,8,0:0:0:0:
192,192,49445,1,2,0:0:0:0:
448,192,49798,1,8,0:0:0:0:
64,192,50151,1,2,0:0:0:0:
320,192,50504,1,8,0:0:0:0:
64,192,50857,1,2,0:0:0:0:
448,192,51210,128,8,51563:0:0:0:0:
64,192,51563,1,2,0:0:0:0:
192,192,51828,1,8,0:0:0:0:
320,192,52092,1,8,0:0:0:0:
64,192,52357,1,8,0:0:0:0:
320,192,52622,128,8,52975:0:0:0:0:
448,192,52975,1,2,0:0:0:0:
64,192,53239,1,8,0:0:0:0:
448,192,53504,1,8,0:0:0:0:
192,192,53769,1,8,0:0:0:0:
64,192,54034,128,8,54387:0:0:0:0:
192,192,54387,1,2,0:0:0:0:
448,192,54651,1,8,0:0:0:0:
64,192,54916,1,8,0:0:0:0:
320,192,55181,1,8,0:0:0:0:
192,192,55445,1,8,0:0:0:0:
448,192,55622,1,8,0:0:0:0:
64,192,55798,1,8,0:0:0:0:
192,192,56151,1,8,0:0:0:0:
448,192,56504,128,8,57210:0:0:0:0:
320,192,56857,1,8,0:0:0:0:
64,192,57210,1,4,0:0:0:0:
192,192,57210,1,0,0:0:0:0:
320,192,57563,1,0,0:0:0:0:
64,192,57916,1,0,0:0:0:0:
192,192,58092,1,0,0:0:0:0:
320,192,58269,1,0,0:0:0:0:
64,192,58622,1,0,0:0:0:0:
320,192,58975,1,0,0:0:0:0:
64,192,59328,1,0,0:0:0:0:
192,192,59504,1,0,0:0:0:0:
320,192,59681,1,0,0:0:0:0:
64,192,60034,1,0,0:0:0:0:
320,192,60387,1,0,0:0:0:0:
64,192,60739,1,0,0:0:0:0:
192,192,60916,1,0,0:0:0:0:
320,192,61092,1,0,0:0:0:0:
64,192,61445,1,0,0:0:0:0:
320,192,61798,1,0,0:0:0:0:
64,192,62151,1,0,0:0:0:0:
192,192,62328,1,0,0:0:0:0:
320,192,62504,1,0,0:0:0:0:
448,192,62857,1,0,0:0:0:0:
192,192,63210,1,0,0:0:0:0:
448,192,63563,1,0,0:0:0:0:
320,192,63739,1,0,0:0:0:0:
192,192,63916,1,0,0:0:0:0:
448,192,64269,1,0,0:0:0:0:
192,192,64622,1,0,0:0:0:0:
448,192,64975,1,0,0:0:0:0:
320,192,65151,1,0,0:0:0:0:
192,192,65328,1,0,0:0:0:0:
448,192,65681,1,0,0:0:0:0:
192,192,66034,1,0,0:0:0:0:
448,192,66387,1,0,0:0:0:0:
320,192,66563,1,0,0:0:0:0:
192,192,66739,1,0,0:0:0:0:
448,192,67092,1,0,0:0:0:0:
192,192,67445,1,0,0:0:0:0:
448,192,67798,1,0,0:0:0:0:
320,192,67975,1,0,0:0:0:0:
192,192,68151,1,0,0:0:0:0:
64,192,68504,1,4,0:0:0:0:
448,192,68504,1,0,0:0:0:0:
320,192,68857,1,0,0:0:0:0:
448,192,69210,1,0,0:0:0:0:
192,192,69387,1,0,0:0:0:0:
448,192,69563,1,0,0:0:0:0:
64,192,69916,1,0,0:0:0:0:
320,192,70269,1,0,0:0:0:0:
448,192,70622,1,0,0:0:0:0:
192,192,70798,1,0,0:0:0:0:
448,192,70975,1,0,0:0:0:0:
64,192,71328,1,4,0:0:0:0:
448,192,71328,1,0,0:0:0:0:
192,192,71681,1,0,0:0:0:0:
64,192,72034,1,0,0:0:0:0:
320,192,72210,1,0,0:0:0:0:
64,192,72387,1,0,0:0:0:0:
448,192,72739,1,0,0:0:0:0:
192,192,73092,1,0,0:0:0:0:
64,192,73445,1,0,0:0:0:0:
320,192,73622,1,0,0:0:0:0:
64,192,73798,1,0,0:0:0:0:
192,192,74151,1,4,0:0:0:0:
320,192,74151,1,0,0:0:0:0:
64,192,74504,1,0,0:0:0:0:
448,192,74857,1,0,0:0:0:0:
64,192,75034,1,0,0:0:0:0:
448,192,75210,1,0,0:0:0:0:
192,192,75563,1,0,0:0:0:0:
64,192,75916,1,0,0:0:0:0:
448,192,76269,1,0,0:0:0:0:
64,192,76445,1,0,0:0:0:0:
448,192,76622,1,0,0:0:0:0:
192,192,76975,1,4,0:0:0:0:
320,192,76975,1,0,0:0:0:0:
448,192,77328,1,0,0:0:0:0:
64,192,77681,1,0,0:0:0:0:
448,192,77857,1,0,0:0:0:0:
64,192,78034,1,0,0:0:0:0:
448,192,78387,1,4,0:0:0:0:
320,192,78739,1,4,0:0:0:0:
192,192,79092,1,4,0:0:0:0:
448,192,79269,1,8,0:0:0:0:
64,192,79445,128,8,79798:0:0:0:0:
448,192,79798,1,4,0:0:0:0:
320,192,80151,1,8,0:0:0:0:
64,192,80504,1,8,0:0:0:0:
320,192,80857,1,8,0:0:0:0:
64,192,81210,1,8,0:0:0:0:
192,192,81563,1,8,0:0:0:0:
448,192,81916,1,8,0:0:0:0:
192,192,82269,1,8,0:0:0:0:
320,192,82622,1,8,0:0:0:0:
192,192,82975,1,8,0:0:0:0:
320,192,83328,1,8,0:0:0:0:
64,192,83681,1,8,0:0:0:0:
448,192,84034,1,8,0:0:0:0:
320,192,84387,1,8,0:0:0:0:
192,192,84739,1,8,0:0:0:0:
448,192,84916,1,8,0:0:0:0:
64,192,85092,128,8,85445:0:0:0:0:
448,192,85445,1,2,0:0:0:0:
320,192,85710,1,8,0:0:0:0:
64,192,85975,1,8,0:0:0:0:
192,192,86239,1,8,0:0:0:0:
448,192,86504,128,8,86857:0:0:0:0:
64,192,86857,1,2,0:0:0:0:
320,192,87122,1,8,0:0:0:0:
64,192,87387,1,8,0:0:0:0:
448,192,87651,1,8,0:0:0:0:
192,192,87916,128,8,88269:0:0:0:0:
448,192,88269,1,2,0:0:0:0:
64,192,88534,1,8,0:0:0:0:
320,192,88798,1,8,0:0:0:0:
192,192,89063,1,8,0:0:0:0:
320,192,89328,128,8,89681:0:0:0:0:
64,192,89681,1,8,0:0:0:0:
448,192,89945,1,8,0:0:0:0:
192,192,90210,1,8,0:0:0:0:
320,192,90387,1,8,0:0:0:0:
64,192,91092,1,2,0:0:0:0:
320,192,91092,1,0,0:0:0:0:
192,192,91445,1,8,0:0:0:0:
448,192,91798,1,2,0:0:0:0:
64,192,92151,1,8,0:0:0:0:
448,192,92504,1,2,0:0:0:0:
192,192,92504,1,0,0:0:0:0:
320,192,92857,1,8,0:0:0:0:
64,192,93210,1,2,0:0:0:0:
320,192,93563,1,8,0:0:0:0:
192,192,93916,1,2,0:0:0:0:
64,192,93916,1,0,0:0:0:0:
448,192,94269,1,8,0:0:0:0:
192,192,94622,1,2,0:0:0:0:
320,192,94975,1,8,0:0:0:0:
64,192,95328,1,2,0:0:0:0:
448,192,95328,1,0,0:0:0:0:
192,192,95681,1,8,0:0:0:0:
448,192,96034,1,2,0:0:0:0:
192,192,96387,1,8,0:0:0:0:
64,192,96739,1,2,0:0:0:0:
320,192,96739,1,0,0:0:0:0:
192,192,97092,1,8,0:0:0:0:
448,192,97445,1,2,0:0:0:0:
320,192,97798,1,8,0:0:0:0:
448,192,98151,1,2,0:0:0:0:
64,192,98151,1,0,0:0:0:0:
192,192,98504,1,8,0:0:0:0:
320,192,98857,1,2,0:0:0:0:
64,192,99210,1,8,0:0:0:0:
448,192,99563,1,2,0:0:0:0:
192,192,99563,1,0,0:0:0:0:
320,192,99916,1,8,0:0:0:0:
192,192,100269,1,2,0:0:0:0:
320,192,100622,1,8,0:0:0:0:
64,192,100975,1,2,0:0:0:0:
448,192,100975,1,0,0:0:0:0:
320,192,101328,1,8,0:0:0:0:
192,192,101681,1,2,0:0:0:0:
64,192,101857,128,0,102210:0:0:0:0:
448,192,102387,1,2,0:0:0:0:
320,192,102563,1,0,0:0:0:0:
320,192,102916,1,0,0:0:0:0:
192,192,103269,1,0,0:0:0:0:
192,192,103622,1,0,0:0:0:0:
64,192,103975,1,0,0:0:0:0:
64,192,104328,1,0,0:0:0:0:
448,192,104681,1,0,0:0:0:0:
448,192,105034,1,0,0:0:0:0:
320,192,105387,1,0,0:0:0:0:
320,192,105739,1,0,0:0:0:0:
64,192,106092,1,0,0:0:0:0:
64,192,106445,1,0,0:0:0:0:
192,192,106798,1,0,0:0:0:0:
192,192,107151,1,0,0:0:0:0:
448,192,107504,1,0,0:0:0:0:
64,192,107681,128,8,108034:0:0:0:0:
448,192,108034,1,2,0:0:0:0:
320,192,108298,1,8,0:0:0:0:
192,192,108563,1,8,0:0:0:0:
448,192,108828,1,8,0:0:0:0:
320,192,109092,128,8,109445:0:0:0:0:
64,192,109445,1,2,0:0:0:0:
192,192,109710,1,8,0:0:0:0:
320,192,109975,1,8,0:0:0:0:
64,192,110239,1,8,0:0:0:0:
192,192,110504,128,8,110857:0:0:0:0:
448,192,110857,1,2,0:0:0:0:
64,192,111122,1,8,0:0:0:0:
320,192,111387,1,8,0:0:0:0:
192,192,111651,1,8,0:0:0:0:
64,192,111916,1,8,0:0:0:0:
192,192,112092,1,8,0:0:0:0:
448,192,112269,1,8,0:0:0:0:
64,192,112445,1,0,0:0:0:0:
320,192,112622,1,0,0:0:0:0:
192,192,112798,1,0,0:0:0:0:
448,192,112975,128,0,113328:0:0:0:0:
64,192,113328,128,8,113681:0:0:0:0:
448,192,113681,1,2,0:0:0:0:
320,192,114034,1,8,0:0:0:0:
64,192,114387,1,8,0:0:0:0:
320,192,114739,1,8,0:0:0:0:
448,192,115092,1,8,0:0:0:0:
192,192,115445,1,0,0:0:0:0:
64,192,115798,128,8,116063:0:0:0:0:
448,192,115798,128,0,116063:0:0:0:0:
