osu file format v14

[General]
AudioFilename: audio.mp3
AudioLeadIn: 0
PreviewTime: 22782
Countdown: 0
SampleSet: Normal
StackLeniency: 0.7
Mode: 1
LetterboxInBreaks: 0
WidescreenStoryboard: 1

[Editor]
Bookmarks: 812,12106,23400,33988,34694,45988,57282,68576,79870,91164,101753,102459,113753,115870
DistanceSpacing: 1.4
BeatDivisor: 4
GridSize: 32
TimelineZoom: 0.8999989

[Metadata]
Title:Rock It
TitleUnicode:Rock It
Artist:Hommarju
ArtistUnicode:Hommarju
Creator:Realazy
Version:Kantan
Source:beatmania IIDX 23 copula
Tags:Ayyri Hardcore BEMANI KONAMI
BeatmapID:1488045
BeatmapSetID:703311

[Difficulty]
HPDrainRate:7
CircleSize:2
OverallDifficulty:3
ApproachRate:10
SliderMultiplier:1.4
SliderTickRate:1

[Events]
//Background and Video events
0,0,"Rock It.jpg",0,0
//Break Periods
//Storyboard Layer 0 (Background)
//Storyboard Layer 1 (Fail)
//Storyboard Layer 2 (Pass)
//Storyboard Layer 3 (Foreground)
//Storyboard Sound Samples

[TimingPoints]
812,352.941176470588,4,1,0,75,1,0
23400,-100,4,1,0,75,0,1
33988,-100,4,1,0,75,0,0
34694,-100,4,1,0,75,0,1
45988,-100,4,1,0,75,0,0
91164,-100,4,1,0,75,0,1
101753,-100,4,1,0,75,0,0
102459,-100,4,1,0,75,0,1
113753,-100,4,1,0,75,0,0

[Colours]
Combo1 : 248,220,155
Combo2 : 253,186,123
Combo3 : 254,165,160
Combo4 : 254,188,221
Combo5 : 187,184,252
Combo6 : 142,198,250

[HitObjects]
256,192,812,5,12,0:0:0:0:
256,192,2223,1,0,0:0:0:0:
256,192,3635,1,8,0:0:0:0:
256,192,5047,1,0,0:0:0:0:
256,192,6459,1,8,0:0:0:0:
256,192,7870,1,0,0:0:0:0:
256,192,9282,1,8,0:0:0:0:
256,192,10694,1,0,0:0:0:0:
256,192,12106,1,4,0:0:0:0:
256,192,12811,1,0,0:0:0:0:
256,192,13517,1,0,0:0:0:0:
256,192,14929,1,0,0:0:0:0:
256,192,15635,1,0,0:0:0:0:
256,192,16341,1,0,0:0:0:0:
256,192,17400,1,12,0:0:0:0:
256,192,17753,1,0,0:0:0:0:
256,192,18811,1,0,0:0:0:0:
256,192,19164,1,8,0:0:0:0:
256,192,20223,1,0,0:0:0:0:
256,192,20576,1,8,0:0:0:0:
256,192,21635,1,0,0:0:0:0:
256,192,21988,1,4,0:0:0:0:
256,192,22694,1,12,0:0:0:0:
256,192,23400,1,4,0:0:0:0:
256,192,23753,1,8,0:0:0:0:
256,192,24459,1,8,0:0:0:0:
256,192,24811,1,0,0:0:0:0:
256,192,25164,1,0,0:0:0:0:
256,192,25870,1,8,0:0:0:0:
256,192,26223,1,0,0:0:0:0:
256,192,26576,1,8,0:0:0:0:
256,192,27282,1,8,0:0:0:0:
256,192,27635,1,8,0:0:0:0:
256,192,28694,1,8,0:0:0:0:
256,192,29047,1,0,0:0:0:0:
256,192,29400,1,8,0:0:0:0:
256,192,30106,1,8,0:0:0:0:
256,192,30459,1,0,0:0:0:0:
256,192,30811,1,0,0:0:0:0:
256,192,31517,1,8,0:0:0:0:
256,192,31870,1,0,0:0:0:0:
256,192,32223,1,8,0:0:0:0:
256,192,32929,1,8,0:0:0:0:
256,192,33282,1,8,0:0:0:0:
256,192,33988,1,12,0:0:0:0:
256,192,34694,1,4,0:0:0:0:
256,192,35047,1,8,0:0:0:0:
256,192,35753,1,0,0:0:0:0:
256,192,36106,1,0,0:0:0:0:
256,192,36459,1,8,0:0:0:0:
256,192,37164,1,0,0:0:0:0:
256,192,37517,1,0,0:0:0:0:
256,192,37870,1,8,0:0:0:0:
256,192,38576,1,0,0:0:0:0:
256,192,38929,1,8,0:0:0:0:
256,192,39988,1,12,0:0:0:0:
256,192,40341,1,4,0:0:0:0:
256,192,40870,1,0,0:0:0:0:
256,192,41400,1,0,0:0:0:0:
256,192,41753,1,8,0:0:0:0:
256,192,42282,1,0,0:0:0:0:
256,192,42811,1,8,0:0:0:0:
256,192,43164,1,8,0:0:0:0:
256,192,43694,1,8,0:0:0:0:
256,192,44223,1,8,0:0:0:0:
256,192,44576,2,0,L|291:192,12,35
256,192,45988,1,4,0:0:0:0:
256,192,46341,1,8,0:0:0:0:
256,192,46870,1,8,0:0:0:0:
256,192,47400,1,0,0:0:0:0:
256,192,48459,1,8,0:0:0:0:
256,192,48811,1,0,0:0:0:0:
256,192,49164,1,8,0:0:0:0:
256,192,49694,1,8,0:0:0:0:
256,192,50223,1,0,0:0:0:0:
256,192,51282,1,12,0:0:0:0:
256,192,51635,1,4,0:0:0:0:
256,192,52164,1,0,0:0:0:0:
256,192,52694,1,0,0:0:0:0:
256,192,53047,1,8,0:0:0:0:
256,192,53576,1,0,0:0:0:0:
256,192,54106,1,0,0:0:0:0:
256,192,54459,1,0,0:0:0:0:
256,192,54988,1,8,0:0:0:0:
256,192,55517,1,8,0:0:0:0:
256,192,55870,2,0,L|291:192,12,35
256,192,57282,1,12,0:0:0:0:
256,192,58694,1,0,0:0:0:0:
256,192,60106,1,0,0:0:0:0:
256,192,61517,1,0,0:0:0:0:
256,192,62223,1,0,0:0:0:0:
256,192,62929,1,0,0:0:0:0:
256,192,64341,1,0,0:0:0:0:
256,192,65753,1,0,0:0:0:0:
256,192,67164,1,0,0:0:0:0:
256,192,67870,1,0,0:0:0:0:
256,192,68576,1,8,0:0:0:0:
256,192,69282,1,0,0:0:0:0:
256,192,69988,1,0,0:0:0:0:
256,192,70694,1,0,0:0:0:0:
256,192,71400,1,8,0:0:0:0:
256,192,72811,1,0,0:0:0:0:
256,192,74223,1,8,0:0:0:0:
256,192,74929,1,0,0:0:0:0:
256,192,75635,1,0,0:0:0:0:
256,192,76341,1,0,0:0:0:0:
256,192,77047,1,8,0:0:0:0:
256,192,77753,1,0,0:0:0:0:
256,192,78459,1,8,0:0:0:0:
256,192,79517,1,12,0:0:0:0:
256,192,79870,1,4,0:0:0:0:
256,192,80223,1,0,0:0:0:0:
256,192,80576,1,8,0:0:0:0:
256,192,81282,1,0,0:0:0:0:
256,192,81635,1,0,0:0:0:0:
256,192,81988,1,8,0:0:0:0:
256,192,82694,1,0,0:0:0:0:
256,192,83047,1,0,0:0:0:0:
256,192,83400,1,8,0:0:0:0:
256,192,84106,1,8,0:0:0:0:
256,192,84459,1,0,0:0:0:0:
256,192,85164,1,12,0:0:0:0:
256,192,85517,1,0,0:0:0:0:
256,192,86576,1,0,0:0:0:0:
256,192,86929,1,8,0:0:0:0:
256,192,87988,1,0,0:0:0:0:
256,192,88341,1,8,0:0:0:0:
256,192,89400,1,0,0:0:0:0:
256,192,89753,1,4,0:0:0:0:
256,192,90459,1,12,0:0:0:0:
256,192,91164,1,4,0:0:0:0:
256,192,91517,1,8,0:0:0:0:
256,192,92223,1,8,0:0:0:0:
256,192,92576,1,0,0:0:0:0:
256,192,92929,1,8,0:0:0:0:
256,192,93635,1,0,0:0:0:0:
256,192,93988,1,8,0:0:0:0:
256,192,94341,1,0,0:0:0:0:
256,192,95047,1,0,0:0:0:0:
256,192,95400,1,8,0:0:0:0:
256,192,96459,1,8,0:0:0:0:
256,192,96811,1,0,0:0:0:0:
256,192,97164,1,8,0:0:0:0:
256,192,97870,1,0,0:0:0:0:
256,192,98223,1,0,0:0:0:0:
256,192,98576,1,8,0:0:0:0:
256,192,99282,1,8,0:0:0:0:
256,192,99635,1,0,0:0:0:0:
256,192,99988,1,8,0:0:0:0:
256,192,100694,1,0,0:0:0:0:
256,192,101047,1,8,0:0:0:0:
256,192,101753,1,12,0:0:0:0:
256,192,102459,1,4,0:0:0:0:
256,192,102811,1,8,0:0:0:0:
256,192,103517,1,8,0:0:0:0:
256,192,103870,1,0,0:0:0:0:
256,192,104223,1,8,0:0:0:0:
256,192,104929,1,8,0:0:0:0:
256,192,105282,1,0,0:0:0:0:
256,192,105635,1,0,0:0:0:0:
256,192,106341,1,0,0:0:0:0:
256,192,106694,1,8,0:0:0:0:
256,192,107753,1,12,0:0:0:0:
256,192,108106,1,4,0:0:0:0:
256,192,108635,1,0,0:0:0:0:
256,192,109164,1,0,0:0:0:0:
256,192,109517,1,8,0:0:0:0:
256,192,110047,1,0,0:0:0:0:
256,192,110576,1,8,0:0:0:0:
256,192,110929,1,8,0:0:0:0:
256,192,111459,1,8,0:0:0:0:
256,192,111988,1,8,0:0:0:0:
256,192,112341,2,0,L|291:192,12,35
256,192,113753,1,12,0:0:0:0:
256,192,114282,1,0,0:0:0:0:
256,192,114811,1,8,0:0:0:0:
256,192,115164,1,0,0:0:0:0:
256,192,115870,1,12,0:0:0:0:
