osu file format v14

[General]
AudioFilename: audio.mp3
AudioLeadIn: 0
PreviewTime: 22782
Countdown: 0
SampleSet: Normal
StackLeniency: 0.7
Mode: 1
LetterboxInBreaks: 0
WidescreenStoryboard: 1

[Editor]
Bookmarks: 812,12106,23400,33988,34694,45988,57282,68576,79870,91164,101753,102459,113753,115870
DistanceSpacing: 1.4
BeatDivisor: 4
GridSize: 32
TimelineZoom: 1.099999

[Metadata]
Title:Rock It
TitleUnicode:Rock It
Artist:Hommarju
ArtistUnicode:Hommarju
Creator:Realazy
Version:Futsuu
Source:beatmania IIDX 23 copula
Tags:Ayyri Hardcore BEMANI KONAMI
BeatmapID:1488044
BeatmapSetID:703311

[Difficulty]
HPDrainRate:6
CircleSize:2
OverallDifficulty:4
ApproachRate:10
SliderMultiplier:1.4
SliderTickRate:1

[Events]
//Background and Video events
0,0,"Rock It.jpg",0,0
//Break Periods
//Storyboard Layer 0 (Background)
//Storyboard Layer 1 (Fail)
//Storyboard Layer 2 (Pass)
//Storyboard Layer 3 (Foreground)
//Storyboard Sound Samples

[TimingPoints]
812,352.941176470588,4,1,0,75,1,0
23400,-100,4,1,0,75,0,1
33988,-100,4,1,0,75,0,0
34694,-100,4,1,0,75,0,1
45988,-100,4,1,0,75,0,0
91164,-100,4,1,0,75,0,1
101753,-100,4,1,0,75,0,0
102459,-100,4,1,0,75,0,1
113753,-100,4,1,0,75,0,0

[Colours]
Combo1 : 248,220,155
Combo2 : 253,186,123
Combo3 : 254,165,160
Combo4 : 254,188,221
Combo5 : 187,184,252
Combo6 : 142,198,250

[HitObjects]
256,192,812,5,12,0:0:0:0:
256,192,1517,1,0,0:0:0:0:
256,192,2223,1,0,0:0:0:0:
256,192,2929,1,0,0:0:0:0:
256,192,3282,1,0,0:0:0:0:
256,192,3635,1,8,0:0:0:0:
256,192,4341,1,0,0:0:0:0:
256,192,5047,1,0,0:0:0:0:
256,192,5753,1,0,0:0:0:0:
256,192,6106,1,0,0:0:0:0:
256,192,6459,1,8,0:0:0:0:
256,192,7164,1,0,0:0:0:0:
256,192,7870,1,0,0:0:0:0:
256,192,8576,1,0,0:0:0:0:
256,192,8929,1,0,0:0:0:0:
256,192,9282,1,8,0:0:0:0:
256,192,9988,1,0,0:0:0:0:
256,192,10694,1,0,0:0:0:0:
256,192,11047,1,0,0:0:0:0:
256,192,11400,1,0,0:0:0:0:
256,192,12106,1,4,0:0:0:0:
256,192,12459,1,0,0:0:0:0:
256,192,12811,1,8,0:0:0:0:
256,192,13517,1,0,0:0:0:0:
256,192,13870,1,0,0:0:0:0:
256,192,14223,1,0,0:0:0:0:
256,192,14929,1,0,0:0:0:0:
256,192,15282,1,0,0:0:0:0:
256,192,15635,1,8,0:0:0:0:
256,192,16341,1,8,0:0:0:0:
256,192,16694,1,0,0:0:0:0:
256,192,17400,1,12,0:0:0:0:
256,192,17753,1,0,0:0:0:0:
256,192,18106,1,0,0:0:0:0:
256,192,18282,1,0,0:0:0:0:
256,192,18459,1,0,0:0:0:0:
256,192,19164,1,8,0:0:0:0:
256,192,19517,1,0,0:0:0:0:
256,192,19694,1,0,0:0:0:0:
256,192,19870,1,0,0:0:0:0:
256,192,20576,1,8,0:0:0:0:
256,192,20929,1,8,0:0:0:0:
256,192,21106,1,8,0:0:0:0:
256,192,21282,1,8,0:0:0:0:
256,192,21988,1,12,0:0:0:0:
256,192,22517,1,4,0:0:0:0:
256,192,22694,1,12,0:0:0:0:
256,192,23400,1,4,0:0:0:0:
256,192,23576,1,8,0:0:0:0:
256,192,24106,1,8,0:0:0:0:
256,192,24459,1,0,0:0:0:0:
256,192,24811,1,0,0:0:0:0:
256,192,24988,1,8,0:0:0:0:
256,192,25517,1,8,0:0:0:0:
256,192,25870,1,0,0:0:0:0:
256,192,26223,1,0,0:0:0:0:
256,192,26400,1,8,0:0:0:0:
256,192,26929,1,8,0:0:0:0:
256,192,27282,1,0,0:0:0:0:
256,192,27635,1,8,0:0:0:0:
256,192,27988,1,0,0:0:0:0:
256,192,28341,1,8,0:0:0:0:
256,192,28517,1,8,0:0:0:0:
256,192,28694,1,0,0:0:0:0:
256,192,29047,1,0,0:0:0:0:
256,192,29223,1,8,0:0:0:0:
256,192,29753,1,8,0:0:0:0:
256,192,30106,1,8,0:0:0:0:
256,192,30459,1,0,0:0:0:0:
256,192,30635,1,8,0:0:0:0:
256,192,31164,1,8,0:0:0:0:
256,192,31517,1,8,0:0:0:0:
256,192,31870,1,0,0:0:0:0:
256,192,32047,1,8,0:0:0:0:
256,192,32576,1,8,0:0:0:0:
256,192,32929,1,8,0:0:0:0:
256,192,33282,1,8,0:0:0:0:
256,192,33459,1,8,0:0:0:0:
256,192,33988,1,12,0:0:0:0:
256,192,34694,1,4,0:0:0:0:
256,192,34870,1,8,0:0:0:0:
256,192,35400,1,0,0:0:0:0:
256,192,35753,1,8,0:0:0:0:
256,192,36106,1,0,0:0:0:0:
256,192,36282,1,8,0:0:0:0:
256,192,36811,1,0,0:0:0:0:
256,192,37164,1,8,0:0:0:0:
256,192,37517,1,0,0:0:0:0:
256,192,37694,1,8,0:0:0:0:
256,192,38223,1,0,0:0:0:0:
256,192,38576,1,8,0:0:0:0:
256,192,38929,1,8,0:0:0:0:
256,192,39282,1,0,0:0:0:0:
256,192,39635,1,8,0:0:0:0:
256,192,39811,1,8,0:0:0:0:
256,192,39988,1,12,0:0:0:0:
256,192,40341,1,4,0:0:0:0:
256,192,40694,1,0,0:0:0:0:
256,192,40870,1,0,0:0:0:0:
256,192,41047,1,0,0:0:0:0:
256,192,41400,1,8,0:0:0:0:
256,192,41753,1,8,0:0:0:0:
256,192,42106,1,0,0:0:0:0:
256,192,42282,1,0,0:0:0:0:
256,192,42459,1,0,0:0:0:0:
256,192,42811,1,8,0:0:0:0:
256,192,43164,1,8,0:0:0:0:
256,192,43517,1,8,0:0:0:0:
256,192,43694,1,8,0:0:0:0:
256,192,43870,1,8,0:0:0:0:
256,192,44223,1,8,0:0:0:0:
256,192,44576,2,0,L|291:192,12,35
256,192,45988,1,4,0:0:0:0:
256,192,46341,1,8,0:0:0:0:
256,192,46870,1,0,0:0:0:0:
256,192,47223,1,0,0:0:0:0:
256,192,47400,1,8,0:0:0:0:
256,192,47929,1,8,0:0:0:0:
256,192,48459,1,8,0:0:0:0:
256,192,48811,1,0,0:0:0:0:
256,192,49164,1,8,0:0:0:0:
256,192,49694,1,0,0:0:0:0:
256,192,50047,1,0,0:0:0:0:
256,192,50223,1,8,0:0:0:0:
256,192,50753,1,0,0:0:0:0:
256,192,51282,1,12,0:0:0:0:
256,192,51635,1,4,0:0:0:0:
256,192,52164,1,0,0:0:0:0:
256,192,52694,1,8,0:0:0:0:
256,192,52870,1,8,0:0:0:0:
256,192,53047,1,0,0:0:0:0:
256,192,53576,1,0,0:0:0:0:
256,192,54106,1,8,0:0:0:0:
256,192,54282,1,8,0:0:0:0:
256,192,54459,1,0,0:0:0:0:
256,192,54988,1,8,0:0:0:0:
256,192,55517,1,8,0:0:0:0:
256,192,55694,1,8,0:0:0:0:
256,192,55870,1,12,0:0:0:0:
256,192,56047,1,0,0:0:0:0:
256,192,56400,1,8,0:0:0:0:
256,192,56576,1,0,0:0:0:0:
256,192,56753,1,0,0:0:0:0:
256,192,56929,1,0,0:0:0:0:
256,192,57282,1,12,0:0:0:0:
256,192,57988,1,0,0:0:0:0:
256,192,58694,1,0,0:0:0:0:
256,192,59400,1,0,0:0:0:0:
256,192,60106,1,8,0:0:0:0:
256,192,60811,1,0,0:0:0:0:
256,192,61517,1,0,0:0:0:0:
256,192,62223,1,0,0:0:0:0:
256,192,62929,1,8,0:0:0:0:
256,192,63635,1,0,0:0:0:0:
256,192,64341,1,0,0:0:0:0:
256,192,65047,1,0,0:0:0:0:
256,192,65753,1,8,0:0:0:0:
256,192,66459,1,0,0:0:0:0:
256,192,67164,1,0,0:0:0:0:
256,192,67870,1,0,0:0:0:0:
256,192,68576,1,8,0:0:0:0:
256,192,68929,1,0,0:0:0:0:
256,192,69282,1,0,0:0:0:0:
256,192,69988,1,0,0:0:0:0:
256,192,70341,1,0,0:0:0:0:
256,192,70694,1,0,0:0:0:0:
256,192,71400,1,8,0:0:0:0:
256,192,71753,1,0,0:0:0:0:
256,192,72106,1,0,0:0:0:0:
256,192,72811,1,0,0:0:0:0:
256,192,73164,1,0,0:0:0:0:
256,192,73517,1,0,0:0:0:0:
256,192,74223,1,8,0:0:0:0:
256,192,74576,1,0,0:0:0:0:
256,192,74929,1,0,0:0:0:0:
256,192,75635,1,0,0:0:0:0:
256,192,75988,1,0,0:0:0:0:
256,192,76341,1,0,0:0:0:0:
256,192,77047,1,8,0:0:0:0:
256,192,77400,1,0,0:0:0:0:
256,192,77753,1,0,0:0:0:0:
256,192,78459,1,8,0:0:0:0:
256,192,78811,1,8,0:0:0:0:
256,192,79164,1,8,0:0:0:0:
256,192,79341,1,0,0:0:0:0:
256,192,79517,1,12,0:0:0:0:
256,192,79870,1,12,0:0:0:0:
256,192,80047,1,0,0:0:0:0:
256,192,80223,1,8,0:0:0:0:
256,192,80576,1,8,0:0:0:0:
256,192,81282,1,8,0:0:0:0:
256,192,81459,1,0,0:0:0:0:
256,192,81635,1,8,0:0:0:0:
256,192,81988,1,8,0:0:0:0:
256,192,82694,1,8,0:0:0:0:
256,192,82870,1,0,0:0:0:0:
256,192,83047,1,8,0:0:0:0:
256,192,83400,1,8,0:0:0:0:
256,192,84106,1,8,0:0:0:0:
256,192,84459,1,8,0:0:0:0:
256,192,84635,1,0,0:0:0:0:
256,192,84811,1,8,0:0:0:0:
256,192,85164,1,12,0:0:0:0:
256,192,85517,1,0,0:0:0:0:
256,192,85870,1,0,0:0:0:0:
256,192,86047,1,0,0:0:0:0:
256,192,86223,1,0,0:0:0:0:
256,192,86576,1,0,0:0:0:0:
256,192,86929,1,8,0:0:0:0:
256,192,87282,1,0,0:0:0:0:
256,192,87459,1,0,0:0:0:0:
256,192,87635,1,0,0:0:0:0:
256,192,87988,1,0,0:0:0:0:
256,192,88341,1,8,0:0:0:0:
256,192,88694,1,8,0:0:0:0:
256,192,88870,1,8,0:0:0:0:
256,192,89047,1,8,0:0:0:0:
256,192,89400,1,0,0:0:0:0:
256,192,89753,1,12,0:0:0:0:
256,192,90282,1,4,0:0:0:0:
256,192,90459,1,12,0:0:0:0:
256,192,91164,1,4,0:0:0:0:
256,192,91341,1,8,0:0:0:0:
256,192,91870,1,0,0:0:0:0:
256,192,92223,1,8,0:0:0:0:
256,192,92400,1,0,0:0:0:0:
256,192,92576,1,0,0:0:0:0:
256,192,92753,1,8,0:0:0:0:
256,192,93282,1,0,0:0:0:0:
256,192,93635,1,8,0:0:0:0:
256,192,93811,1,0,0:0:0:0:
256,192,93988,1,0,0:0:0:0:
256,192,94164,1,8,0:0:0:0:
256,192,94694,1,0,0:0:0:0:
256,192,95047,1,8,0:0:0:0:
256,192,95223,1,0,0:0:0:0:
256,192,95400,1,8,0:0:0:0:
256,192,95576,1,8,0:0:0:0:
256,192,96106,1,8,0:0:0:0:
256,192,96459,1,8,0:0:0:0:
256,192,96811,1,0,0:0:0:0:
256,192,96988,1,8,0:0:0:0:
256,192,97517,1,0,0:0:0:0:
256,192,97870,1,0,0:0:0:0:
256,192,98047,1,8,0:0:0:0:
256,192,98223,1,0,0:0:0:0:
256,192,98400,1,8,0:0:0:0:
256,192,98929,1,0,0:0:0:0:
256,192,99282,1,0,0:0:0:0:
256,192,99459,1,8,0:0:0:0:
256,192,99635,1,0,0:0:0:0:
256,192,99811,1,8,0:0:0:0:
256,192,100341,1,0,0:0:0:0:
256,192,100694,1,0,0:0:0:0:
256,192,100870,1,8,0:0:0:0:
256,192,101047,1,0,0:0:0:0:
256,192,101223,1,8,0:0:0:0:
256,192,101753,1,12,0:0:0:0:
256,192,102459,1,4,0:0:0:0:
256,192,102635,1,8,0:0:0:0:
256,192,103164,1,0,0:0:0:0:
256,192,103517,1,8,0:0:0:0:
256,192,103694,1,8,0:0:0:0:
256,192,103870,1,0,0:0:0:0:
256,192,104047,1,8,0:0:0:0:
256,192,104576,1,0,0:0:0:0:
256,192,104929,1,8,0:0:0:0:
256,192,105106,1,8,0:0:0:0:
256,192,105282,1,0,0:0:0:0:
256,192,105459,1,8,0:0:0:0:
256,192,105988,1,0,0:0:0:0:
256,192,106341,1,8,0:0:0:0:
256,192,106517,1,0,0:0:0:0:
256,192,106694,1,8,0:0:0:0:
256,192,106870,1,8,0:0:0:0:
256,192,107400,1,8,0:0:0:0:
256,192,107753,1,12,0:0:0:0:
256,192,108106,1,4,0:0:0:0:
256,192,108459,1,0,0:0:0:0:
256,192,108635,1,0,0:0:0:0:
256,192,108811,1,0,0:0:0:0:
256,192,109164,1,0,0:0:0:0:
256,192,109517,1,8,0:0:0:0:
256,192,109870,1,0,0:0:0:0:
256,192,110047,1,0,0:0:0:0:
256,192,110223,1,8,0:0:0:0:
256,192,110576,1,0,0:0:0:0:
256,192,110929,1,8,0:0:0:0:
256,192,111282,1,8,0:0:0:0:
256,192,111459,1,8,0:0:0:0:
256,192,111635,1,8,0:0:0:0:
256,192,111988,1,8,0:0:0:0:
256,192,112341,2,0,L|291:192,12,35
256,192,113753,1,12,0:0:0:0:
256,192,113929,1,0,0:0:0:0:
256,192,114282,1,0,0:0:0:0:
256,192,114459,1,8,0:0:0:0:
256,192,114811,1,8,0:0:0:0:
256,192,114988,1,8,0:0:0:0:
256,192,115164,1,0,0:0:0:0:
256,192,115341,1,8,0:0:0:0:
256,192,115694,1,0,0:0:0:0:
256,192,115870,1,12,0:0:0:0:
