osu file format v14

[General]
AudioFilename: audio.mp3
AudioLeadIn: 0
PreviewTime: 22782
Countdown: 0
SampleSet: Normal
StackLeniency: 0.7
Mode: 1
LetterboxInBreaks: 0
WidescreenStoryboard: 0

[Editor]
Bookmarks: 812,23400,57282,91164,113753,115870
DistanceSpacing: 1.4
BeatDivisor: 4
GridSize: 32
TimelineZoom: 2.699999

[Metadata]
Title:Rock It
TitleUnicode:Rock It
Artist:Hommarju
ArtistUnicode:Hommarju
Creator:Realazy
Version:AyyLazy's Inner Oni
Source:beatmania IIDX 23 copula
Tags:Ayyri Hardcore BEMANI KONAMI
BeatmapID:1488041
BeatmapSetID:703311

[Difficulty]
HPDrainRate:6
CircleSize:2
OverallDifficulty:6
ApproachRate:10
SliderMultiplier:1.4
SliderTickRate:1

[Events]
//Background and Video events
0,0,"Rock It.jpg",0,0
//Break Periods
//Storyboard Layer 0 (Background)
//Storyboard Layer 1 (Fail)
//Storyboard Layer 2 (Pass)
//Storyboard Layer 3 (Foreground)
//Storyboard Sound Samples

[TimingPoints]
812,352.941176470588,4,1,0,75,1,0
23400,-100,4,1,0,75,0,1
33988,-100,4,1,0,75,0,0
34694,-100,4,1,0,75,0,1
45988,-100,4,1,0,75,0,0
91164,-100,4,1,0,75,0,1
101753,-100,4,1,0,75,0,0
102459,-100,4,1,0,75,0,1
113753,-100,4,1,0,75,0,0

[HitObjects]
256,192,812,5,12,0:0:0:0:
256,192,1164,1,0,0:0:0:0:
256,192,1341,1,0,0:0:0:0:
256,192,1517,1,0,0:0:0:0:
256,192,1870,1,0,0:0:0:0:
256,192,2047,1,0,0:0:0:0:
256,192,2223,1,0,0:0:0:0:
256,192,2576,1,0,0:0:0:0:
256,192,2929,1,0,0:0:0:0:
256,192,3282,1,0,0:0:0:0:
256,192,3459,1,0,0:0:0:0:
256,192,3635,1,8,0:0:0:0:
256,192,3988,1,0,0:0:0:0:
256,192,4164,1,0,0:0:0:0:
256,192,4341,1,0,0:0:0:0:
256,192,4694,1,0,0:0:0:0:
256,192,4870,1,0,0:0:0:0:
256,192,5047,1,0,0:0:0:0:
256,192,5400,1,0,0:0:0:0:
256,192,5576,1,0,0:0:0:0:
256,192,5753,1,0,0:0:0:0:
256,192,6106,1,0,0:0:0:0:
256,192,6282,1,0,0:0:0:0:
256,192,6459,1,8,0:0:0:0:
256,192,6811,1,0,0:0:0:0:
256,192,6988,1,0,0:0:0:0:
256,192,7164,1,0,0:0:0:0:
256,192,7517,1,0,0:0:0:0:
256,192,7694,1,0,0:0:0:0:
256,192,7870,1,0,0:0:0:0:
256,192,8223,1,0,0:0:0:0:
256,192,8400,1,0,0:0:0:0:
256,192,8576,1,0,0:0:0:0:
256,192,8929,1,0,0:0:0:0:
256,192,9106,1,0,0:0:0:0:
256,192,9282,1,8,0:0:0:0:
256,192,9635,1,0,0:0:0:0:
256,192,9811,1,0,0:0:0:0:
256,192,9988,1,0,0:0:0:0:
256,192,10341,1,0,0:0:0:0:
256,192,10517,1,0,0:0:0:0:
256,192,10694,1,0,0:0:0:0:
256,192,11047,1,0,0:0:0:0:
256,192,11223,1,0,0:0:0:0:
256,192,11400,1,0,0:0:0:0:
256,192,11753,1,0,0:0:0:0:
256,192,11929,1,0,0:0:0:0:
256,192,12106,1,12,0:0:0:0:
256,192,12459,1,8,0:0:0:0:
256,192,12811,1,8,0:0:0:0:
256,192,13164,1,8,0:0:0:0:
256,192,13341,1,0,0:0:0:0:
256,192,13517,1,8,0:0:0:0:
256,192,13870,1,8,0:0:0:0:
256,192,14223,1,8,0:0:0:0:
256,192,14576,1,8,0:0:0:0:
256,192,14753,1,0,0:0:0:0:
256,192,14929,1,8,0:0:0:0:
256,192,15282,1,8,0:0:0:0:
256,192,15635,1,8,0:0:0:0:
256,192,15988,1,8,0:0:0:0:
256,192,16164,1,0,0:0:0:0:
256,192,16341,1,8,0:0:0:0:
256,192,16694,1,8,0:0:0:0:
256,192,17047,1,8,0:0:0:0:
256,192,17223,1,0,0:0:0:0:
256,192,17311,1,0,0:0:0:0:
256,192,17400,1,12,0:0:0:0:
256,192,17753,1,8,0:0:0:0:
256,192,17929,1,0,0:0:0:0:
256,192,18017,1,8,0:0:0:0:
256,192,18194,1,8,0:0:0:0:
256,192,18282,1,8,0:0:0:0:
256,192,18459,1,0,0:0:0:0:
256,192,18547,1,8,0:0:0:0:
256,192,18723,1,8,0:0:0:0:
256,192,18811,1,8,0:0:0:0:
256,192,18900,1,0,0:0:0:0:
256,192,18988,1,8,0:0:0:0:
256,192,19076,1,0,0:0:0:0:
256,192,19164,1,8,0:0:0:0:
256,192,19341,1,0,0:0:0:0:
256,192,19429,1,8,0:0:0:0:
256,192,19606,1,8,0:0:0:0:
256,192,19694,1,8,0:0:0:0:
256,192,19870,1,8,0:0:0:0:
256,192,19959,1,0,0:0:0:0:
256,192,20135,1,8,0:0:0:0:
256,192,20223,1,0,0:0:0:0:
256,192,20282,1,0,0:0:0:0:
256,192,20341,1,0,0:0:0:0:
256,192,20400,1,8,0:0:0:0:
256,192,20488,1,0,0:0:0:0:
256,192,20576,1,8,0:0:0:0:
256,192,20753,1,0,0:0:0:0:
256,192,20841,1,8,0:0:0:0:
256,192,21017,1,8,0:0:0:0:
256,192,21106,1,8,0:0:0:0:
256,192,21282,1,8,0:0:0:0:
256,192,21370,1,0,0:0:0:0:
256,192,21547,1,8,0:0:0:0:
256,192,21635,1,0,0:0:0:0:
256,192,21723,1,0,0:0:0:0:
256,192,21811,1,8,0:0:0:0:
256,192,21900,1,0,0:0:0:0:
256,192,21988,1,12,0:0:0:0:
256,192,22253,1,12,0:0:0:0:
256,192,22517,1,12,0:0:0:0:
256,192,22694,1,4,0:0:0:0:
256,192,23400,1,12,0:0:0:0:
256,192,23576,1,8,0:0:0:0:
256,192,23664,1,0,0:0:0:0:
256,192,23753,1,0,0:0:0:0:
256,192,23929,1,0,0:0:0:0:
256,192,24017,1,0,0:0:0:0:
256,192,24106,1,8,0:0:0:0:
256,192,24282,1,0,0:0:0:0:
256,192,24370,1,0,0:0:0:0:
256,192,24459,1,8,0:0:0:0:
256,192,24547,1,0,0:0:0:0:
256,192,24635,1,8,0:0:0:0:
256,192,24723,1,8,0:0:0:0:
256,192,24811,1,0,0:0:0:0:
256,192,24988,1,8,0:0:0:0:
256,192,25076,1,8,0:0:0:0:
256,192,25164,1,0,0:0:0:0:
256,192,25341,1,0,0:0:0:0:
256,192,25429,1,0,0:0:0:0:
256,192,25517,1,8,0:0:0:0:
256,192,25694,1,0,0:0:0:0:
256,192,25870,1,8,0:0:0:0:
256,192,25959,1,8,0:0:0:0:
256,192,26047,1,0,0:0:0:0:
256,192,26135,1,0,0:0:0:0:
256,192,26223,1,0,0:0:0:0:
256,192,26400,1,8,0:0:0:0:
256,192,26488,1,0,0:0:0:0:
256,192,26576,1,0,0:0:0:0:
256,192,26753,1,0,0:0:0:0:
256,192,26841,1,0,0:0:0:0:
256,192,26929,1,8,0:0:0:0:
256,192,27106,1,0,0:0:0:0:
256,192,27194,1,0,0:0:0:0:
256,192,27282,1,8,0:0:0:0:
256,192,27370,1,8,0:0:0:0:
256,192,27459,1,0,0:0:0:0:
256,192,27547,1,0,0:0:0:0:
256,192,27635,1,8,0:0:0:0:
256,192,27811,1,8,0:0:0:0:
256,192,27900,1,8,0:0:0:0:
256,192,27988,1,0,0:0:0:0:
256,192,28164,1,8,0:0:0:0:
256,192,28253,1,0,0:0:0:0:
256,192,28341,1,8,0:0:0:0:
256,192,28517,1,8,0:0:0:0:
256,192,28694,1,8,0:0:0:0:
256,192,28782,1,8,0:0:0:0:
256,192,28870,1,0,0:0:0:0:
256,192,28959,1,8,0:0:0:0:
256,192,29047,1,0,0:0:0:0:
256,192,29223,1,8,0:0:0:0:
256,192,29311,1,0,0:0:0:0:
256,192,29400,1,0,0:0:0:0:
256,192,29576,1,0,0:0:0:0:
256,192,29664,1,0,0:0:0:0:
256,192,29753,1,8,0:0:0:0:
256,192,29929,1,0,0:0:0:0:
256,192,30106,1,8,0:0:0:0:
256,192,30194,1,8,0:0:0:0:
256,192,30282,1,0,0:0:0:0:
256,192,30370,1,8,0:0:0:0:
256,192,30459,1,0,0:0:0:0:
256,192,30635,1,8,0:0:0:0:
256,192,30723,1,0,0:0:0:0:
256,192,30811,1,0,0:0:0:0:
256,192,30988,1,0,0:0:0:0:
256,192,31076,1,0,0:0:0:0:
256,192,31164,1,8,0:0:0:0:
256,192,31341,1,0,0:0:0:0:
256,192,31429,1,0,0:0:0:0:
256,192,31517,1,8,0:0:0:0:
256,192,31606,1,0,0:0:0:0:
256,192,31694,1,8,0:0:0:0:
256,192,31782,1,8,0:0:0:0:
256,192,31870,1,0,0:0:0:0:
256,192,32047,1,8,0:0:0:0:
256,192,32135,1,0,0:0:0:0:
256,192,32223,1,0,0:0:0:0:
256,192,32400,1,0,0:0:0:0:
256,192,32488,1,0,0:0:0:0:
256,192,32576,1,8,0:0:0:0:
256,192,32753,1,0,0:0:0:0:
256,192,32841,1,0,0:0:0:0:
256,192,32929,1,8,0:0:0:0:
256,192,33017,1,8,0:0:0:0:
256,192,33106,1,0,0:0:0:0:
256,192,33194,1,0,0:0:0:0:
256,192,33282,1,8,0:0:0:0:
256,192,33459,1,8,0:0:0:0:
256,192,33547,1,0,0:0:0:0:
256,192,33635,1,8,0:0:0:0:
256,192,33811,1,0,0:0:0:0:
256,192,33988,1,12,0:0:0:0:
256,192,34164,1,0,0:0:0:0:
256,192,34253,1,0,0:0:0:0:
256,192,34341,1,8,0:0:0:0:
256,192,34429,1,8,0:0:0:0:
256,192,34517,1,0,0:0:0:0:
256,192,34606,1,0,0:0:0:0:
256,192,34694,1,12,0:0:0:0:
256,192,34870,1,0,0:0:0:0:
256,192,34959,1,0,0:0:0:0:
256,192,35047,1,8,0:0:0:0:
256,192,35223,1,8,0:0:0:0:
256,192,35311,1,0,0:0:0:0:
256,192,35400,1,8,0:0:0:0:
256,192,35576,1,0,0:0:0:0:
256,192,35664,1,0,0:0:0:0:
256,192,35753,1,8,0:0:0:0:
256,192,35841,1,0,0:0:0:0:
256,192,35929,1,8,0:0:0:0:
256,192,36017,1,8,0:0:0:0:
256,192,36106,1,0,0:0:0:0:
256,192,36282,1,8,0:0:0:0:
256,192,36370,1,8,0:0:0:0:
256,192,36459,1,0,0:0:0:0:
256,192,36635,1,0,0:0:0:0:
256,192,36723,1,0,0:0:0:0:
256,192,36811,1,8,0:0:0:0:
256,192,36988,1,0,0:0:0:0:
256,192,37076,1,0,0:0:0:0:
256,192,37164,1,8,0:0:0:0:
256,192,37253,1,0,0:0:0:0:
256,192,37341,1,8,0:0:0:0:
256,192,37429,1,8,0:0:0:0:
256,192,37517,1,0,0:0:0:0:
256,192,37694,1,8,0:0:0:0:
256,192,37782,1,0,0:0:0:0:
256,192,37870,1,0,0:0:0:0:
256,192,38047,1,8,0:0:0:0:
256,192,38135,1,0,0:0:0:0:
256,192,38223,1,8,0:0:0:0:
256,192,38400,1,0,0:0:0:0:
256,192,38488,1,0,0:0:0:0:
256,192,38576,1,8,0:0:0:0:
256,192,38664,1,8,0:0:0:0:
256,192,38753,1,0,0:0:0:0:
256,192,38841,1,0,0:0:0:0:
256,192,38929,1,8,0:0:0:0:
256,192,39106,1,8,0:0:0:0:
256,192,39194,1,8,0:0:0:0:
256,192,39282,1,0,0:0:0:0:
256,192,39459,1,8,0:0:0:0:
256,192,39547,1,0,0:0:0:0:
256,192,39635,1,8,0:0:0:0:
256,192,39811,1,0,0:0:0:0:
256,192,39900,1,0,0:0:0:0:
256,192,39988,1,12,0:0:0:0:
256,192,40341,1,12,0:0:0:0:
256,192,40517,1,8,0:0:0:0:
256,192,40606,1,0,0:0:0:0:
256,192,40782,1,0,0:0:0:0:
256,192,40870,1,0,0:0:0:0:
256,192,41047,1,8,0:0:0:0:
256,192,41135,1,0,0:0:0:0:
256,192,41311,1,0,0:0:0:0:
256,192,41400,1,8,0:0:0:0:
256,192,41488,1,8,0:0:0:0:
256,192,41576,1,0,0:0:0:0:
256,192,41753,1,8,0:0:0:0:
256,192,41929,1,8,0:0:0:0:
256,192,42017,1,0,0:0:0:0:
256,192,42194,1,0,0:0:0:0:
256,192,42282,1,8,0:0:0:0:
256,192,42459,1,0,0:0:0:0:
256,192,42547,1,8,0:0:0:0:
256,192,42723,1,0,0:0:0:0:
256,192,42811,1,8,0:0:0:0:
256,192,42870,1,0,0:0:0:0:
256,192,42929,1,0,0:0:0:0:
256,192,42988,1,8,0:0:0:0:
256,192,43076,1,0,0:0:0:0:
256,192,43164,1,8,0:0:0:0:
256,192,43341,1,8,0:0:0:0:
256,192,43429,1,8,0:0:0:0:
256,192,43606,1,0,0:0:0:0:
256,192,43694,1,8,0:0:0:0:
256,192,43870,1,8,0:0:0:0:
256,192,43959,1,8,0:0:0:0:
256,192,44135,1,0,0:0:0:0:
256,192,44223,1,8,0:0:0:0:
256,192,44311,1,8,0:0:0:0:
256,192,44400,1,0,0:0:0:0:
256,192,44576,1,8,0:0:0:0:
256,192,44664,1,8,0:0:0:0:
256,192,44753,1,0,0:0:0:0:
256,192,44841,1,0,0:0:0:0:
256,192,44929,1,0,0:0:0:0:
256,192,45017,1,0,0:0:0:0:
256,192,45106,1,8,0:0:0:0:
256,192,45194,1,0,0:0:0:0:
256,192,45282,1,8,0:0:0:0:
256,192,45341,1,8,0:0:0:0:
256,192,45400,1,8,0:0:0:0:
256,192,45459,1,8,0:0:0:0:
256,192,45517,1,8,0:0:0:0:
256,192,45576,1,8,0:0:0:0:
256,192,45635,1,0,0:0:0:0:
256,192,45811,1,8,0:0:0:0:
256,192,45988,1,4,0:0:0:0:
256,192,46164,1,0,0:0:0:0:
256,192,46341,1,8,0:0:0:0:
256,192,46517,1,0,0:0:0:0:
256,192,46694,1,0,0:0:0:0:
256,192,46782,1,0,0:0:0:0:
256,192,46870,1,8,0:0:0:0:
256,192,47047,1,0,0:0:0:0:
256,192,47223,1,8,0:0:0:0:
256,192,47311,1,0,0:0:0:0:
256,192,47400,1,8,0:0:0:0:
256,192,47576,1,0,0:0:0:0:
256,192,47753,1,0,0:0:0:0:
256,192,47929,1,8,0:0:0:0:
256,192,48106,1,0,0:0:0:0:
256,192,48282,1,0,0:0:0:0:
256,192,48370,1,0,0:0:0:0:
256,192,48459,1,8,0:0:0:0:
256,192,48547,1,0,0:0:0:0:
256,192,48635,1,8,0:0:0:0:
256,192,48723,1,8,0:0:0:0:
256,192,48811,1,0,0:0:0:0:
256,192,48988,1,0,0:0:0:0:
256,192,49164,1,8,0:0:0:0:
256,192,49341,1,0,0:0:0:0:
256,192,49517,1,0,0:0:0:0:
256,192,49694,1,8,0:0:0:0:
256,192,49782,1,0,0:0:0:0:
256,192,49870,1,0,0:0:0:0:
256,192,49959,1,8,0:0:0:0:
256,192,50047,1,8,0:0:0:0:
256,192,50135,1,0,0:0:0:0:
256,192,50223,1,8,0:0:0:0:
256,192,50400,1,0,0:0:0:0:
256,192,50576,1,0,0:0:0:0:
256,192,50753,1,8,0:0:0:0:
256,192,50929,1,0,0:0:0:0:
256,192,51106,1,0,0:0:0:0:
256,192,51194,1,0,0:0:0:0:
256,192,51282,1,12,0:0:0:0:
256,192,51635,1,12,0:0:0:0:
256,192,51811,1,8,0:0:0:0:
256,192,51900,1,0,0:0:0:0:
256,192,52076,1,0,0:0:0:0:
256,192,52164,1,0,0:0:0:0:
256,192,52341,1,0,0:0:0:0:
256,192,52429,1,0,0:0:0:0:
256,192,52606,1,8,0:0:0:0:
256,192,52694,1,0,0:0:0:0:
256,192,52782,1,0,0:0:0:0:
256,192,52870,1,0,0:0:0:0:
256,192,52959,1,0,0:0:0:0:
256,192,53047,1,8,0:0:0:0:
256,192,53223,1,0,0:0:0:0:
256,192,53311,1,0,0:0:0:0:
256,192,53488,1,8,0:0:0:0:
256,192,53576,1,0,0:0:0:0:
256,192,53753,1,0,0:0:0:0:
256,192,53841,1,0,0:0:0:0:
256,192,54017,1,0,0:0:0:0:
256,192,54106,1,8,0:0:0:0:
256,192,54164,1,8,0:0:0:0:
256,192,54223,1,8,0:0:0:0:
256,192,54282,1,0,0:0:0:0:
256,192,54370,1,0,0:0:0:0:
256,192,54459,1,8,0:0:0:0:
256,192,54635,1,0,0:0:0:0:
256,192,54723,1,8,0:0:0:0:
256,192,54900,1,0,0:0:0:0:
256,192,54988,1,8,0:0:0:0:
256,192,55164,1,0,0:0:0:0:
256,192,55253,1,8,0:0:0:0:
256,192,55429,1,0,0:0:0:0:
256,192,55517,1,8,0:0:0:0:
256,192,55606,1,8,0:0:0:0:
256,192,55694,1,8,0:0:0:0:
256,192,55870,1,8,0:0:0:0:
256,192,55959,1,0,0:0:0:0:
256,192,56047,1,8,0:0:0:0:
256,192,56135,1,8,0:0:0:0:
256,192,56223,1,0,0:0:0:0:
256,192,56311,1,0,0:0:0:0:
256,192,56400,1,8,0:0:0:0:
256,192,56488,1,0,0:0:0:0:
256,192,56576,1,8,0:0:0:0:
256,192,56664,1,0,0:0:0:0:
256,192,56753,1,8,0:0:0:0:
256,192,56841,1,0,0:0:0:0:
256,192,56929,1,8,0:0:0:0:
256,192,57106,1,0,0:0:0:0:
256,192,57282,1,12,0:0:0:0:
256,192,57635,1,0,0:0:0:0:
256,192,57988,1,8,0:0:0:0:
256,192,58341,1,8,0:0:0:0:
256,192,58694,1,0,0:0:0:0:
256,192,59047,1,0,0:0:0:0:
256,192,59400,1,8,0:0:0:0:
256,192,59753,1,8,0:0:0:0:
256,192,60106,1,0,0:0:0:0:
256,192,60459,1,0,0:0:0:0:
256,192,60811,1,8,0:0:0:0:
256,192,61164,1,8,0:0:0:0:
256,192,61517,1,0,0:0:0:0:
256,192,61870,1,0,0:0:0:0:
256,192,62223,1,8,0:0:0:0:
256,192,62576,1,8,0:0:0:0:
256,192,62753,1,8,0:0:0:0:
256,192,62929,1,0,0:0:0:0:
256,192,63282,1,0,0:0:0:0:
256,192,63635,1,8,0:0:0:0:
256,192,63988,1,8,0:0:0:0:
256,192,64341,1,0,0:0:0:0:
256,192,64694,1,0,0:0:0:0:
256,192,65047,1,8,0:0:0:0:
256,192,65400,1,8,0:0:0:0:
256,192,65753,1,0,0:0:0:0:
256,192,66106,1,0,0:0:0:0:
256,192,66459,1,8,0:0:0:0:
256,192,66811,1,8,0:0:0:0:
256,192,67164,1,0,0:0:0:0:
256,192,67517,1,0,0:0:0:0:
256,192,67870,1,8,0:0:0:0:
256,192,68223,1,8,0:0:0:0:
256,192,68400,1,0,0:0:0:0:
256,192,68576,1,8,0:0:0:0:
256,192,68929,1,0,0:0:0:0:
256,192,69106,1,0,0:0:0:0:
256,192,69282,1,8,0:0:0:0:
256,192,69635,1,8,0:0:0:0:
256,192,69988,1,0,0:0:0:0:
256,192,70341,1,0,0:0:0:0:
256,192,70517,1,0,0:0:0:0:
256,192,70694,1,8,0:0:0:0:
256,192,71047,1,8,0:0:0:0:
256,192,71223,1,0,0:0:0:0:
256,192,71400,1,8,0:0:0:0:
256,192,71753,1,0,0:0:0:0:
256,192,71929,1,0,0:0:0:0:
256,192,72106,1,8,0:0:0:0:
256,192,72459,1,8,0:0:0:0:
256,192,72811,1,0,0:0:0:0:
256,192,73164,1,0,0:0:0:0:
256,192,73341,1,0,0:0:0:0:
256,192,73517,1,8,0:0:0:0:
256,192,73870,1,8,0:0:0:0:
256,192,74047,1,0,0:0:0:0:
256,192,74223,1,8,0:0:0:0:
256,192,74576,1,0,0:0:0:0:
256,192,74753,1,0,0:0:0:0:
256,192,74929,1,8,0:0:0:0:
256,192,75282,1,8,0:0:0:0:
256,192,75635,1,0,0:0:0:0:
256,192,75988,1,0,0:0:0:0:
256,192,76164,1,0,0:0:0:0:
256,192,76341,1,8,0:0:0:0:
256,192,76694,1,8,0:0:0:0:
256,192,76870,1,0,0:0:0:0:
256,192,77047,1,8,0:0:0:0:
256,192,77400,1,0,0:0:0:0:
256,192,77576,1,0,0:0:0:0:
256,192,77753,1,8,0:0:0:0:
256,192,78106,1,0,0:0:0:0:
256,192,78459,1,8,0:0:0:0:
256,192,78811,1,8,0:0:0:0:
256,192,79164,1,8,0:0:0:0:
256,192,79341,1,0,0:0:0:0:
256,192,79429,1,0,0:0:0:0:
256,192,79517,1,12,0:0:0:0:
256,192,79870,1,4,0:0:0:0:
256,192,80223,1,8,0:0:0:0:
256,192,80576,1,8,0:0:0:0:
256,192,80929,1,8,0:0:0:0:
256,192,81106,1,0,0:0:0:0:
256,192,81282,1,8,0:0:0:0:
256,192,81635,1,8,0:0:0:0:
256,192,81988,1,8,0:0:0:0:
256,192,82341,1,8,0:0:0:0:
256,192,82517,1,0,0:0:0:0:
256,192,82694,1,8,0:0:0:0:
256,192,83047,1,8,0:0:0:0:
256,192,83400,1,8,0:0:0:0:
256,192,83753,1,8,0:0:0:0:
256,192,83929,1,0,0:0:0:0:
256,192,84106,1,8,0:0:0:0:
256,192,84459,1,8,0:0:0:0:
256,192,84811,1,8,0:0:0:0:
256,192,84988,1,0,0:0:0:0:
256,192,85076,1,0,0:0:0:0:
256,192,85164,1,12,0:0:0:0:
256,192,85517,1,8,0:0:0:0:
256,192,85694,1,0,0:0:0:0:
256,192,85782,1,8,0:0:0:0:
256,192,85959,1,8,0:0:0:0:
256,192,86047,1,8,0:0:0:0:
256,192,86223,1,0,0:0:0:0:
256,192,86311,1,8,0:0:0:0:
256,192,86488,1,8,0:0:0:0:
256,192,86576,1,8,0:0:0:0:
256,192,86664,1,0,0:0:0:0:
256,192,86753,1,8,0:0:0:0:
256,192,86841,1,0,0:0:0:0:
256,192,86929,1,8,0:0:0:0:
256,192,87106,1,0,0:0:0:0:
256,192,87194,1,8,0:0:0:0:
256,192,87370,1,8,0:0:0:0:
256,192,87459,1,8,0:0:0:0:
256,192,87635,1,8,0:0:0:0:
256,192,87723,1,0,0:0:0:0:
256,192,87900,1,8,0:0:0:0:
256,192,87988,1,0,0:0:0:0:
256,192,88047,1,0,0:0:0:0:
256,192,88106,1,0,0:0:0:0:
256,192,88164,1,8,0:0:0:0:
256,192,88253,1,0,0:0:0:0:
256,192,88341,1,8,0:0:0:0:
256,192,88517,1,0,0:0:0:0:
256,192,88606,1,8,0:0:0:0:
256,192,88782,1,8,0:0:0:0:
256,192,88870,1,8,0:0:0:0:
256,192,89047,1,8,0:0:0:0:
256,192,89135,1,0,0:0:0:0:
256,192,89311,1,8,0:0:0:0:
256,192,89400,1,0,0:0:0:0:
256,192,89488,1,0,0:0:0:0:
256,192,89576,1,8,0:0:0:0:
256,192,89664,1,0,0:0:0:0:
256,192,89753,1,12,0:0:0:0:
256,192,90017,1,12,0:0:0:0:
256,192,90282,1,12,0:0:0:0:
256,192,90459,1,4,0:0:0:0:
256,192,91164,1,12,0:0:0:0:
256,192,91341,1,8,0:0:0:0:
256,192,91429,1,0,0:0:0:0:
256,192,91517,1,0,0:0:0:0:
256,192,91694,1,0,0:0:0:0:
256,192,91782,1,0,0:0:0:0:
256,192,91870,1,8,0:0:0:0:
256,192,92047,1,0,0:0:0:0:
256,192,92135,1,0,0:0:0:0:
256,192,92223,1,8,0:0:0:0:
256,192,92311,1,0,0:0:0:0:
256,192,92400,1,8,0:0:0:0:
256,192,92488,1,8,0:0:0:0:
256,192,92576,1,0,0:0:0:0:
256,192,92753,1,8,0:0:0:0:
256,192,92841,1,8,0:0:0:0:
256,192,92929,1,0,0:0:0:0:
256,192,93106,1,0,0:0:0:0:
256,192,93194,1,0,0:0:0:0:
256,192,93282,1,8,0:0:0:0:
256,192,93459,1,0,0:0:0:0:
256,192,93547,1,0,0:0:0:0:
256,192,93635,1,8,0:0:0:0:
256,192,93723,1,8,0:0:0:0:
256,192,93811,1,0,0:0:0:0:
256,192,93900,1,8,0:0:0:0:
256,192,93988,1,0,0:0:0:0:
256,192,94164,1,8,0:0:0:0:
256,192,94253,1,0,0:0:0:0:
256,192,94341,1,0,0:0:0:0:
256,192,94517,1,0,0:0:0:0:
256,192,94606,1,0,0:0:0:0:
256,192,94694,1,8,0:0:0:0:
256,192,94870,1,0,0:0:0:0:
256,192,94959,1,0,0:0:0:0:
256,192,95047,1,8,0:0:0:0:
256,192,95135,1,8,0:0:0:0:
256,192,95223,1,0,0:0:0:0:
256,192,95311,1,0,0:0:0:0:
256,192,95400,1,8,0:0:0:0:
256,192,95576,1,8,0:0:0:0:
256,192,95664,1,8,0:0:0:0:
256,192,95753,1,0,0:0:0:0:
256,192,95929,1,8,0:0:0:0:
256,192,96017,1,0,0:0:0:0:
256,192,96106,1,8,0:0:0:0:
256,192,96282,1,8,0:0:0:0:
256,192,96459,1,8,0:0:0:0:
256,192,96547,1,8,0:0:0:0:
256,192,96635,1,0,0:0:0:0:
256,192,96723,1,8,0:0:0:0:
256,192,96811,1,0,0:0:0:0:
256,192,96988,1,8,0:0:0:0:
256,192,97076,1,0,0:0:0:0:
256,192,97164,1,0,0:0:0:0:
256,192,97341,1,0,0:0:0:0:
256,192,97429,1,0,0:0:0:0:
256,192,97517,1,8,0:0:0:0:
256,192,97694,1,0,0:0:0:0:
256,192,97782,1,0,0:0:0:0:
256,192,97870,1,8,0:0:0:0:
256,192,97959,1,8,0:0:0:0:
256,192,98047,1,0,0:0:0:0:
256,192,98135,1,8,0:0:0:0:
256,192,98223,1,0,0:0:0:0:
256,192,98400,1,8,0:0:0:0:
256,192,98488,1,0,0:0:0:0:
256,192,98576,1,0,0:0:0:0:
256,192,98753,1,0,0:0:0:0:
256,192,98841,1,0,0:0:0:0:
256,192,98929,1,8,0:0:0:0:
256,192,99106,1,0,0:0:0:0:
256,192,99194,1,0,0:0:0:0:
256,192,99282,1,8,0:0:0:0:
256,192,99370,1,0,0:0:0:0:
256,192,99459,1,8,0:0:0:0:
256,192,99547,1,8,0:0:0:0:
256,192,99635,1,0,0:0:0:0:
256,192,99811,1,8,0:0:0:0:
256,192,99900,1,0,0:0:0:0:
256,192,99988,1,0,0:0:0:0:
256,192,100164,1,0,0:0:0:0:
256,192,100253,1,0,0:0:0:0:
256,192,100341,1,8,0:0:0:0:
256,192,100517,1,0,0:0:0:0:
256,192,100606,1,0,0:0:0:0:
256,192,100694,1,8,0:0:0:0:
256,192,100782,1,8,0:0:0:0:
256,192,100870,1,0,0:0:0:0:
256,192,100959,1,0,0:0:0:0:
256,192,101047,1,8,0:0:0:0:
256,192,101223,1,8,0:0:0:0:
256,192,101311,1,0,0:0:0:0:
256,192,101400,1,8,0:0:0:0:
256,192,101576,1,0,0:0:0:0:
256,192,101753,1,12,0:0:0:0:
256,192,101929,1,0,0:0:0:0:
256,192,102017,1,0,0:0:0:0:
256,192,102106,1,8,0:0:0:0:
256,192,102194,1,8,0:0:0:0:
256,192,102282,1,0,0:0:0:0:
256,192,102370,1,0,0:0:0:0:
256,192,102459,1,12,0:0:0:0:
256,192,102635,1,0,0:0:0:0:
256,192,102723,1,0,0:0:0:0:
256,192,102811,1,8,0:0:0:0:
256,192,102988,1,8,0:0:0:0:
256,192,103076,1,0,0:0:0:0:
256,192,103164,1,8,0:0:0:0:
256,192,103341,1,0,0:0:0:0:
256,192,103429,1,0,0:0:0:0:
256,192,103517,1,8,0:0:0:0:
256,192,103606,1,0,0:0:0:0:
256,192,103694,1,8,0:0:0:0:
256,192,103870,1,0,0:0:0:0:
256,192,104047,1,8,0:0:0:0:
256,192,104135,1,8,0:0:0:0:
256,192,104223,1,0,0:0:0:0:
256,192,104400,1,0,0:0:0:0:
256,192,104488,1,0,0:0:0:0:
256,192,104576,1,8,0:0:0:0:
256,192,104753,1,0,0:0:0:0:
256,192,104841,1,0,0:0:0:0:
256,192,104929,1,8,0:0:0:0:
256,192,105017,1,0,0:0:0:0:
256,192,105106,1,8,0:0:0:0:
256,192,105194,1,8,0:0:0:0:
256,192,105282,1,0,0:0:0:0:
256,192,105459,1,8,0:0:0:0:
256,192,105547,1,0,0:0:0:0:
256,192,105635,1,0,0:0:0:0:
256,192,105811,1,8,0:0:0:0:
256,192,105900,1,0,0:0:0:0:
256,192,105988,1,8,0:0:0:0:
256,192,106164,1,0,0:0:0:0:
256,192,106253,1,0,0:0:0:0:
256,192,106341,1,8,0:0:0:0:
256,192,106429,1,8,0:0:0:0:
256,192,106517,1,0,0:0:0:0:
256,192,106606,1,0,0:0:0:0:
256,192,106694,1,8,0:0:0:0:
256,192,106870,1,8,0:0:0:0:
256,192,106959,1,8,0:0:0:0:
256,192,107047,1,0,0:0:0:0:
256,192,107223,1,8,0:0:0:0:
256,192,107311,1,0,0:0:0:0:
256,192,107400,1,8,0:0:0:0:
256,192,107576,1,0,0:0:0:0:
256,192,107664,1,0,0:0:0:0:
256,192,107753,1,12,0:0:0:0:
256,192,108106,1,12,0:0:0:0:
256,192,108282,1,8,0:0:0:0:
256,192,108370,1,0,0:0:0:0:
256,192,108547,1,0,0:0:0:0:
256,192,108635,1,0,0:0:0:0:
256,192,108811,1,8,0:0:0:0:
256,192,108900,1,0,0:0:0:0:
256,192,109076,1,0,0:0:0:0:
256,192,109164,1,8,0:0:0:0:
256,192,109253,1,8,0:0:0:0:
256,192,109341,1,0,0:0:0:0:
256,192,109429,1,0,0:0:0:0:
256,192,109517,1,8,0:0:0:0:
256,192,109694,1,8,0:0:0:0:
256,192,109782,1,0,0:0:0:0:
256,192,109959,1,0,0:0:0:0:
256,192,110047,1,8,0:0:0:0:
256,192,110223,1,0,0:0:0:0:
256,192,110311,1,8,0:0:0:0:
256,192,110488,1,0,0:0:0:0:
256,192,110576,1,8,0:0:0:0:
256,192,110635,1,8,0:0:0:0:
256,192,110694,1,8,0:0:0:0:
256,192,110753,1,0,0:0:0:0:
256,192,110841,1,0,0:0:0:0:
256,192,110929,1,8,0:0:0:0:
256,192,111106,1,8,0:0:0:0:
256,192,111194,1,8,0:0:0:0:
256,192,111370,1,0,0:0:0:0:
256,192,111459,1,8,0:0:0:0:
256,192,111635,1,8,0:0:0:0:
256,192,111723,1,8,0:0:0:0:
256,192,111900,1,0,0:0:0:0:
256,192,111988,1,8,0:0:0:0:
256,192,112076,1,8,0:0:0:0:
256,192,112164,1,0,0:0:0:0:
256,192,112253,1,0,0:0:0:0:
256,192,112341,1,8,0:0:0:0:
256,192,112429,1,8,0:0:0:0:
256,192,112517,1,0,0:0:0:0:
256,192,112606,1,0,0:0:0:0:
256,192,112694,1,8,0:0:0:0:
256,192,112782,1,0,0:0:0:0:
256,192,112870,1,8,0:0:0:0:
256,192,112959,1,8,0:0:0:0:
256,192,113047,1,0,0:0:0:0:
256,192,113106,1,0,0:0:0:0:
256,192,113164,1,0,0:0:0:0:
256,192,113223,1,8,0:0:0:0:
256,192,113311,1,0,0:0:0:0:
256,192,113400,1,12,0:0:0:0:
256,192,113753,1,4,0:0:0:0:
256,192,113929,1,0,0:0:0:0:
256,192,114106,1,0,0:0:0:0:
256,192,114194,1,8,0:0:0:0:
256,192,114370,1,8,0:0:0:0:
256,192,114459,1,8,0:0:0:0:
256,192,114635,1,8,0:0:0:0:
256,192,114811,1,8,0:0:0:0:
256,192,114900,1,0,0:0:0:0:
256,192,115076,1,0,0:0:0:0:
256,192,115164,1,8,0:0:0:0:
256,192,115253,1,0,0:0:0:0:
256,192,115341,1,8,0:0:0:0:
256,192,115429,1,0,0:0:0:0:
256,192,115517,1,8,0:0:0:0:
256,192,115576,1,8,0:0:0:0:
256,192,115635,1,8,0:0:0:0:
256,192,115694,1,0,0:0:0:0:
256,192,115782,1,0,0:0:0:0:
256,192,115870,1,12,0:0:0:0:
