osu file format v14

[General]
AudioFilename: audio.mp3
AudioLeadIn: 0
PreviewTime: 94605
Countdown: 0
SampleSet: Normal
StackLeniency: 0.7
Mode: 1
LetterboxInBreaks: 0
WidescreenStoryboard: 0

[Editor]
DistanceSpacing: 2
BeatDivisor: 4
GridSize: 32
TimelineZoom: 2.799999

[Metadata]
Title:Hellfire
TitleUnicode:Hellfire
Artist:Hommarju
ArtistUnicode:Hommarju
Creator:Eiuh
Version:Ura Oni
Source:SOUND VOLTEX II -infinite infection-
Tags:sdvx
BeatmapID:1080134
BeatmapSetID:507848

[Difficulty]
HPDrainRate:6
CircleSize:5
OverallDifficulty:6.5
ApproachRate:10
SliderMultiplier:1.4
SliderTickRate:1

[Events]
//Background and Video events
0,0,"bg4.jpg",0,0
//Break Periods
//Storyboard Layer 0 (Background)
//Storyboard Layer 1 (Fail)
//Storyboard Layer 2 (Pass)
//Storyboard Layer 3 (Foreground)
//Storyboard Sound Samples

[TimingPoints]
600,340.909090909091,4,1,0,100,1,0
11509,-76.9230769230769,4,1,0,100,0,0
22418,-83.3333333333333,4,1,0,100,0,0
45003,-66.6666666666667,4,1,0,100,0,0
45600,-83.3333333333333,4,1,0,100,0,0
59236,-90.9090909090909,4,1,0,100,0,0
70145,-83.3333333333333,4,1,0,100,0,0
94605,-86.9565217391304,4,1,0,100,0,0
97418,-83.3333333333333,4,1,0,100,0,1
104321,-80,4,1,0,100,0,0
105600,-80,4,1,0,100,0,1
116509,-71.4285714285714,4,1,0,100,0,0

[HitObjects]
256,192,600,5,4,0:0:0:0:
256,192,685,12,0,5884,0:0:0:0:
256,192,6054,5,0,0:0:0:0:
256,192,6225,1,0,0:0:0:0:
256,192,6395,1,8,0:0:0:0:
256,192,6565,1,0,0:0:0:0:
256,192,6736,1,8,0:0:0:0:
256,192,6906,1,8,0:0:0:0:
256,192,7077,1,0,0:0:0:0:
256,192,7247,1,0,0:0:0:0:
256,192,7418,1,8,0:0:0:0:
256,192,7588,1,0,0:0:0:0:
256,192,7759,1,8,0:0:0:0:
256,192,7929,1,8,0:0:0:0:
256,192,8100,1,0,0:0:0:0:
256,192,8270,1,8,0:0:0:0:
256,192,8440,1,0,0:0:0:0:
256,192,8611,1,8,0:0:0:0:
256,192,8781,1,0,0:0:0:0:
256,192,8952,1,8,0:0:0:0:
256,192,9122,1,8,0:0:0:0:
256,192,9293,1,0,0:0:0:0:
256,192,9463,1,0,0:0:0:0:
256,192,9634,1,8,0:0:0:0:
256,192,9804,1,0,0:0:0:0:
256,192,9975,1,8,0:0:0:0:
256,192,10145,1,8,0:0:0:0:
256,192,10315,1,0,0:0:0:0:
256,192,10486,1,8,0:0:0:0:
256,192,10656,1,8,0:0:0:0:
256,192,10827,1,0,0:0:0:0:
256,192,10997,1,0,0:0:0:0:
256,192,11168,1,8,0:0:0:0:
256,192,11338,1,8,0:0:0:0:
256,192,11509,1,4,0:0:0:0:
256,192,12020,1,4,0:0:0:0:
256,192,12531,1,4,0:0:0:0:
256,192,13043,1,4,0:0:0:0:
256,192,13554,1,12,0:0:0:0:
256,192,13895,1,12,0:0:0:0:
256,192,14236,1,4,0:0:0:0:
256,192,14747,1,4,0:0:0:0:
256,192,15259,1,4,0:0:0:0:
256,192,15770,1,4,0:0:0:0:
256,192,16281,1,12,0:0:0:0:
256,192,16622,1,4,0:0:0:0:
256,192,16963,1,4,0:0:0:0:
256,192,17304,1,8,0:0:0:0:
256,192,17475,1,4,0:0:0:0:
256,192,17815,1,8,0:0:0:0:
256,192,17986,1,4,0:0:0:0:
256,192,18327,1,8,0:0:0:0:
256,192,18497,1,4,0:0:0:0:
256,192,18838,1,0,0:0:0:0:
256,192,19009,1,12,0:0:0:0:
256,192,19179,1,0,0:0:0:0:
256,192,19350,1,12,0:0:0:0:
256,192,19690,1,4,0:0:0:0:
256,192,20031,1,8,0:0:0:0:
256,192,20202,1,4,0:0:0:0:
256,192,20543,1,8,0:0:0:0:
256,192,20713,1,4,0:0:0:0:
256,192,21054,1,8,0:0:0:0:
256,192,21225,1,4,0:0:0:0:
256,192,21565,1,0,0:0:0:0:
256,192,21736,1,12,0:0:0:0:
256,192,21906,1,0,0:0:0:0:
256,192,22077,1,4,0:0:0:0:
256,192,22247,1,8,0:0:0:0:
256,192,22418,1,4,0:0:0:0:
256,192,22588,1,0,0:0:0:0:
256,192,22673,1,8,0:0:0:0:
256,192,22759,1,0,0:0:0:0:
256,192,22929,1,8,0:0:0:0:
256,192,23014,1,8,0:0:0:0:
256,192,23100,1,0,0:0:0:0:
256,192,23185,1,8,0:0:0:0:
256,192,23270,1,0,0:0:0:0:
256,192,23440,1,0,0:0:0:0:
256,192,23611,1,8,0:0:0:0:
256,192,23696,1,8,0:0:0:0:
256,192,23781,1,0,0:0:0:0:
256,192,23952,1,8,0:0:0:0:
256,192,24122,1,0,0:0:0:0:
256,192,24207,1,0,0:0:0:0:
256,192,24293,1,8,0:0:0:0:
256,192,24463,1,8,0:0:0:0:
256,192,24548,1,0,0:0:0:0:
256,192,24634,1,8,0:0:0:0:
256,192,24690,1,8,0:0:0:0:
256,192,24747,1,8,0:0:0:0:
256,192,24804,1,0,0:0:0:0:
256,192,24975,1,8,0:0:0:0:
256,192,25060,1,0,0:0:0:0:
256,192,25145,1,8,0:0:0:0:
256,192,25230,1,0,0:0:0:0:
256,192,25315,1,0,0:0:0:0:
256,192,25401,1,0,0:0:0:0:
256,192,25486,1,8,0:0:0:0:
256,192,25656,1,0,0:0:0:0:
256,192,25742,1,0,0:0:0:0:
256,192,25827,1,0,0:0:0:0:
256,192,25912,1,8,0:0:0:0:
256,192,25997,1,8,0:0:0:0:
256,192,26082,1,0,0:0:0:0:
256,192,26168,1,8,0:0:0:0:
256,192,26338,1,0,0:0:0:0:
256,192,26423,1,0,0:0:0:0:
256,192,26509,1,8,0:0:0:0:
256,192,26594,1,8,0:0:0:0:
256,192,26679,1,0,0:0:0:0:
256,192,26764,1,8,0:0:0:0:
256,192,26850,1,0,0:0:0:0:
256,192,27020,1,8,0:0:0:0:
256,192,27190,1,0,0:0:0:0:
256,192,27247,1,0,0:0:0:0:
256,192,27304,1,0,0:0:0:0:
256,192,27361,1,8,0:0:0:0:
256,192,27446,1,0,0:0:0:0:
256,192,27531,1,8,0:0:0:0:
256,192,27588,1,8,0:0:0:0:
256,192,27645,1,8,0:0:0:0:
256,192,27702,1,8,0:0:0:0:
256,192,27787,1,8,0:0:0:0:
256,192,27872,1,0,0:0:0:0:
256,192,28043,1,0,0:0:0:0:
256,192,28128,1,0,0:0:0:0:
256,192,28213,1,8,0:0:0:0:
256,192,28384,1,0,0:0:0:0:
256,192,28469,1,0,0:0:0:0:
256,192,28554,1,8,0:0:0:0:
256,192,28639,1,8,0:0:0:0:
256,192,28725,1,8,0:0:0:0:
256,192,28810,1,0,0:0:0:0:
256,192,28895,1,8,0:0:0:0:
256,192,28980,1,0,0:0:0:0:
256,192,29065,1,0,0:0:0:0:
256,192,29236,1,8,0:0:0:0:
256,192,29321,1,0,0:0:0:0:
256,192,29406,1,0,0:0:0:0:
256,192,29492,1,8,0:0:0:0:
256,192,29577,1,8,0:0:0:0:
256,192,29662,1,0,0:0:0:0:
256,192,29747,1,8,0:0:0:0:
256,192,29832,1,8,0:0:0:0:
256,192,29918,1,0,0:0:0:0:
256,192,30088,1,0,0:0:0:0:
256,192,30145,1,8,0:0:0:0:
256,192,30202,1,8,0:0:0:0:
256,192,30259,1,8,0:0:0:0:
256,192,30344,1,0,0:0:0:0:
256,192,30429,1,8,0:0:0:0:
256,192,30514,1,0,0:0:0:0:
256,192,30600,1,0,0:0:0:0:
256,192,30770,1,0,0:0:0:0:
256,192,30855,1,8,0:0:0:0:
256,192,30940,1,8,0:0:0:0:
256,192,31026,1,8,0:0:0:0:
256,192,31111,1,0,0:0:0:0:
256,192,31196,1,0,0:0:0:0:
256,192,31281,1,0,0:0:0:0:
256,192,31367,1,0,0:0:0:0:
256,192,31452,1,8,0:0:0:0:
256,192,31509,1,8,0:0:0:0:
256,192,31565,1,0,0:0:0:0:
256,192,31622,1,8,0:0:0:0:
256,192,31793,1,0,0:0:0:0:
256,192,31878,1,0,0:0:0:0:
256,192,31963,1,8,0:0:0:0:
256,192,32020,1,8,0:0:0:0:
256,192,32077,1,8,0:0:0:0:
256,192,32134,1,0,0:0:0:0:
256,192,32304,1,0,0:0:0:0:
256,192,32389,1,8,0:0:0:0:
256,192,32475,1,0,0:0:0:0:
256,192,32560,1,0,0:0:0:0:
256,192,32645,1,8,0:0:0:0:
256,192,32815,1,0,0:0:0:0:
256,192,32986,1,8,0:0:0:0:
256,192,33043,1,8,0:0:0:0:
256,192,33100,1,8,0:0:0:0:
256,192,33156,1,8,0:0:0:0:
256,192,33213,1,8,0:0:0:0:
256,192,33327,2,0,L|512:192,2,245
256,192,34690,1,12,0:0:0:0:
256,192,34861,1,0,0:0:0:0:
256,192,34946,1,0,0:0:0:0:
256,192,35031,1,8,0:0:0:0:
256,192,35117,1,8,0:0:0:0:
256,192,35202,1,8,0:0:0:0:
256,192,35287,1,0,0:0:0:0:
256,192,35457,1,8,0:0:0:0:
256,192,35543,1,8,0:0:0:0:
256,192,35628,1,0,0:0:0:0:
256,192,35713,1,8,0:0:0:0:
256,192,35884,1,0,0:0:0:0:
256,192,35969,1,0,0:0:0:0:
256,192,36054,1,8,0:0:0:0:
256,192,36225,1,0,0:0:0:0:
256,192,36310,1,8,0:0:0:0:
256,192,36395,1,8,0:0:0:0:
256,192,36480,1,0,0:0:0:0:
256,192,36565,1,0,0:0:0:0:
256,192,36651,1,0,0:0:0:0:
256,192,36821,1,8,0:0:0:0:
256,192,36906,1,8,0:0:0:0:
256,192,36992,1,0,0:0:0:0:
256,192,37077,1,8,0:0:0:0:
256,192,37162,1,8,0:0:0:0:
256,192,37247,1,0,0:0:0:0:
256,192,37332,1,0,0:0:0:0:
256,192,37418,1,12,0:0:0:0:
256,192,37588,1,0,0:0:0:0:
256,192,37673,1,8,0:0:0:0:
256,192,37759,1,0,0:0:0:0:
256,192,37929,1,8,0:0:0:0:
256,192,38014,1,0,0:0:0:0:
256,192,38185,1,0,0:0:0:0:
256,192,38270,1,0,0:0:0:0:
256,192,38355,1,8,0:0:0:0:
256,192,38440,1,8,0:0:0:0:
256,192,38526,1,0,0:0:0:0:
256,192,38611,1,8,0:0:0:0:
256,192,38696,1,0,0:0:0:0:
256,192,38781,1,8,0:0:0:0:
256,192,38952,1,8,0:0:0:0:
256,192,39037,1,0,0:0:0:0:
256,192,39122,1,8,0:0:0:0:
256,192,39179,1,0,0:0:0:0:
256,192,39236,1,8,0:0:0:0:
256,192,39293,1,8,0:0:0:0:
256,192,39378,1,0,0:0:0:0:
256,192,39634,1,0,0:0:0:0:
256,192,39889,1,0,0:0:0:0:
256,192,40145,1,12,0:0:0:0:
256,192,40315,1,0,0:0:0:0:
256,192,40401,1,8,0:0:0:0:
256,192,40486,1,0,0:0:0:0:
256,192,40571,1,0,0:0:0:0:
256,192,40656,1,8,0:0:0:0:
256,192,40742,1,0,0:0:0:0:
256,192,40912,1,0,0:0:0:0:
256,192,40997,1,8,0:0:0:0:
256,192,41168,1,8,0:0:0:0:
256,192,41253,1,8,0:0:0:0:
256,192,41338,1,0,0:0:0:0:
256,192,41423,1,0,0:0:0:0:
256,192,41509,1,8,0:0:0:0:
256,192,41679,1,0,0:0:0:0:
256,192,41764,1,0,0:0:0:0:
256,192,41850,1,8,0:0:0:0:
256,192,41935,1,8,0:0:0:0:
256,192,42020,1,0,0:0:0:0:
256,192,42105,1,0,0:0:0:0:
256,192,42276,1,0,0:0:0:0:
256,192,42361,1,8,0:0:0:0:
256,192,42446,1,0,0:0:0:0:
256,192,42531,1,8,0:0:0:0:
256,192,42617,1,8,0:0:0:0:
256,192,42702,1,0,0:0:0:0:
256,192,42872,1,12,0:0:0:0:
256,192,43043,1,0,0:0:0:0:
256,192,43213,1,0,0:0:0:0:
256,192,43384,1,0,0:0:0:0:
256,192,43554,1,8,0:0:0:0:
256,192,43639,1,8,0:0:0:0:
256,192,43725,1,8,0:0:0:0:
256,192,43810,1,0,0:0:0:0:
256,192,43895,1,8,0:0:0:0:
256,192,43980,1,8,0:0:0:0:
256,192,44065,1,8,0:0:0:0:
256,192,44151,1,8,0:0:0:0:
256,192,44236,1,0,0:0:0:0:
256,192,44406,1,0,0:0:0:0:
256,192,44492,1,12,0:0:0:0:
256,192,44662,1,0,0:0:0:0:
256,192,44747,1,12,0:0:0:0:
256,192,45003,1,4,0:0:0:0:
256,192,45088,12,0,45514,0:0:0:0:
256,192,45600,5,8,0:0:0:0:
256,192,45685,1,8,0:0:0:0:
256,192,45770,1,0,0:0:0:0:
256,192,45940,1,8,0:0:0:0:
256,192,46026,1,0,0:0:0:0:
256,192,46111,1,8,0:0:0:0:
256,192,46196,1,8,0:0:0:0:
256,192,46281,1,0,0:0:0:0:
256,192,46367,1,0,0:0:0:0:
256,192,46452,1,0,0:0:0:0:
256,192,46622,1,8,0:0:0:0:
256,192,46707,1,0,0:0:0:0:
256,192,46793,1,0,0:0:0:0:
256,192,46878,1,8,0:0:0:0:
256,192,46963,1,8,0:0:0:0:
256,192,47048,1,0,0:0:0:0:
256,192,47134,1,0,0:0:0:0:
256,192,47304,1,8,0:0:0:0:
256,192,47389,1,0,0:0:0:0:
256,192,47475,1,0,0:0:0:0:
256,192,47560,1,8,0:0:0:0:
256,192,47730,1,8,0:0:0:0:
256,192,47815,1,0,0:0:0:0:
256,192,47901,1,8,0:0:0:0:
256,192,47986,1,8,0:0:0:0:
256,192,48071,1,8,0:0:0:0:
256,192,48156,1,8,0:0:0:0:
256,192,48242,1,8,0:0:0:0:
256,192,48327,1,0,0:0:0:0:
256,192,48668,1,8,0:0:0:0:
256,192,48754,1,0,0:0:0:0:
256,192,48839,1,8,0:0:0:0:
256,192,48924,1,8,0:0:0:0:
256,192,49009,1,0,0:0:0:0:
256,192,49095,1,0,0:0:0:0:
256,192,49180,1,0,0:0:0:0:
256,192,49350,1,8,0:0:0:0:
256,192,49435,1,0,0:0:0:0:
256,192,49521,1,0,0:0:0:0:
256,192,49606,1,8,0:0:0:0:
256,192,49691,1,8,0:0:0:0:
256,192,49776,1,0,0:0:0:0:
256,192,49862,1,0,0:0:0:0:
256,192,50032,1,8,0:0:0:0:
256,192,50117,1,0,0:0:0:0:
256,192,50203,1,0,0:0:0:0:
256,192,50288,1,0,0:0:0:0:
256,192,50458,1,8,0:0:0:0:
256,192,50543,1,0,0:0:0:0:
256,192,50629,1,0,0:0:0:0:
256,192,50714,1,8,0:0:0:0:
256,192,50799,1,8,0:0:0:0:
256,192,50884,1,8,0:0:0:0:
256,192,50970,1,8,0:0:0:0:
256,192,51139,1,12,0:0:0:0:
256,192,51395,1,12,0:0:0:0:
256,192,51651,1,12,0:0:0:0:
256,192,51821,1,4,0:0:0:0:
256,192,52077,1,4,0:0:0:0:
256,192,52332,1,4,0:0:0:0:
256,192,52503,1,12,0:0:0:0:
256,192,52758,1,12,0:0:0:0:
256,192,53014,1,4,0:0:0:0:
256,192,53184,1,12,0:0:0:0:
256,192,53440,1,12,0:0:0:0:
256,192,53695,1,4,0:0:0:0:
256,192,53866,1,12,0:0:0:0:
256,192,54122,1,12,0:0:0:0:
256,192,54292,1,0,0:0:0:0:
256,192,54378,1,8,0:0:0:0:
256,192,54463,1,8,0:0:0:0:
256,192,54548,1,0,0:0:0:0:
256,192,54605,1,0,0:0:0:0:
256,192,54662,1,0,0:0:0:0:
256,192,54719,1,8,0:0:0:0:
256,192,54804,1,0,0:0:0:0:
256,192,54975,1,0,0:0:0:0:
256,192,55060,1,0,0:0:0:0:
256,192,55145,1,12,0:0:0:0:
256,192,55315,1,8,0:0:0:0:
256,192,55401,1,4,0:0:0:0:
256,192,55571,1,8,0:0:0:0:
256,192,55656,1,4,0:0:0:0:
256,192,55827,1,0,0:0:0:0:
256,192,55912,1,12,0:0:0:0:
256,192,56082,1,0,0:0:0:0:
256,192,56168,1,12,0:0:0:0:
256,192,56509,1,4,0:0:0:0:
256,192,56594,12,0,59065,0:0:0:0:
256,192,59236,5,8,0:0:0:0:
256,192,59406,1,0,0:0:0:0:
256,192,59577,1,0,0:0:0:0:
256,192,59747,1,8,0:0:0:0:
256,192,59917,1,8,0:0:0:0:
256,192,60088,1,0,0:0:0:0:
256,192,60259,1,8,0:0:0:0:
256,192,60429,1,0,0:0:0:0:
256,192,60600,1,0,0:0:0:0:
256,192,60770,1,8,0:0:0:0:
256,192,60940,1,8,0:0:0:0:
256,192,61111,1,0,0:0:0:0:
256,192,61281,1,8,0:0:0:0:
256,192,61451,1,0,0:0:0:0:
256,192,61622,1,8,0:0:0:0:
256,192,61792,1,0,0:0:0:0:
256,192,61962,1,8,0:0:0:0:
256,192,62133,1,0,0:0:0:0:
256,192,62304,1,0,0:0:0:0:
256,192,62474,1,8,0:0:0:0:
256,192,62645,1,8,0:0:0:0:
256,192,62815,1,0,0:0:0:0:
256,192,62985,1,8,0:0:0:0:
256,192,63156,1,0,0:0:0:0:
256,192,63327,1,0,0:0:0:0:
256,192,63497,1,8,0:0:0:0:
256,192,63668,1,8,0:0:0:0:
256,192,63838,1,0,0:0:0:0:
256,192,64008,1,8,0:0:0:0:
256,192,64179,1,0,0:0:0:0:
256,192,64350,1,8,0:0:0:0:
256,192,64520,1,0,0:0:0:0:
256,192,64691,1,8,0:0:0:0:
256,192,64861,1,0,0:0:0:0:
256,192,65031,1,0,0:0:0:0:
256,192,65202,1,8,0:0:0:0:
256,192,65372,1,8,0:0:0:0:
256,192,65542,1,0,0:0:0:0:
256,192,65713,1,8,0:0:0:0:
256,192,65883,1,0,0:0:0:0:
256,192,66053,1,0,0:0:0:0:
256,192,66224,1,8,0:0:0:0:
256,192,66395,1,8,0:0:0:0:
256,192,66565,1,0,0:0:0:0:
256,192,66736,1,8,0:0:0:0:
256,192,66906,1,0,0:0:0:0:
256,192,67076,1,8,0:0:0:0:
256,192,67247,1,0,0:0:0:0:
256,192,67418,1,8,0:0:0:0:
256,192,67588,1,0,0:0:0:0:
256,192,67759,1,8,0:0:0:0:
256,192,67929,1,8,0:0:0:0:
256,192,68099,1,0,0:0:0:0:
256,192,68270,1,0,0:0:0:0:
256,192,68441,1,8,0:0:0:0:
256,192,68611,1,0,0:0:0:0:
256,192,68782,1,8,0:0:0:0:
256,192,68952,1,8,0:0:0:0:
256,192,69122,1,0,0:0:0:0:
256,192,69293,1,0,0:0:0:0:
256,192,69463,1,8,0:0:0:0:
256,192,69634,1,0,0:0:0:0:
256,192,69804,1,8,0:0:0:0:
256,192,69975,1,8,0:0:0:0:
256,192,70145,1,4,0:0:0:0:
256,192,70315,1,0,0:0:0:0:
256,192,70486,1,8,0:0:0:0:
256,192,70656,1,0,0:0:0:0:
256,192,70742,1,8,0:0:0:0:
256,192,70827,1,0,0:0:0:0:
256,192,70912,1,8,0:0:0:0:
256,192,70997,1,8,0:0:0:0:
256,192,71168,1,0,0:0:0:0:
256,192,71338,1,8,0:0:0:0:
256,192,71423,1,8,0:0:0:0:
256,192,71509,1,0,0:0:0:0:
256,192,71679,1,0,0:0:0:0:
256,192,71850,1,8,0:0:0:0:
256,192,72020,1,0,0:0:0:0:
256,192,72190,1,8,0:0:0:0:
256,192,72276,1,8,0:0:0:0:
256,192,72361,1,0,0:0:0:0:
256,192,72531,1,0,0:0:0:0:
256,192,72702,1,8,0:0:0:0:
256,192,72787,1,0,0:0:0:0:
256,192,72872,1,8,0:0:0:0:
256,192,73043,1,0,0:0:0:0:
256,192,73213,1,0,0:0:0:0:
256,192,73384,1,8,0:0:0:0:
256,192,73469,1,0,0:0:0:0:
256,192,73554,1,8,0:0:0:0:
256,192,73639,1,8,0:0:0:0:
256,192,73725,1,0,0:0:0:0:
256,192,73895,1,8,0:0:0:0:
256,192,74065,1,0,0:0:0:0:
256,192,74151,1,8,0:0:0:0:
256,192,74236,1,0,0:0:0:0:
256,192,74406,1,8,0:0:0:0:
256,192,74577,1,4,0:0:0:0:
256,192,74747,1,0,0:0:0:0:
256,192,74918,1,8,0:0:0:0:
256,192,75088,1,4,0:0:0:0:
256,192,75259,1,0,0:0:0:0:
256,192,75429,1,8,0:0:0:0:
256,192,75514,1,0,0:0:0:0:
256,192,75600,1,8,0:0:0:0:
256,192,75770,1,0,0:0:0:0:
256,192,75940,1,8,0:0:0:0:
256,192,76111,1,0,0:0:0:0:
256,192,76196,1,8,0:0:0:0:
256,192,76281,1,0,0:0:0:0:
256,192,76367,1,8,0:0:0:0:
256,192,76452,1,8,0:0:0:0:
256,192,76622,1,0,0:0:0:0:
256,192,76793,1,8,0:0:0:0:
256,192,76878,1,8,0:0:0:0:
256,192,76963,1,0,0:0:0:0:
256,192,77134,1,0,0:0:0:0:
256,192,77304,1,8,0:0:0:0:
256,192,77475,1,0,0:0:0:0:
256,192,77560,1,8,0:0:0:0:
256,192,77645,1,0,0:0:0:0:
256,192,77730,1,0,0:0:0:0:
256,192,77815,1,0,0:0:0:0:
256,192,77986,1,8,0:0:0:0:
256,192,78156,1,0,0:0:0:0:
256,192,78327,1,4,0:0:0:0:
256,192,78497,1,0,0:0:0:0:
256,192,78668,1,8,0:0:0:0:
256,192,78838,1,8,0:0:0:0:
256,192,78923,1,8,0:0:0:0:
256,192,79009,1,0,0:0:0:0:
256,192,79094,1,8,0:0:0:0:
256,192,79179,1,0,0:0:0:0:
256,192,79350,1,8,0:0:0:0:
256,192,79520,1,0,0:0:0:0:
256,192,79690,1,0,0:0:0:0:
256,192,79861,1,0,0:0:0:0:
256,192,79946,1,0,0:0:0:0:
256,192,80031,1,12,0:0:0:0:
256,192,80202,1,8,0:0:0:0:
256,192,80372,1,0,0:0:0:0:
256,192,80543,1,12,0:0:0:0:
256,192,80713,1,0,0:0:0:0:
256,192,80884,1,0,0:0:0:0:
256,192,81054,1,12,0:0:0:0:
256,192,81225,1,0,0:0:0:0:
256,192,81310,1,12,0:0:0:0:
256,192,81480,1,8,0:0:0:0:
256,192,81565,1,4,0:0:0:0:
256,192,81736,1,8,0:0:0:0:
256,192,81821,1,4,0:0:0:0:
256,192,81992,1,8,0:0:0:0:
256,192,82077,1,4,0:0:0:0:
256,192,82247,1,0,0:0:0:0:
256,192,82332,1,0,0:0:0:0:
256,192,82418,1,12,0:0:0:0:
256,192,82588,1,0,0:0:0:0:
256,192,82673,1,12,0:0:0:0:
256,192,82844,1,8,0:0:0:0:
256,192,82929,1,4,0:0:0:0:
256,192,83100,1,8,0:0:0:0:
256,192,83185,1,4,0:0:0:0:
256,192,83355,1,8,0:0:0:0:
256,192,83440,1,4,0:0:0:0:
256,192,83611,1,8,0:0:0:0:
256,192,83696,1,0,0:0:0:0:
256,192,83781,1,12,0:0:0:0:
256,192,83952,1,0,0:0:0:0:
256,192,84037,1,12,0:0:0:0:
256,192,84207,1,8,0:0:0:0:
256,192,84293,1,4,0:0:0:0:
256,192,84463,1,8,0:0:0:0:
256,192,84548,1,4,0:0:0:0:
256,192,84719,1,8,0:0:0:0:
256,192,84804,1,4,0:0:0:0:
256,192,84975,1,0,0:0:0:0:
256,192,85060,1,0,0:0:0:0:
256,192,85145,1,12,0:0:0:0:
256,192,85315,1,0,0:0:0:0:
256,192,85401,1,12,0:0:0:0:
256,192,85571,1,8,0:0:0:0:
256,192,85656,1,4,0:0:0:0:
256,192,85827,1,8,0:0:0:0:
256,192,85912,1,4,0:0:0:0:
256,192,86082,1,8,0:0:0:0:
256,192,86168,1,4,0:0:0:0:
256,192,86253,1,8,0:0:0:0:
256,192,86338,1,8,0:0:0:0:
256,192,86423,1,0,0:0:0:0:
256,192,86509,1,12,0:0:0:0:
256,192,86679,1,8,0:0:0:0:
256,192,86764,1,4,0:0:0:0:
256,192,86935,1,8,0:0:0:0:
256,192,87020,1,4,0:0:0:0:
256,192,87190,1,0,0:0:0:0:
256,192,87276,1,12,0:0:0:0:
256,192,87446,1,8,0:0:0:0:
256,192,87531,1,4,0:0:0:0:
256,192,87702,1,0,0:0:0:0:
256,192,87787,1,12,0:0:0:0:
256,192,87957,1,0,0:0:0:0:
256,192,88043,1,12,0:0:0:0:
256,192,88213,1,0,0:0:0:0:
256,192,88298,1,12,0:0:0:0:
256,192,88469,1,8,0:0:0:0:
256,192,88554,1,4,0:0:0:0:
256,192,88724,1,0,0:0:0:0:
256,192,88810,1,12,0:0:0:0:
256,192,88980,1,8,0:0:0:0:
256,192,89065,1,4,0:0:0:0:
256,192,89236,1,8,0:0:0:0:
256,192,89321,1,0,0:0:0:0:
256,192,89406,1,0,0:0:0:0:
256,192,89492,1,0,0:0:0:0:
256,192,89577,1,0,0:0:0:0:
256,192,89662,1,0,0:0:0:0:
256,192,89747,1,0,0:0:0:0:
256,192,89832,1,0,0:0:0:0:
256,192,89918,1,8,0:0:0:0:
256,192,90003,1,0,0:0:0:0:
256,192,90088,1,0,0:0:0:0:
256,192,90174,1,0,0:0:0:0:
256,192,90259,1,0,0:0:0:0:
256,192,90344,1,0,0:0:0:0:
256,192,90429,1,0,0:0:0:0:
256,192,90514,1,0,0:0:0:0:
256,192,90600,1,8,0:0:0:0:
256,192,90685,1,0,0:0:0:0:
256,192,90770,1,0,0:0:0:0:
256,192,90856,1,0,0:0:0:0:
256,192,90941,1,8,0:0:0:0:
256,192,91026,1,0,0:0:0:0:
256,192,91111,1,0,0:0:0:0:
256,192,91196,1,0,0:0:0:0:
256,192,91281,1,8,0:0:0:0:
256,192,91366,1,0,0:0:0:0:
256,192,91451,1,0,0:0:0:0:
256,192,91537,1,8,0:0:0:0:
256,192,91622,1,0,0:0:0:0:
256,192,91707,1,0,0:0:0:0:
256,192,91792,1,8,0:0:0:0:
256,192,91877,1,0,0:0:0:0:
256,192,91963,1,12,0:0:0:0:
256,192,93327,12,0,94520,0:0:0:0:
256,192,94690,5,12,0:0:0:0:
256,192,94861,1,0,0:0:0:0:
256,192,94946,1,0,0:0:0:0:
256,192,95117,1,0,0:0:0:0:
256,192,95202,1,12,0:0:0:0:
256,192,95372,1,8,0:0:0:0:
256,192,95429,1,8,0:0:0:0:
256,192,95486,1,0,0:0:0:0:
256,192,95543,1,0,0:0:0:0:
256,192,95628,1,0,0:0:0:0:
256,192,95713,1,12,0:0:0:0:
256,192,95884,1,8,0:0:0:0:
256,192,95969,1,4,0:0:0:0:
256,192,96225,1,4,0:0:0:0:
256,192,96480,1,4,0:0:0:0:
256,192,96736,1,12,0:0:0:0:
256,192,96992,1,12,0:0:0:0:
256,192,97247,1,4,0:0:0:0:
256,192,97418,1,12,0:0:0:0:
256,192,97588,1,0,0:0:0:0:
256,192,97673,1,0,0:0:0:0:
256,192,97844,1,0,0:0:0:0:
256,192,97929,1,8,0:0:0:0:
256,192,98100,1,0,0:0:0:0:
256,192,98185,1,8,0:0:0:0:
256,192,98270,1,0,0:0:0:0:
256,192,98355,1,8,0:0:0:0:
256,192,98440,1,8,0:0:0:0:
256,192,98611,1,0,0:0:0:0:
256,192,98696,1,8,0:0:0:0:
256,192,98781,1,0,0:0:0:0:
256,192,98952,1,8,0:0:0:0:
256,192,99037,1,0,0:0:0:0:
256,192,99122,1,0,0:0:0:0:
256,192,99207,1,8,0:0:0:0:
256,192,99293,1,0,0:0:0:0:
256,192,99378,1,0,0:0:0:0:
256,192,99463,1,0,0:0:0:0:
256,192,99634,1,8,0:0:0:0:
256,192,99719,1,0,0:0:0:0:
256,192,99804,1,8,0:0:0:0:
256,192,99889,1,8,0:0:0:0:
256,192,99975,1,8,0:0:0:0:
256,192,100060,1,8,0:0:0:0:
256,192,100145,1,0,0:0:0:0:
256,192,100315,1,0,0:0:0:0:
256,192,100401,1,0,0:0:0:0:
256,192,100571,1,0,0:0:0:0:
256,192,100656,1,12,0:0:0:0:
256,192,100827,1,0,0:0:0:0:
256,192,100912,1,8,0:0:0:0:
256,192,100997,1,0,0:0:0:0:
256,192,101082,1,8,0:0:0:0:
256,192,101168,1,8,0:0:0:0:
256,192,101338,1,0,0:0:0:0:
256,192,101423,1,8,0:0:0:0:
256,192,101509,1,0,0:0:0:0:
256,192,101679,1,8,0:0:0:0:
256,192,101764,1,0,0:0:0:0:
256,192,101850,1,0,0:0:0:0:
256,192,101935,1,8,0:0:0:0:
256,192,102020,1,8,0:0:0:0:
256,192,102105,1,0,0:0:0:0:
256,192,102190,1,8,0:0:0:0:
256,192,102361,1,0,0:0:0:0:
256,192,102446,1,8,0:0:0:0:
256,192,102531,1,0,0:0:0:0:
256,192,102617,1,0,0:0:0:0:
256,192,102702,1,8,0:0:0:0:
256,192,102744,1,8,0:0:0:0:
256,192,102787,1,8,0:0:0:0:
256,192,102830,1,8,0:0:0:0:
256,192,102872,1,0,0:0:0:0:
256,192,103043,1,0,0:0:0:0:
256,192,103128,1,8,0:0:0:0:
256,192,103213,1,0,0:0:0:0:
256,192,103298,1,0,0:0:0:0:
256,192,103384,1,8,0:0:0:0:
256,192,103554,1,0,0:0:0:0:
256,192,103639,1,0,0:0:0:0:
256,192,103725,1,8,0:0:0:0:
256,192,103810,1,0,0:0:0:0:
256,192,103895,1,8,0:0:0:0:
256,192,104065,1,8,0:0:0:0:
256,192,104151,1,0,0:0:0:0:
256,192,104321,1,0,0:0:0:0:
256,192,104407,1,12,0:0:0:0:
256,192,104577,1,0,0:0:0:0:
256,192,104662,1,12,0:0:0:0:
256,192,104833,1,8,0:0:0:0:
256,192,104918,1,4,0:0:0:0:
256,192,105003,1,8,0:0:0:0:
256,192,105173,1,8,0:0:0:0:
256,192,105259,1,8,0:0:0:0:
256,192,105344,1,8,0:0:0:0:
256,192,105429,1,4,0:0:0:0:
256,192,105600,1,12,0:0:0:0:
256,192,105770,1,8,0:0:0:0:
256,192,105855,1,4,0:0:0:0:
256,192,106111,1,12,0:0:0:0:
256,192,106281,1,0,0:0:0:0:
256,192,106366,1,8,0:0:0:0:
256,192,106452,1,8,0:0:0:0:
256,192,106537,1,0,0:0:0:0:
256,192,106622,1,12,0:0:0:0:
256,192,106792,1,8,0:0:0:0:
256,192,106878,1,4,0:0:0:0:
256,192,107134,1,4,0:0:0:0:
256,192,107304,1,8,0:0:0:0:
256,192,107389,1,4,0:0:0:0:
256,192,107645,1,12,0:0:0:0:
256,192,107901,1,12,0:0:0:0:
256,192,108071,1,0,0:0:0:0:
256,192,108156,1,12,0:0:0:0:
256,192,108242,1,8,0:0:0:0:
256,192,108327,1,4,0:0:0:0:
256,192,108582,1,4,0:0:0:0:
256,192,108753,1,0,0:0:0:0:
256,192,108838,1,12,0:0:0:0:
256,192,109009,1,0,0:0:0:0:
256,192,109094,1,0,0:0:0:0:
256,192,109179,1,0,0:0:0:0:
256,192,109264,1,0,0:0:0:0:
256,192,109350,1,12,0:0:0:0:
256,192,109520,1,8,0:0:0:0:
256,192,109605,1,4,0:0:0:0:
256,192,109861,1,12,0:0:0:0:
256,192,110031,1,0,0:0:0:0:
256,192,110117,1,12,0:0:0:0:
256,192,110202,1,0,0:0:0:0:
256,192,110372,1,12,0:0:0:0:
256,192,110628,1,12,0:0:0:0:
256,192,110798,1,8,0:0:0:0:
256,192,110883,1,4,0:0:0:0:
256,192,111054,1,8,0:0:0:0:
256,192,111139,1,0,0:0:0:0:
256,192,111225,1,8,0:0:0:0:
256,192,111310,1,8,0:0:0:0:
256,192,111395,1,8,0:0:0:0:
256,192,111480,1,8,0:0:0:0:
256,192,111565,1,0,0:0:0:0:
256,192,111608,1,0,0:0:0:0:
256,192,111651,1,0,0:0:0:0:
256,192,111736,1,8,0:0:0:0:
256,192,111821,1,0,0:0:0:0:
256,192,111906,1,8,0:0:0:0:
256,192,111949,1,8,0:0:0:0:
256,192,111992,1,0,0:0:0:0:
256,192,112034,1,0,0:0:0:0:
256,192,112077,1,8,0:0:0:0:
256,192,112247,1,8,0:0:0:0:
256,192,112332,1,0,0:0:0:0:
256,192,112588,1,12,0:0:0:0:
256,192,112759,1,0,0:0:0:0:
256,192,112844,1,12,0:0:0:0:
256,192,112929,1,0,0:0:0:0:
256,192,113100,1,12,0:0:0:0:
256,192,113270,1,0,0:0:0:0:
256,192,113355,1,12,0:0:0:0:
256,192,113526,1,8,0:0:0:0:
256,192,113611,1,4,0:0:0:0:
256,192,113781,1,8,0:0:0:0:
256,192,113824,1,8,0:0:0:0:
256,192,113867,1,0,0:0:0:0:
256,192,113952,1,0,0:0:0:0:
256,192,114037,1,0,0:0:0:0:
256,192,114122,1,0,0:0:0:0:
256,192,114207,1,0,0:0:0:0:
256,192,114293,1,0,0:0:0:0:
256,192,114378,1,0,0:0:0:0:
256,192,114463,1,8,0:0:0:0:
256,192,114506,1,8,0:0:0:0:
256,192,114548,1,0,0:0:0:0:
256,192,114591,1,8,0:0:0:0:
256,192,114634,1,0,0:0:0:0:
256,192,114719,1,8,0:0:0:0:
256,192,114804,1,8,0:0:0:0:
256,192,114889,1,0,0:0:0:0:
256,192,114975,1,8,0:0:0:0:
256,192,115017,1,0,0:0:0:0:
256,192,115060,1,8,0:0:0:0:
256,192,115315,1,12,0:0:0:0:
256,192,115486,1,0,0:0:0:0:
256,192,115571,1,12,0:0:0:0:
256,192,115656,1,0,0:0:0:0:
256,192,115827,1,4,0:0:0:0:
256,192,115997,1,8,0:0:0:0:
256,192,116082,1,8,0:0:0:0:
256,192,116168,1,0,0:0:0:0:
256,192,116253,1,8,0:0:0:0:
256,192,116338,1,4,0:0:0:0:
256,192,116509,1,12,0:0:0:0:
256,192,116551,12,0,118213,0:0:0:0:
