osu file format v14

[General]
AudioFilename: audio.mp3
AudioLeadIn: 0
PreviewTime: 94912
Countdown: 1
SampleSet: Normal
StackLeniency: 0.7
Mode: 0
LetterboxInBreaks: 0
WidescreenStoryboard: 0

[Editor]
DistanceSpacing: 1
BeatDivisor: 4
GridSize: 4
TimelineZoom: 2.2

[Metadata]
Title:HYENA
TitleUnicode:HYENA
Artist:Hommarju
ArtistUnicode:Hommarju
Creator:rustbell
Version::thinking:
Source:
Tags:beatmania IIDX 21 SPADA DanceDanceRevolution (2013) jubeat saucer pop'n music Sunny Park REFLEC BEAT colette -All Seasons- SOUND VOLTEX II -infinite infection- / ミライダガッキ FutureTomTom Ver.2 Callionet fanzhen0019
BeatmapID:1314546
BeatmapSetID:623665

[Difficulty]
HPDrainRate:0
CircleSize:5
OverallDifficulty:8
ApproachRate:10
SliderMultiplier:2.6
SliderTickRate:1

[Events]
//Background and Video events
0,0,"whatever.png",0,0
//Break Periods
//Storyboard Layer 0 (Background)
//Storyboard Layer 1 (Fail)
//Storyboard Layer 2 (Pass)
//Storyboard Layer 3 (Foreground)
//Storyboard Sound Samples

[TimingPoints]
530,337.078651685393,4,1,0,100,1,0
21765,-50,4,1,0,100,0,0
24799,-100,4,1,0,100,0,0
35080,-50,4,1,0,100,0,0
35586,-133.333333333333,4,1,0,100,0,0
40979,-100,4,1,0,100,0,0
49069,-133.333333333333,4,1,0,100,0,0
59855,-153.846153846153,4,1,0,100,0,0
67271,-117.647058823529,4,1,0,100,0,0
69968,-66.6666666666667,4,1,0,100,0,0
70642,-333.333333333333,4,1,0,100,0,0
81428,-100,4,1,0,100,0,0
103844,-66.6666666666667,4,1,0,100,0,0
104013,-50,4,1,0,100,0,0
106035,-100,4,1,0,100,0,0
110586,-50,4,1,0,100,0,0
111091,-100,4,1,0,100,0,0

[HitObjects]
0,0,530,5,0,0:0:0:0:
256,192,614,12,0,3058,2:0:0:0:
512,384,3226,5,0,0:0:0:0:
256,192,3310,12,0,5754,2:0:0:0:
0,384,5923,5,0,0:0:0:0:
256,192,6007,12,0,8451,2:0:0:0:
512,0,8619,5,0,0:0:0:0:
256,192,8704,12,0,11148,2:0:0:0:
64,272,11316,6,0,P|93:279|128:280,1,65
264,320,11484,2,0,P|234:321|192:328,1,65
344,384,11653,1,0,0:0:0:0:
408,383,11737,1,0,0:0:0:0:
465,353,11821,1,0,0:0:0:0:
501,300,11905,1,0,0:0:0:0:
509,236,11990,2,0,L|496:88,1,130
472,16,12327,5,0,0:0:0:0:
416,112,12412,1,0,0:0:0:0:
408,120,12496,5,0,0:0:0:0:
432,24,12581,1,0,0:0:0:0:
424,16,12664,5,0,0:0:0:0:
368,112,12749,1,0,0:0:0:0:
360,120,12833,5,0,0:0:0:0:
384,24,12918,1,0,0:0:0:0:
376,16,13001,5,0,0:0:0:0:
320,112,13086,1,0,0:0:0:0:
312,120,13170,5,0,0:0:0:0:
336,24,13255,1,0,0:0:0:0:
304,128,13338,6,0,L|192:120,1,65
0,24,13507,2,0,L|72:33,1,65
132,112,13676,2,0,P|76:152|68:288,1,195
192,368,14013,6,0,L|280:360,1,65
512,272,14181,6,0,L|424:280,1,65
280,296,14350,1,0,0:0:0:0:
280,296,14434,1,0,0:0:0:0:
424,344,14518,1,0,0:0:0:0:
424,344,14602,1,0,0:0:0:0:
352,320,14687,2,0,L|368:176,1,130
384,120,15024,5,0,0:0:0:0:
458,107,15108,1,0,0:0:0:0:
492,175,15192,1,0,0:0:0:0:
440,232,15277,1,0,0:0:0:0:
368,192,15361,2,0,L|272:208,1,65
208,256,15529,1,0,0:0:0:0:
200,328,15614,1,0,0:0:0:0:
96,376,15698,2,0,L|160:365,1,65
0,336,15867,1,0,0:0:0:0:
8,264,15952,1,0,0:0:0:0:
104,232,16035,6,0,L|112:144,1,65
136,24,16203,2,0,L|130:88,1,65
32,128,16372,2,0,L|264:120,1,195
336,64,16709,6,0,P|350:92|357:124,1,65
440,232,16878,2,0,P|430:261|412:289,1,65
312,336,17046,1,0,0:0:0:0:
256,302,17130,1,0,0:0:0:0:
193,288,17214,1,0,0:0:0:0:
128,292,17298,1,0,0:0:0:0:
68,316,17383,1,0,0:0:0:0:
444,316,17552,1,0,0:0:0:0:
440,304,17721,5,0,0:0:0:0:
432,232,17805,1,0,0:0:0:0:
512,216,17889,1,0,0:0:0:0:
504,144,17973,1,0,0:0:0:0:
432,288,18058,5,0,0:0:0:0:
424,216,18142,1,0,0:0:0:0:
504,200,18226,1,0,0:0:0:0:
496,128,18310,1,0,0:0:0:0:
424,272,18395,5,0,0:0:0:0:
416,200,18479,1,0,0:0:0:0:
496,184,18563,1,0,0:0:0:0:
488,112,18647,1,0,0:0:0:0:
408,184,18732,2,0,L|304:176,1,65
400,32,18900,2,0,L|464:36,1,65
408,256,19069,2,0,P|320:216|200:272,1,195
144,296,19406,6,0,P|144:328|152:376,1,65
72,232,19575,2,0,P|76:199|76:167,1,65
16,64,19743,1,0,0:0:0:0:
80,74,19827,1,0,0:0:0:0:
144,70,19911,1,0,0:0:0:0:
207,53,19995,1,0,0:0:0:0:
265,24,20080,2,0,B|280:104|280:104|308:120|308:120|332:244,1,195
408,360,20417,5,0,0:0:0:0:
479,345,20501,1,0,0:0:0:0:
425,298,20586,1,0,0:0:0:0:
355,312,20670,1,0,0:0:0:0:
288,328,20754,5,0,0:0:0:0:
433,282,20838,1,0,0:0:0:0:
288,328,20923,1,0,0:0:0:0:
440,267,21007,1,0,0:0:0:0:
288,328,21091,5,0,0:0:0:0:
446,250,21176,1,0,0:0:0:0:
288,328,21260,1,0,0:0:0:0:
451,233,21344,1,0,0:0:0:0:
288,328,21428,6,0,L|280:216,1,65
163,136,21597,2,0,L|168:72,1,65
72,48,21765,2,0,B|304:-8|192:96|449:25|449:25|328:56|368:192,1,520
256,192,22187,12,0,24631,2:0:0:0:
24,240,24799,6,0,P|33:201|56:176,1,65,0|0,0:0|2:0,0:0:0:0:
0,112,24968,2,0,L|64:96,1,65,0|0,0:0|2:0,0:0:0:0:
96,16,25136,1,0,0:0:0:0:
160,32,25221,1,0,0:0:0:0:
216,88,25305,1,0,0:0:0:0:
280,72,25389,1,0,0:0:0:0:
336,112,25473,2,0,B|396:136|396:136|452:104,1,130
460,56,25810,5,0,0:0:0:0:
452,104,25895,1,0,0:0:0:0:
344,160,25979,1,0,0:0:0:0:
336,112,26064,1,0,0:0:0:0:
462,47,26147,5,0,0:0:0:0:
453,100,26232,1,0,0:0:0:0:
344,168,26316,1,0,0:0:0:0:
335,116,26401,1,0,0:0:0:0:
464,37,26485,5,0,0:0:0:0:
454,95,26570,1,0,0:0:0:0:
343,178,26654,1,0,0:0:0:0:
333,120,26737,1,0,0:0:0:0:
256,24,26822,2,0,L|191:29,1,65
88,64,26990,2,0,B|81:92|81:92|97:124,1,65
16,168,27159,2,0,P|120:176|176:248,1,195
152,320,27496,1,0,0:0:0:0:
512,208,27665,1,0,0:0:0:0:
384,368,27833,5,0,0:0:0:0:
332,307,27917,1,0,0:0:0:0:
310,229,28001,1,0,0:0:0:0:
322,150,28085,1,0,0:0:0:0:
365,82,28170,1,0,0:0:0:0:
512,208,28338,1,0,0:0:0:0:
208,56,28507,2,0,L|307:46,1,65
208,56,28676,2,0,L|307:46,1,65
144,80,28844,5,0,0:0:0:0:
80,104,28929,1,0,0:0:0:0:
16,128,29013,1,0,0:0:0:0:
80,152,29097,1,0,0:0:0:0:
144,176,29181,1,0,0:0:0:0:
80,200,29265,1,0,0:0:0:0:
16,224,29349,1,0,0:0:0:0:
80,248,29434,1,0,0:0:0:0:
144,272,29518,1,0,0:0:0:0:
16,344,29603,6,0,L|80:336,1,65
144,272,29771,1,0,0:0:0:0:
232,272,29855,2,0,P|288:232|424:280,1,195
480,320,30192,2,0,L|472:384,1,65
396,321,30361,2,0,L|404:257,1,65
376,136,30529,5,0,0:0:0:0:
359,62,30613,1,0,0:0:0:0:
424,21,30697,1,0,0:0:0:0:
484,67,30781,1,0,0:0:0:0:
455,140,30866,1,0,0:0:0:0:
88,216,31035,1,0,0:0:0:0:
88,216,31203,5,0,0:0:0:0:
76,285,31288,1,0,0:0:0:0:
140,317,31372,1,0,0:0:0:0:
152,248,31457,1,0,0:0:0:0:
72,184,31541,5,0,0:0:0:0:
52,294,31626,1,0,0:0:0:0:
174,235,31709,1,0,0:0:0:0:
155,345,31794,1,0,0:0:0:0:
72,184,31878,5,0,0:0:0:0:
52,294,31963,1,0,0:0:0:0:
174,235,32046,1,0,0:0:0:0:
155,345,32131,1,0,0:0:0:0:
256,304,32215,2,0,L|336:320,1,65
376,376,32383,2,0,P|384:296|408:272,1,97.5,0|0,0:0|2:0,0:0:0:0:
464,232,32552,2,0,P|496:152|456:48,1,195
248,48,32889,6,0,L|408:64,1,130
192,136,33226,1,0,0:0:0:0:
129,119,33310,1,0,0:0:0:0:
67,135,33394,1,0,0:0:0:0:
20,179,33478,1,0,0:0:0:0:
0,240,33563,1,0,0:0:0:0:
0,8,33732,1,0,0:0:0:0:
0,240,33900,1,0,0:0:0:0:
20,179,33985,1,0,0:0:0:0:
67,135,34069,1,0,0:0:0:0:
129,119,34153,1,0,0:0:0:0:
192,136,34237,6,0,L|296:128,1,65
488,16,34406,2,0,L|423:20,1,65
208,352,34574,2,0,L|312:344,1,65
504,216,34743,2,0,L|439:220,1,65
368,272,34912,2,0,L|360:360,1,65,0|0,0:0|2:0,0:0:0:0:
448,216,35080,6,0,P|312:29|142:356,1,650,0|0,0:0|2:0,0:0:0:0:
24,328,35586,6,0,L|96:336,1,48.750001859665
72,333,35754,2,0,L|24:328,1,48.750001859665
128,384,35923,1,0,0:0:0:0:
200,336,36091,5,0,0:0:0:0:
232,342,36176,1,0,0:0:0:0:
229,353,36260,1,0,0:0:0:0:
262,362,36345,1,0,0:0:0:0:
262,350,36428,1,0,0:0:0:0:
293,352,36513,1,0,0:0:0:0:
296,364,36597,1,0,0:0:0:0:
329,355,36682,1,0,0:0:0:0:
323,345,36765,1,0,0:0:0:0:
360,340,36850,1,0,0:0:0:0:
351,331,36934,1,0,0:0:0:0:
374,310,37019,5,0,0:0:0:0:
408,248,37103,1,0,0:0:0:0:
408,248,37187,1,0,0:0:0:0:
360,144,37271,5,0,0:0:0:0:
394,82,37355,1,0,0:0:0:0:
394,82,37439,1,0,0:0:0:0:
394,82,37524,1,0,0:0:0:0:
352,24,37608,2,0,L|240:32,1,97.50000371933
189,132,37945,2,0,P|143:116|112:80,1,97.50000371933
48,24,38282,6,0,L|-40:16,1,48.750001859665
0,19,38451,2,0,L|48:23,1,48.750001859665
32,112,38619,1,0,0:0:0:0:
32,112,38788,5,0,0:0:0:0:
40,128,38872,1,0,0:0:0:0:
18,172,38956,1,0,0:0:0:0:
30,186,39040,1,0,0:0:0:0:
22,234,39125,1,0,0:0:0:0:
36,244,39209,1,0,0:0:0:0:
41,293,39293,1,0,0:0:0:0:
58,299,39377,1,0,0:0:0:0:
74,345,39462,1,0,0:0:0:0:
92,347,39546,1,0,0:0:0:0:
120,387,39631,5,0,0:0:0:0:
200,344,39715,1,0,0:0:0:0:
200,344,39799,1,0,0:0:0:0:
200,344,39883,1,0,0:0:0:0:
288,368,39968,5,0,0:0:0:0:
368,324,40052,1,0,0:0:0:0:
368,324,40136,1,0,0:0:0:0:
368,324,40220,1,0,0:0:0:0:
456,344,40305,2,0,L|504:336,1,48.750001859665
504,335,40473,1,0,0:0:0:0:
8,280,40642,1,0,0:0:0:0:
8,280,40810,1,0,0:0:0:0:
64,200,40979,6,0,L|56:112,1,65
0,32,41147,2,0,L|88:64,1,65
128,96,41316,2,0,P|200:80|280:128,1,130
328,144,41569,1,0,0:0:0:0:
376,184,41653,5,0,0:0:0:0:
376,184,41737,1,0,0:0:0:0:
397,244,41821,1,0,0:0:0:0:
373,302,41905,1,0,0:0:0:0:
312,336,41990,5,0,0:0:0:0:
312,336,42074,1,0,0:0:0:0:
252,315,42158,1,0,0:0:0:0:
194,339,42242,1,0,0:0:0:0:
128,336,42327,6,0,L|56:344,1,65
176,184,42496,2,0,L|104:192,1,65
96,40,42664,2,0,L|24:48,1,65
31,47,42833,1,0,0:0:0:0:
31,47,42917,1,0,0:0:0:0:
0,120,43001,6,0,P|16:144|40:224,1,65
63,343,43170,2,0,P|75:313|93:286,1,65
216,176,43338,2,0,P|189:188|107:199,1,65
154,197,43507,1,0,0:0:0:0:
154,197,43591,1,0,0:0:0:0:
288,336,43676,5,0,0:0:0:0:
376,328,43760,2,0,L|464:320,1,65
368,344,43928,1,0,0:0:0:0:
496,240,44013,5,0,0:0:0:0:
408,232,44097,2,0,L|320:224,1,65
416,248,44265,1,0,0:0:0:0:
272,136,44350,5,0,0:0:0:0:
360,128,44434,2,0,L|448:120,1,65
352,144,44602,1,0,0:0:0:0:
504,32,44687,5,0,0:0:0:0:
416,24,44771,2,0,L|328:16,1,65
424,40,44939,1,0,0:0:0:0:
256,16,45024,5,0,0:0:0:0:
160,32,45108,1,0,0:0:0:0:
160,32,45192,1,0,0:0:0:0:
144,104,45277,1,0,0:0:0:0:
88,176,45361,5,0,0:0:0:0:
184,192,45445,1,0,0:0:0:0:
184,192,45529,1,0,0:0:0:0:
200,264,45614,1,0,0:0:0:0:
216,352,45698,6,0,L|232:192,1,130
296,144,46035,2,0,L|280:-16,1,130
256,384,46372,1,0,0:0:0:0:
256,192,46456,12,0,48900,0:0:0:0:
24,48,49069,6,0,L|112:56,1,48.750001859665
144,16,49237,2,0,L|181:96,1,48.750001859665
160,72,49406,2,0,L|216:192,1,97.50000371933
200,176,49659,5,0,0:0:0:0:
164,256,49743,1,0,0:0:0:0:
210,264,49827,1,0,0:0:0:0:
247,294,49911,1,0,0:0:0:0:
264,339,49995,1,0,0:0:0:0:
352,368,50080,1,0,0:0:0:0:
371,323,50164,1,0,0:0:0:0:
411,296,50248,1,0,0:0:0:0:
458,293,50332,1,0,0:0:0:0:
496,312,50417,6,0,L|504:240,1,48.750001859665
480,192,50586,1,0,0:0:0:0:
480,192,50670,1,0,0:0:0:0:
432,136,50754,2,0,L|440:64,1,48.750001859665
416,16,50923,1,0,0:0:0:0:
416,16,51007,1,0,0:0:0:0:
336,24,51091,6,0,L|231:34,1,97.50000371933
16,176,51428,2,0,P|40:224|96:248,1,97.50000371933
160,336,51765,6,0,L|153:287,1,48.750001859665
104,168,51934,2,0,L|110:119,1,48.750001859665
80,56,52103,1,0,0:0:0:0:
80,0,52271,2,0,L|73:48,1,48.750001859665
112,128,52440,2,0,L|105:176,1,48.750001859665
152,256,52608,2,0,L|145:304,1,48.750001859665
40,376,52777,2,0,L|104:368,1,48.750001859665
272,328,52945,2,0,L|223:334,1,48.750001859665
160,368,53114,5,0,0:0:0:0:
223,333,53198,1,0,0:0:0:0:
239,341,53282,1,0,0:0:0:0:
255,349,53367,1,0,0:0:0:0:
328,344,53451,5,0,0:0:0:0:
391,379,53535,1,0,0:0:0:0:
407,371,53619,1,0,0:0:0:0:
423,363,53704,1,0,0:0:0:0:
480,312,53788,1,0,0:0:0:0:
482,263,53872,1,0,0:0:0:0:
469,216,53956,1,0,0:0:0:0:
304,88,54125,2,0,L|440:96,1,97.50000371933
208,48,54462,6,0,L|130:43,1,48.750001859665
0,112,54631,2,0,L|48:114,1,48.750001859665
120,144,54799,2,0,P|131:177|103:262,1,97.50000371933
64,304,55052,1,0,0:0:0:0:
90,329,55136,1,0,0:0:0:0:
141,318,55221,1,0,0:0:0:0:
90,317,55305,1,0,0:0:0:0:
140,329,55390,1,0,0:0:0:0:
95,307,55473,1,0,0:0:0:0:
135,339,55558,1,0,0:0:0:0:
103,299,55642,1,0,0:0:0:0:
127,347,55727,1,0,0:0:0:0:
168,360,55810,5,0,0:0:0:0:
256,344,55895,1,0,0:0:0:0:
256,344,55979,1,0,0:0:0:0:
256,344,56063,1,0,0:0:0:0:
344,288,56148,5,0,0:0:0:0:
256,272,56232,1,0,0:0:0:0:
256,272,56316,1,0,0:0:0:0:
256,272,56401,1,0,0:0:0:0:
168,216,56485,5,0,0:0:0:0:
256,200,56570,1,0,0:0:0:0:
256,200,56654,1,0,0:0:0:0:
256,200,56738,1,0,0:0:0:0:
344,144,56823,5,0,0:0:0:0:
256,128,56907,1,0,0:0:0:0:
256,128,56991,1,0,0:0:0:0:
256,128,57074,1,0,0:0:0:0:
176,80,57159,6,0,L|168:16,1,48.750001859665
176,80,57327,2,0,L|168:16,1,48.750001859665
80,248,57496,6,0,L|88:184,1,48.750001859665
86,199,57664,2,0,L|80:248,1,48.750001859665
304,320,57833,6,0,L|312:384,1,48.750001859665
304,320,58001,2,0,L|312:384,1,48.750001859665
432,72,58170,6,0,L|438:23,1,48.750001859665
438,23,58338,2,0,L|432:72,1,48.750001859665
336,96,58507,5,0,0:0:0:0:
424,144,58591,1,0,0:0:0:0:
428,160,58676,1,0,0:0:0:0:
432,176,58760,1,0,0:0:0:0:
436,192,58844,5,0,0:0:0:0:
348,144,58928,1,0,0:0:0:0:
344,128,59013,1,0,0:0:0:0:
340,112,59097,1,0,0:0:0:0:
256,56,59181,6,0,P|244:102|250:150,1,97.50000371933
256,336,59518,2,0,P|262:287|251:240,1,97.50000371933
52,284,59855,6,0,L|188:288,2,126.749994197846
0,216,60445,1,0,0:0:0:0:
16,84,60614,1,0,0:0:0:0:
16,84,60698,1,0,0:0:0:0:
0,216,60867,1,0,0:0:0:0:
0,216,61035,1,0,0:0:0:0:
100,108,61204,6,0,P|150:91|187:14,2,126.749994197846
52,284,61794,1,0,0:0:0:0:
52,284,61878,2,0,L|60:348,1,42.2499980659486
57,325,62046,1,0,0:0:0:0:
52,336,62215,1,0,0:0:0:0:
129,304,62299,1,0,0:0:0:0:
212,313,62383,1,0,0:0:0:0:
281,361,62467,1,0,0:0:0:0:
360,316,62552,6,0,L|508:304,2,126.749994197846
284,272,63142,1,0,0:0:0:0:
512,144,63311,1,0,0:0:0:0:
512,144,63395,1,0,0:0:0:0:
424,132,63563,2,0,L|330:122,1,84.4999961318971
176,184,63900,6,0,L|82:194,1,84.4999961318971
88,204,64153,2,0,L|96:119,1,84.4999961318971
44,72,64406,1,0,0:0:0:0:
88,16,64490,1,0,0:0:0:0:
144,64,64574,2,0,L|220:68,1,42.2499980659486
144,64,64743,1,0,0:0:0:0:
344,120,64912,2,0,L|428:112,1,84.4999961318971
480,176,65249,6,0,P|480:256|488:292,1,84.4999961318971
416,300,65501,2,0,P|416:380|408:416,2,84.4999961318971
340,272,65923,1,0,0:0:0:0:
340,272,66007,1,0,0:0:0:0:
340,272,66091,1,0,0:0:0:0:
87,347,66260,2,0,L|172:340,1,84.4999961318971
244,280,66597,2,0,P|252:217|228:159,2,126.749994197846
8,292,67271,6,0,P|148:264|324:356,1,331.500006322861
504,92,67945,6,0,P|364:120|188:28,1,331.500006322861
36,28,68619,6,0,B|33:236|126:110|122:341,1,331.500006322861
390,337,69294,6,0,B|386:110|479:236|477:28,1,331.500006322861
256,192,69968,12,0,70473,0:0:0:0:
72,384,70642,6,0,B|113:327|86:254|86:254|108:274|107:295|107:295|104:313|108:402|108:402|90:368|90:368|346:330|346:330|346:330|346:330|115:366|115:366|176:383|100:402|203:404|142:418|90:421|72:441|149:439|149:439|99:449|116:467|116:467|107:456|107:456|113:480|215:468|94:472|94:472|83:470|83:470|74:436|72:455|72:413|72:402|72:369,1,1267.49996131897
80,33,70642,2,0,P|131:13|220:33,1,136.499995834351
144,80,70642,2,0,B|137:105|144:131|144:131|150:131|156:118|163:105|142:72|150:80,1,97.4999970245362
384,120,70642,2,0,B|389:142|384:164|384:164|378:164|372:153|367:142|385:113|378:120,1,97.4999970245362
328,104,70642,2,0,P|386:89|444:107,1,116.999996429443
200,232,70642,2,0,P|275:242|313:275,1,116.999996429443
504,0,70642,2,0,P|268:495|18:6,1,1364.99995834351
256,192,81428,6,0,L|251:256,1,65
216,320,81597,1,0,0:0:0:0:
136,344,81681,2,0,P|86:287|88:232,1,130
160,136,81934,2,0,L|168:64,1,65
96,32,82103,2,0,L|72:208,1,130
64,304,82355,1,0,0:0:0:0:
8,353,82440,2,0,P|96:337|176:361,1,130
256,336,82692,1,0,0:0:0:0:
360,360,82777,6,0,L|376:280,1,65
470,296,82945,2,0,L|424:228,1,65
504,172,83114,2,0,L|424:156,1,65
441,62,83282,2,0,L|373:107,1,65
288,100,83451,5,0,0:0:0:0:
99,49,83619,1,0,0:0:0:0:
49,237,83788,1,0,0:0:0:0:
236,288,83956,1,0,0:0:0:0:
112,272,84125,6,0,B|120:239|120:239|102:166,1,65
56,136,84294,1,0,0:0:0:0:
76,44,84378,2,0,B|131:41|131:41|155:53|155:53|231:49,1,130
276,100,84631,2,0,L|376:88,1,65
420,44,84799,6,0,P|433:76|427:124,1,65,0|0,0:0|0:0,0:0:0:0:
505,147,84967,2,0,P|491:179|453:209,1,65,0|0,0:0|0:0,0:0:0:0:
492,282,85136,2,0,P|459:295|411:289,1,65,0|0,0:0|0:0,0:0:0:0:
388,368,85304,2,0,P|355:354|325:316,1,65,0|0,0:0|0:0,0:0:0:0:
256,304,85473,5,0,0:0:0:0:
168,320,85558,2,0,L|160:384,1,65
76,352,85726,2,0,P|33:258|92:154,1,195
0,72,86063,1,0,0:0:0:0:
0,72,86147,2,0,L|160:56,1,130
512,144,86485,2,0,L|382:156,1,130
168,240,86822,6,0,L|152:360,1,65
256,352,86990,1,0,0:0:0:0:
355,320,87074,2,0,L|336:192,1,130
320,112,87327,1,0,0:0:0:0:
424,40,87496,6,0,P|416:88|424:144,1,65
88,104,87664,2,0,P|95:72|96:39,1,65
512,24,87833,2,0,P|504:72|512:128,1,65
0,88,88001,2,0,P|7:56|8:23,1,65
256,80,88170,6,0,L|256:232,1,130
224,280,88423,1,0,0:0:0:0:
152,320,88507,2,0,L|56:328,1,65
0,336,88676,1,0,0:0:0:0:
512,336,88844,1,0,0:0:0:0:
400,368,89013,2,0,P|368:304|432:104,1,260
496,24,89518,6,0,L|400:32,1,65
16,24,89687,2,0,L|112:32,1,65
360,96,89855,2,0,L|338:157,1,65
152,96,90024,2,0,L|173:157,1,65
338,226,90192,2,0,L|360:288,1,65
173,226,90361,2,0,L|152:288,1,65
496,360,90529,2,0,L|400:352,1,65
16,360,90698,2,0,L|112:352,1,65
240,360,90867,5,0,0:0:0:0:
240,312,90951,1,0,0:0:0:0:
272,272,91035,5,0,0:0:0:0:
272,224,91119,1,0,0:0:0:0:
240,160,91204,5,0,0:0:0:0:
240,112,91288,1,0,0:0:0:0:
272,72,91372,5,0,0:0:0:0:
272,24,91456,1,0,0:0:0:0:
256,192,91541,1,0,0:0:0:0:
60,88,91709,1,0,0:0:0:0:
70,204,91793,1,0,0:0:0:0:
143,296,91877,1,0,0:0:0:0:
256,330,91961,1,0,0:0:0:0:
368,295,92046,1,0,0:0:0:0:
441,203,92130,1,0,0:0:0:0:
450,86,92214,1,0,0:0:0:0:
256,192,92299,12,0,94743,0:0:0:0:
56,64,94912,5,0,0:0:0:0:
256,144,95080,1,0,0:0:0:0:
48,312,95249,1,0,0:0:0:0:
120,272,95333,1,0,0:0:0:0:
120,352,95417,1,0,0:0:0:0:
448,368,95586,2,0,L|440:238,1,130
440,238,95923,1,0,0:0:0:0:
504,32,96091,2,0,P|400:24|296:136,1,260
504,32,96597,1,0,0:0:0:0:
32,72,96765,6,0,L|112:64,1,65
184,80,96934,1,0,0:0:0:0:
192,104,97018,1,0,0:0:0:0:
200,128,97103,1,0,0:0:0:0:
128,344,97271,1,0,0:0:0:0:
120,320,97356,1,0,0:0:0:0:
112,296,97440,1,0,0:0:0:0:
0,240,97608,6,0,P|104:208|280:304,1,260
408,248,98114,1,0,0:0:0:0:
472,48,98282,1,0,0:0:0:0:
472,48,98367,1,0,0:0:0:0:
472,48,98451,1,0,0:0:0:0:
400,16,98619,6,0,P|392:56|408:120,1,65
496,224,98788,2,0,P|408:264|416:400,1,195
272,384,99125,2,0,P|224:303|130:293,1,195
0,208,99462,2,0,L|176:192,1,130
256,144,99799,1,0,0:0:0:0:
256,144,99883,1,0,0:0:0:0:
224,64,99968,1,0,0:0:0:0:
504,32,100136,1,0,0:0:0:0:
8,64,100305,5,0,0:0:0:0:
8,64,100473,1,0,0:0:0:0:
256,64,100642,2,0,L|176:72,1,65
312,120,100810,1,0,0:0:0:0:
56,368,100979,2,0,P|48:280|64:232,1,130
59,241,101316,1,0,0:0:0:0:
32,208,101400,1,0,0:0:0:0:
8,184,101485,2,0,L|296:208,1,260
415,364,101990,6,0,P|465:326|480:264,1,130
480,263,102327,1,0,0:0:0:0:
512,24,102496,2,0,B|325:24|445:96|269:96,1,260
48,40,103001,5,0,0:0:0:0:
17,95,103085,1,0,0:0:0:0:
38,155,103169,1,0,0:0:0:0:
96,179,103253,1,0,0:0:0:0:
160,184,103339,1,0,0:0:0:0:
218,208,103424,1,0,0:0:0:0:
239,268,103508,1,0,0:0:0:0:
208,323,103592,1,0,0:0:0:0:
144,344,103676,6,0,L|64:336,1,65
144,344,103844,6,0,L|40:333,1,97.50000371933
144,344,104013,6,0,L|0:329,3,130
360,352,104350,2,0,P|423:362|484:341,1,130
484,341,104519,2,0,P|420:328|359:347,1,130
360,352,104687,2,0,P|423:362|484:341,1,130
484,341,104855,2,0,P|420:328|359:347,1,130
360,352,105024,2,0,P|423:362|484:341,1,130
384,208,105192,6,0,P|112:136|400:128,1,780
389,85,105698,1,0,0:0:0:0:
389,85,105867,1,0,0:0:0:0:
32,40,106035,2,0,L|136:56,1,65
152,96,106204,1,0,0:0:0:0:
0,352,106372,6,0,L|64:342,1,65
96,264,106541,2,0,L|160:273,1,65
136,376,106710,2,0,L|200:366,1,65
232,288,106878,2,0,P|328:248|464:312,1,260
462,309,107383,5,0,0:0:0:0:
488,128,107552,2,0,L|504:232,1,65
392,376,107721,2,0,L|360:192,1,130
176,32,108058,2,0,P|80:48|16:200,1,260
32,296,108563,6,0,L|26:360,1,65
128,232,108732,2,0,L|122:167,1,65
32,296,108900,2,0,L|26:360,1,65
144,264,109069,2,0,L|128:120,1,130
0,32,109406,1,0,0:0:0:0:
72,64,109490,1,0,0:0:0:0:
152,40,109574,2,0,P|256:40|352:128,1,195
488,152,109912,2,0,P|385:171|308:276,1,195
264,352,110249,2,0,P|248:312|232:248,1,65
208,144,110417,1,0,0:0:0:0:
40,264,110586,6,0,P|36:225|448:336,1,780
475,262,111091,5,0,0:0:0:0:
344,312,111260,1,0,0:0:0:0:
16,72,111428,2,0,L|120:80,1,65
144,120,111597,1,0,0:0:0:0:
368,16,111765,2,0,P|408:56|400:160,1,130
480,296,112103,1,0,0:0:0:0:
480,296,112271,2,0,L|192:328,1,260
64,368,112777,2,0,P|24:256|48:208,1,130
104,192,113029,1,0,0:0:0:0:
24,96,113114,2,0,P|15:45|59:-8,1,65
128,16,113282,6,0,L|424:56,1,260
330,156,113788,5,0,0:0:0:0:
220,116,113873,1,0,0:0:0:0:
180,226,113957,1,0,0:0:0:0:
290,266,114041,1,0,0:0:0:0:
355,192,114125,5,0,0:0:0:0:
254,91,114210,1,0,0:0:0:0:
155,192,114294,1,0,0:0:0:0:
256,291,114378,1,0,0:0:0:0:
362,240,114462,5,0,0:0:0:0:
305,84,114547,1,0,0:0:0:0:
148,141,114631,1,0,0:0:0:0:
206,298,114715,1,0,0:0:0:0:
348,300,114799,5,0,0:0:0:0:
364,98,114884,1,0,0:0:0:0:
162,82,114968,1,0,0:0:0:0:
146,284,115052,1,0,0:0:0:0:
80,192,115136,5,0,0:0:0:0:
112,192,115221,1,0,0:0:0:0:
131,67,115305,5,0,0:0:0:0:
154,90,115390,1,0,0:0:0:0:
256,16,115473,5,0,0:0:0:0:
256,48,115558,1,0,0:0:0:0:
380,67,115642,5,0,0:0:0:0:
357,90,115727,1,0,0:0:0:0:
432,192,115810,5,0,0:0:0:0:
400,192,115895,1,0,0:0:0:0:
256,168,115979,2,0,B|256:316|256:316|256:364|256:364|256:156,1,390
256,300,116147,1,0,0:0:0:0:
256,364,116232,1,0,0:0:0:0:
256,300,116316,1,0,0:0:0:0:
256,236,116400,1,0,0:0:0:0:
