osu file format v14

[General]
AudioFilename: audio.mp3
AudioLeadIn: 0
PreviewTime: 94945
Countdown: 0
SampleSet: Normal
StackLeniency: 0.2
Mode: 0
LetterboxInBreaks: 0
WidescreenStoryboard: 1

[Editor]
DistanceSpacing: 1
BeatDivisor: 4
GridSize: 16
TimelineZoom: 1.8

[Metadata]
Title:HYENA
TitleUnicode:HYENA
Artist:Hommarju
ArtistUnicode:Hommarju
Creator:Hey lululu
Version:Normal
Source:beatmania IIDX 21 SPADA
Tags:Electronic Instrumental arcade rhythm video game dancedancerevolution (2013) ddr jubeat saucer pop'n music sunny park reflec beat rb colette -all seasons- sound voltex ii -infinite infection- sdvx ミライダガッキ futuretomtom ver.2 otst#7 Ro32 HD3 -_AzRaeL_- lu^3 GfMRT yf_bmp
BeatmapID:4215563
BeatmapSetID:1809033

[Difficulty]
HPDrainRate:4
CircleSize:3.8
OverallDifficulty:5
ApproachRate:5
SliderMultiplier:0.999999999999999
SliderTickRate:1

[Events]
//Background and Video events
0,0,"BG.jpg",0,0
//Break Periods
//Storyboard Layer 0 (Background)
//Storyboard Layer 1 (Fail)
//Storyboard Layer 2 (Pass)
//Storyboard Layer 3 (Foreground)
//Storyboard Layer 4 (Overlay)
//Storyboard Sound Samples

[TimingPoints]
648,337.078651685393,4,2,1,60,1,0
11434,-100,4,3,1,75,0,0
35704,-100,4,2,1,70,0,0
41097,-100,4,3,1,70,0,0
49187,-100,4,1,1,75,0,0
55928,-100,4,3,1,75,0,0
59973,-100,4,2,1,70,0,0
70760,-100,4,2,1,60,0,0
81546,-100,4,3,1,70,0,0
95030,-100,4,1,1,80,0,1
105310,-100,4,1,1,80,0,0
105816,-100,4,1,1,80,0,1
110704,-100,4,1,1,80,0,0
111209,-100,4,1,1,80,0,1
116603,-100,4,1,1,80,0,0
117951,-100,4,1,1,80,0,0

[Colours]
Combo1 : 221,81,81
Combo2 : 255,128,64
Combo3 : 128,64,64
Combo4 : 255,201,147

[HitObjects]
256,192,648,5,4,3:0:0:0:
256,192,3344,1,4,3:0:0:0:
256,192,6041,1,4,3:0:0:0:
256,192,8737,1,4,3:0:0:0:
256,192,11434,6,0,P|301:182|368:190,1,99.9999999999999,4|2,3:0|0:1,0:0:0:0:
427,254,12108,1,0,0:0:0:0:
370,336,12445,2,0,L|304:349,1,50,2|2,0:0|0:0,0:0:0:0:
272,334,12782,2,0,L|206:347,1,50,2|2,0:0|0:0,0:0:0:0:
184,375,13119,1,2,0:0:0:0:
129,291,13456,1,2,0:1:0:0:
31,312,13794,2,0,L|50:243,1,50,2|0,0:1|0:0,0:0:0:0:
69,220,14131,6,0,B|78:171|78:171|55:111,1,99.9999999999999,4|2,0:0|0:1,0:0:0:0:
17,33,14805,1,0,0:0:0:0:
116,19,15142,2,0,L|178:27,1,50,2|2,0:0|0:0,0:0:0:0:
215,33,15479,2,0,L|197:93,1,50,2|2,0:0|0:0,0:0:0:0:
187,129,15816,1,2,0:0:0:0:
277,172,16153,2,0,B|322:158|322:158|394:174,1,99.9999999999999,2|2,0:1|0:1,0:0:0:0:
469,140,16827,6,0,L|482:249,1,99.9999999999999,4|2,0:0|0:1,0:0:0:0:
497,337,17501,1,0,0:0:0:0:
404,298,17839,2,0,L|339:279,1,50,2|2,0:0|0:0,0:0:0:0:
309,265,18176,2,0,L|286:330,1,50,2|2,0:0|0:0,0:0:0:0:
249,337,18513,1,2,0:0:0:0:
158,294,18850,1,2,0:1:0:0:
158,294,19018,2,0,B|131:258|131:258|152:191,1,99.9999999999999,4|0,3:0|0:0,0:0:0:0:
170,161,19524,6,0,L|161:51,1,99.9999999999999,4|2,3:0|0:1,0:0:0:0:
65,34,20198,1,0,0:0:0:0:
0,110,20535,2,0,L|56:154,1,50,2|2,0:0|0:0,0:0:0:0:
75,176,20872,2,0,L|34:234,1,50,2|2,0:0|0:0,0:0:0:0:
15,256,21209,1,2,0:0:0:0:
95,314,21546,2,0,L|213:288,1,99.9999999999999,2|2,0:1|0:1,0:0:0:0:
290,271,22221,5,4,0:0:0:0:
431,32,24917,6,0,L|371:46,1,50,4|0,0:0|0:0,0:0:0:0:
333,56,25254,2,0,L|348:107,1,50,2|0,0:1|0:0,0:0:0:0:
364,150,25591,1,0,0:0:0:0:
422,231,25928,6,0,L|402:287,1,50,2|2,0:0|0:0,0:0:0:0:
381,322,26265,2,0,B|332:320|332:320|281:287,1,99.9999999999999,2|2,0:0|0:0,0:0:0:0:
224,215,26940,2,0,L|166:228,1,50,2|8,0:1|0:0,0:0:0:0:
126,236,27277,1,2,0:1:0:0:
58,162,27614,6,0,L|76:98,1,50,4|0,0:0|0:0,0:0:0:0:
92,68,27951,2,0,L|156:86,1,50,2|0,0:1|0:0,0:0:0:0:
176,115,28288,1,0,0:0:0:0:
239,37,28625,2,0,L|307:20,1,50,2|2,0:0|0:0,0:0:0:0:
336,14,28962,2,0,L|450:36,1,99.9999999999999,2|2,0:0|0:0,0:0:0:0:
504,103,29636,2,0,L|490:152,1,50,2|8,0:1|0:0,0:0:0:0:
512,197,29973,1,2,0:1:0:0:
413,179,30310,6,0,L|352:192,1,50,4|0,0:0|0:0,0:0:0:0:
314,195,30647,2,0,L|301:137,1,50,2|0,0:1|0:0,0:0:0:0:
291,97,30985,1,0,0:0:0:0:
211,35,31322,2,0,L|146:48,1,50,2|2,0:0|0:0,0:0:0:0:
112,53,31659,2,0,B|97:117|97:117|115:153,1,99.9999999999999,2|2,0:0|0:0,0:0:0:0:
196,201,32333,2,0,L|173:255,1,50,2|12,0:1|0:0,0:0:0:0:
155,292,32670,1,2,0:1:0:0:
82,360,33007,6,0,L|64:295,1,50,4|0,0:0|0:0,0:0:0:0:
24,288,33344,2,0,L|48:224,1,50,2|0,0:1|0:0,0:0:0:0:
59,194,33681,1,0,0:0:0:0:
10,106,34018,2,0,L|64:88,1,50,2|2,0:0|0:0,0:0:0:0:
79,44,34355,2,0,L|195:69,1,99.9999999999999,2|2,0:0|0:0,0:0:0:0:
266,109,35030,2,0,P|277:140|433:152,1,200,2|6,0:1|3:0,0:0:0:0:
256,192,35788,12,6,38400,3:0:0:0:
256,0,41097,6,0,L|256:61,1,50,6|0,0:0|0:0,0:0:0:0:
256,100,41434,1,2,0:0:0:0:
174,158,41771,2,0,L|289:195,1,99.9999999999999,2|2,0:0|0:0,0:0:0:0:
315,208,42277,1,2,0:0:0:0:
315,208,42445,2,0,L|278:307,1,99.9999999999999,2|2,0:0|0:0,0:0:0:0:
259,347,42951,1,0,0:0:0:0:
159,354,43288,2,0,B|129:317|129:317|127:252,1,99.9999999999999,4|0,0:0|0:0,0:0:0:0:
160,227,43794,6,0,L|186:165,1,50,6|2,0:0|0:0,0:0:0:0:
201,135,44131,2,0,L|268:160,1,50,2|2,0:0|0:0,0:0:0:0:
339,192,44636,2,0,L|406:217,1,50,2|2,0:0|0:0,0:0:0:0:
433,224,44973,1,2,0:0:0:0:
433,224,45142,2,0,L|465:122,1,99.9999999999999,2|2,0:0|0:0,0:0:0:0:
479,81,45647,1,0,0:0:0:0:
479,81,45816,2,0,L|422:61,1,50,2|2,0:0|0:0,0:0:0:0:
387,40,46153,2,0,L|323:50,1,50,2|2,0:0|0:0,0:0:0:0:
288,55,46490,5,4,3:0:0:0:
47,314,49187,6,0,L|-17:336,2,50,6|0|2,3:0|3:0|0:3,0:0:0:0:
113,239,49861,2,0,L|147:129,1,99.9999999999999,2|2,0:3|0:3,0:0:0:0:
161,97,50367,1,2,0:3:0:0:
161,97,50535,2,0,L|278:133,1,99.9999999999999,2|2,3:0|0:3,0:0:0:0:
310,210,51209,2,0,L|341:258,1,50,2|2,0:3|3:0,0:0:0:0:
366,292,51546,2,0,L|410:266,1,50,2|2,3:0|3:0,0:0:0:0:
455,247,51883,6,0,L|482:289,2,50,6|0|2,3:0|3:0|0:3,0:0:0:0:
397,164,52558,2,0,L|421:53,1,99.9999999999999,2|2,0:3|0:3,0:0:0:0:
425,16,53063,1,2,3:0:0:0:
425,16,53232,2,0,B|376:31|376:31|324:20,1,99.9999999999999,2|2,3:0|0:3,0:0:0:0:
228,14,53906,2,0,L|169:33,1,50,2|2,0:3|3:0,0:0:0:0:
131,39,54243,2,0,L|146:86,1,50,2|2,3:0|3:0,0:0:0:0:
144,136,54580,6,0,L|85:155,2,50,6|0|2,3:0|3:0|0:3,0:0:0:0:
243,130,55254,2,0,B|261:171|261:171|247:230,1,99.9999999999999,2|2,0:3|0:3,0:0:0:0:
234,272,55760,1,2,3:0:0:0:
234,272,55928,2,0,L|116:299,1,99.9999999999999,2|2,0:0|0:0,0:0:0:0:
41,326,56603,2,0,L|57:265,1,50,2|6,0:0|0:0,0:0:0:0:
24,237,56940,2,0,L|40:176,1,50,2|2,0:0|0:0,0:0:0:0:
38,138,57277,6,0,L|158:121,1,99.9999999999999,6|2,0:0|0:0,0:0:0:0:
184,140,57782,1,2,0:0:0:0:
184,140,57951,2,0,L|304:123,1,99.9999999999999,2|2,0:0|0:0,0:0:0:0:
365,69,58625,2,0,B|396:107|396:107|377:165,1,99.9999999999999,2|2,0:0|0:0,0:0:0:0:
292,204,59299,2,0,L|304:262,1,50,2|10,0:0|0:0,0:0:0:0:
351,264,59636,2,0,L|363:322,1,50,10|10,0:0|0:0,0:0:0:0:
342,359,59973,6,0,L|457:389,2,99.9999999999999,12|8|10,3:2|0:0|0:0,0:0:0:0:
247,380,60985,1,10,0:0:0:0:
247,380,61153,2,0,L|225:277,1,99.9999999999999,0|0,0:0|3:0,0:0:0:0:
183,256,61659,1,8,0:0:0:0:
242,175,61996,1,8,0:0:0:0:
205,79,62333,2,0,L|223:17,1,50,8|8,0:3|0:3,0:0:0:0:
262,5,62670,6,0,B|313:0|313:0|359:36,1,99.9999999999999,8|8,3:2|0:0,0:0:0:0:
436,81,63344,1,8,0:0:0:0:
371,156,63681,1,10,0:0:0:0:
462,197,64018,2,0,L|477:256,1,50,8|0,3:2|3:0,0:0:0:0:
490,293,64355,2,0,L|370:277,1,99.9999999999999,8|8,0:0|3:2,0:0:0:0:
343,264,64861,2,0,B|294:269|294:269|245:289,1,99.9999999999999,8|8,0:3|0:3,0:0:0:0:
200,307,65367,6,0,L|82:324,1,99.9999999999999,4|8,3:2|0:0,0:0:0:0:
20,261,66041,1,8,0:0:0:0:
20,261,66209,2,0,L|53:159,1,99.9999999999999,0|0,3:0|0:0,0:0:0:0:
27,121,66715,1,8,3:2:0:0:
95,48,67052,1,8,0:0:0:0:
186,88,67389,6,0,L|287:122,1,99.9999999999999,4|0,3:1|0:0,0:0:0:0:
327,137,67895,1,0,3:0:0:0:
327,137,68063,2,0,L|346:200,1,50,4|4,3:0|3:1,0:0:0:0:
375,279,68569,2,0,L|440:309,2,50,0|4|4,3:0|3:0|3:1,0:0:0:0:
298,343,69243,2,0,L|344:364,2,50,0|4|4,3:0|3:0|3:1,0:0:0:0:
251,325,69749,1,0,3:0:0:0:
153,305,70086,2,0,L|133:351,2,50,4|0|0,3:0|3:0|3:0,0:0:0:0:
88,228,70760,5,4,3:0:0:0:
424,228,73456,1,4,3:0:0:0:
88,156,76153,1,4,3:0:0:0:
424,156,78850,1,4,3:0:0:0:
256,384,81546,6,0,L|256:256,1,99.9999999999999,4|0,3:0|0:0,0:0:0:0:
256,233,82052,1,0,0:0:0:0:
256,233,82221,2,0,L|256:160,1,50,2|2,0:0|0:0,0:0:0:0:
256,128,82558,2,0,L|256:55,1,50,2|2,0:0|0:0,0:0:0:0:
256,27,82895,2,0,L|31:27,1,200,0|2,0:0|0:0,0:0:0:0:
58,226,84243,6,0,L|186:226,1,99.9999999999999,4|0,3:0|0:0,0:0:0:0:
208,226,84749,1,0,0:0:0:0:
208,226,84917,2,0,L|272:226,1,50,2|2,0:0|0:0,0:0:0:0:
308,227,85254,2,0,L|372:227,1,50,2|2,0:0|0:0,0:0:0:0:
408,227,85591,2,0,L|408:21,1,200,0|2,0:0|0:0,0:0:0:0:
207,18,86940,6,0,L|207:146,1,99.9999999999999,4|0,3:0|0:0,0:0:0:0:
207,169,87446,1,0,0:0:0:0:
207,169,87615,2,0,L|207:242,1,50,2|2,0:0|0:0,0:0:0:0:
207,274,87952,2,0,L|207:347,1,50,2|2,0:0|0:0,0:0:0:0:
207,375,88289,2,0,L|432:375,1,200,0|2,0:0|0:0,0:0:0:0:
456,378,89131,1,4,0:0:0:0:
458,278,89468,1,0,0:0:0:0:
458,278,89636,6,0,L|338:278,1,99.9999999999999,4|2,3:0|0:0,0:0:0:0:
307,278,90142,1,2,0:0:0:0:
307,278,90310,2,0,L|234:278,1,50,2|2,0:0|0:0,0:0:0:0:
202,278,90647,2,0,L|129:278,1,50,2|2,0:0|0:0,0:0:0:0:
101,275,90985,2,0,L|101:69,1,200,0|2,0:0|0:0,0:0:0:0:
101,25,91827,2,0,L|227:25,1,99.9999999999999,10|10,0:0|0:0,0:0:0:0:
251,25,92333,5,4,3:0:0:0:
417,18,95030,6,0,P|437:43|440:72,1,50,4|0,3:0|3:0,0:0:0:0:
421,106,95367,2,0,P|366:121|330:144,1,99.9999999999999,2|2,0:3|0:3,0:0:0:0:
282,231,96041,1,2,0:3:0:0:
249,193,96209,1,2,0:3:0:0:
198,193,96378,2,0,L|127:181,1,50,0|2,3:0|3:0,0:0:0:0:
104,160,96715,2,0,L|42:180,1,50,0|2,0:0|0:3,0:0:0:0:
8,189,97052,2,0,P|8:252|45:284,1,99.9999999999999,2|10,0:3|0:3,0:0:0:0:
91,353,97726,6,0,L|106:303,1,50,4|0,3:0|3:0,0:0:0:0:
154,293,98063,2,0,P|214:318|255:308,1,99.9999999999999,0|2,0:0|0:3,0:0:0:0:
338,268,98737,1,2,0:3:0:0:
338,268,98906,2,0,L|399:280,1,50,2|0,0:3|3:0,0:0:0:0:
431,300,99243,2,0,P|428:248|459:190,1,99.9999999999999,2|2,3:0|0:3,0:0:0:0:
477,165,99749,1,2,3:0:0:0:
393,109,100086,2,0,L|335:131,1,50,8|8,0:3|0:3,0:0:0:0:
306,157,100423,6,0,P|257:141|192:134,1,99.9999999999999,4|2,3:0|0:3,0:0:0:0:
109,142,101097,2,0,L|86:85,1,50,2|2,0:3|3:0,0:0:0:0:
113,50,101434,1,2,0:3:0:0:
152,19,101603,1,2,0:3:0:0:
199,4,101771,2,0,P|225:9|257:16,1,50,0|2,3:0|3:0,0:0:0:0:
290,40,102108,2,0,P|316:35|348:28,1,50,0|2,3:0|3:0,0:0:0:0:
397,22,102445,2,0,L|427:132,1,99.9999999999999,2|0,3:0|3:0,0:0:0:0:
446,215,103119,6,0,L|387:237,1,50,4|0,3:0|3:0,0:0:0:0:
362,266,103456,2,0,L|316:246,1,50,0|0,3:0|3:0,0:0:0:0:
296,199,103794,2,0,P|259:177|184:176,1,99.9999999999999,2|2,3:0|3:0,0:0:0:0:
116,220,104468,2,0,P|75:223|40:88,1,200,2|2,3:0|3:0,0:0:0:0:
61,60,105310,2,0,L|174:76,1,99.9999999999999,2|0,0:3|0:0,0:0:0:0:
208,85,105816,5,4,3:0:0:0:
287,24,106153,2,0,L|339:32,1,50,2|2,0:3|0:3,0:0:0:0:
385,23,106490,2,0,L|373:86,1,50,2|2,0:3|3:0,0:0:0:0:
402,114,106827,1,2,0:3:0:0:
402,114,106996,2,0,P|410:173|442:218,1,99.9999999999999,2|2,0:3|3:0,0:0:0:0:
401,304,107670,1,2,0:3:0:0:
401,304,107839,2,0,L|290:336,1,99.9999999999999,2|10,0:3|0:3,0:0:0:0:
212,370,108513,5,4,3:0:0:0:
124,321,108850,2,0,L|99:381,2,50,0|0|2,0:0|0:0|0:3,0:0:0:0:
72,226,109524,1,2,0:3:0:0:
72,226,109692,2,0,P|72:194|67:167,1,50,2|0,0:3|3:0,0:0:0:0:
47,130,110030,2,0,P|87:124|158:105,1,99.9999999999999,2|2,0:3|3:0,0:0:0:0:
193,97,110535,1,2,3:0:0:0:
193,97,110704,2,0,L|219:206,1,99.9999999999999,2|0,0:3|0:0,0:0:0:0:
248,232,111209,6,0,L|309:219,1,50,4|0,3:0|3:0,0:0:0:0:
342,200,111546,2,0,P|361:145|330:99,1,99.9999999999999,2|2,0:3|0:3,0:0:0:0:
309,15,112221,2,0,L|241:27,1,50,10|10,0:3|0:3,0:0:0:0:
213,4,112558,2,0,L|107:32,1,99.9999999999999,0|0,3:0|3:0,0:0:0:0:
73,50,113063,1,2,3:0:0:0:
73,50,113232,2,0,P|64:114|90:147,1,99.9999999999999,2|0,3:0|0:0,0:0:0:0:
56,237,113906,6,0,B|96:225|96:225|142:250|142:250|156:206|156:206|208:187|208:187|242:145|242:145|307:164,1,300,0|2,3:0|3:0,0:0:0:0:
379,204,115254,2,0,B|418:164|418:164|388:73|388:73|335:59,1,200,2|2,3:0|3:0,0:0:0:0:
299,33,116097,2,0,L|177:51,1,99.9999999999999,10|8,0:3|0:3,0:0:0:0:
162,80,116603,1,4,3:0:0:0:
