osu file format v14

[General]
AudioFilename: audio.mp3
AudioLeadIn: 0
PreviewTime: 88351
Countdown: 0
SampleSet: None
StackLeniency: 0.7
Mode: 3
LetterboxInBreaks: 0
SpecialStyle: 0
WidescreenStoryboard: 1

[Editor]
DistanceSpacing: 0.8
BeatDivisor: 4
GridSize: 8
TimelineZoom: 2.4

[Metadata]
Title:Gott
TitleUnicode:Gott
Artist:Hommarju
ArtistUnicode:Hommarju
Creator:Vapor-
Version:NORMAL
Source:SOUND VOLTEX BOOTH
Tags:kac 2012 sdvx KONAMI BEMANI
BeatmapID:1047068
BeatmapSetID:491351

[Difficulty]
HPDrainRate:8
CircleSize:4
OverallDifficulty:8
ApproachRate:5
SliderMultiplier:1.4
SliderTickRate:1

[Events]
//Background and Video events
0,0,"gotthommarju.png",0,0
//Break Periods
//Storyboard Layer 0 (Background)
//Storyboard Layer 1 (Fail)
//Storyboard Layer 2 (Pass)
//Storyboard Layer 3 (Foreground)
//Storyboard Sound Samples

[TimingPoints]
44,307.692307692308,4,1,0,20,1,0

[HitObjects]
448,192,44,128,0,1582:0:0:0:0:
64,192,1582,1,0,0:0:0:0:
192,192,1659,1,0,0:0:0:0:
320,192,1736,1,0,0:0:0:0:
448,192,1813,1,0,0:0:0:0:
64,192,1890,1,0,0:0:0:0:
192,192,1967,1,0,0:0:0:0:
320,192,2044,1,0,0:0:0:0:
448,192,2120,1,0,0:0:0:0:
192,192,2197,1,0,0:0:0:0:
64,192,2197,1,0,0:0:0:0:
448,192,2505,1,0,0:0:0:0:
64,192,2505,1,0,0:0:0:0:
64,192,2813,1,0,0:0:0:0:
192,192,2967,1,0,0:0:0:0:
64,192,3120,1,0,0:0:0:0:
448,192,3120,1,0,0:0:0:0:
320,192,3274,1,0,0:0:0:0:
192,192,3428,1,0,0:0:0:0:
64,192,3736,1,0,0:0:0:0:
448,192,3736,1,0,0:0:0:0:
320,192,3890,1,0,0:0:0:0:
64,192,4044,1,0,0:0:0:0:
192,192,4197,1,0,0:0:0:0:
320,192,4197,1,0,0:0:0:0:
64,192,4428,1,0,0:0:0:0:
192,192,4505,1,0,0:0:0:0:
448,192,4582,1,0,0:0:0:0:
192,192,4813,1,0,0:0:0:0:
320,192,4967,1,0,0:0:0:0:
64,192,4967,1,0,0:0:0:0:
64,192,5274,1,0,0:0:0:0:
192,192,5428,1,0,0:0:0:0:
320,192,5582,1,0,0:0:0:0:
448,192,5582,1,0,0:0:0:0:
192,192,5890,1,0,0:0:0:0:
64,192,6044,1,0,0:0:0:0:
320,192,6197,1,0,0:0:0:0:
192,192,6197,1,0,0:0:0:0:
320,192,6505,1,0,0:0:0:0:
448,192,6659,1,0,0:0:0:0:
320,192,6813,1,0,0:0:0:0:
192,192,6967,1,0,0:0:0:0:
64,192,7120,1,0,0:0:0:0:
448,192,7274,1,0,0:0:0:0:
320,192,7428,1,0,0:0:0:0:
192,192,7428,1,0,0:0:0:0:
64,192,7736,1,0,0:0:0:0:
192,192,7813,1,0,0:0:0:0:
320,192,7890,1,0,0:0:0:0:
64,192,8044,1,0,0:0:0:0:
192,192,8044,1,0,0:0:0:0:
320,192,8197,1,0,0:0:0:0:
192,192,8351,1,0,0:0:0:0:
320,192,8659,1,0,0:0:0:0:
448,192,8659,1,0,0:0:0:0:
64,192,8813,1,0,0:0:0:0:
192,192,8967,1,0,0:0:0:0:
64,192,9120,1,0,0:0:0:0:
320,192,9120,1,0,0:0:0:0:
448,192,9428,1,0,0:0:0:0:
320,192,9505,1,0,0:0:0:0:
192,192,9582,1,0,0:0:0:0:
320,192,9890,1,0,0:0:0:0:
192,192,9890,1,0,0:0:0:0:
64,192,10197,1,0,0:0:0:0:
192,192,10274,1,0,0:0:0:0:
448,192,10351,1,0,0:0:0:0:
320,192,10505,1,0,0:0:0:0:
192,192,10505,1,0,0:0:0:0:
320,192,10813,1,0,0:0:0:0:
192,192,10967,1,0,0:0:0:0:
64,192,11120,1,0,0:0:0:0:
448,192,11120,1,0,0:0:0:0:
448,192,11428,1,0,0:0:0:0:
320,192,11505,1,0,0:0:0:0:
192,192,11582,1,0,0:0:0:0:
64,192,11659,1,0,0:0:0:0:
448,192,11736,1,0,0:0:0:0:
320,192,11813,1,0,0:0:0:0:
192,192,11890,1,0,0:0:0:0:
64,192,11967,1,0,0:0:0:0:
320,192,12044,1,0,0:0:0:0:
192,192,12351,1,0,0:0:0:0:
64,192,12351,1,0,0:0:0:0:
320,192,12659,1,0,0:0:0:0:
192,192,12967,1,0,0:0:0:0:
320,192,12967,1,0,0:0:0:0:
448,192,13274,1,0,0:0:0:0:
320,192,13582,1,0,0:0:0:0:
192,192,13582,1,0,0:0:0:0:
448,192,13890,1,0,0:0:0:0:
320,192,14197,1,0,0:0:0:0:
448,192,14197,1,0,0:0:0:0:
64,192,14505,1,0,0:0:0:0:
192,192,14813,1,0,0:0:0:0:
320,192,14813,1,0,0:0:0:0:
192,192,15120,1,0,0:0:0:0:
64,192,15428,1,0,0:0:0:0:
192,192,15428,1,0,0:0:0:0:
64,192,15736,1,0,0:0:0:0:
64,192,16044,1,0,0:0:0:0:
448,192,16044,1,0,0:0:0:0:
320,192,16351,1,0,0:0:0:0:
320,192,16659,1,0,0:0:0:0:
192,192,16659,1,0,0:0:0:0:
192,192,16967,1,0,0:0:0:0:
64,192,17274,1,0,0:0:0:0:
320,192,17428,1,0,0:0:0:0:
448,192,17582,1,0,0:0:0:0:
192,192,17736,1,0,0:0:0:0:
64,192,17890,1,0,0:0:0:0:
448,192,18044,1,0,0:0:0:0:
320,192,18197,1,0,0:0:0:0:
64,192,18351,1,0,0:0:0:0:
192,192,18505,1,0,0:0:0:0:
64,192,18659,1,0,0:0:0:0:
320,192,18813,1,0,0:0:0:0:
448,192,18967,1,0,0:0:0:0:
320,192,19120,1,0,0:0:0:0:
192,192,19274,1,0,0:0:0:0:
64,192,19428,1,0,0:0:0:0:
192,192,19505,1,0,0:0:0:0:
320,192,19582,1,0,0:0:0:0:
448,192,19659,1,0,0:0:0:0:
64,192,19736,1,0,0:0:0:0:
192,192,19813,1,0,0:0:0:0:
320,192,19890,1,0,0:0:0:0:
448,192,19967,1,0,0:0:0:0:
64,192,20044,128,0,20351:0:0:0:0:
320,192,20351,128,0,20659:0:0:0:0:
448,192,20659,1,0,0:0:0:0:
320,192,20736,1,0,0:0:0:0:
192,192,20813,1,0,0:0:0:0:
64,192,20890,1,0,0:0:0:0:
448,192,20967,1,0,0:0:0:0:
320,192,21044,1,0,0:0:0:0:
192,192,21120,1,0,0:0:0:0:
64,192,21197,1,0,0:0:0:0:
448,192,21274,128,0,21582:0:0:0:0:
192,192,21582,128,0,21890:0:0:0:0:
320,192,21890,1,0,0:0:0:0:
448,192,22197,128,0,23736:0:0:0:0:
64,192,23736,1,0,0:0:0:0:
192,192,23813,1,0,0:0:0:0:
320,192,23890,1,0,0:0:0:0:
448,192,23967,1,0,0:0:0:0:
64,192,24044,1,0,0:0:0:0:
192,192,24120,1,0,0:0:0:0:
320,192,24197,1,0,0:0:0:0:
448,192,24274,1,0,0:0:0:0:
320,192,24351,1,0,0:0:0:0:
192,192,24351,1,0,0:0:0:0:
64,192,24659,1,0,0:0:0:0:
192,192,24659,1,0,0:0:0:0:
320,192,24967,1,0,0:0:0:0:
320,192,25274,1,0,0:0:0:0:
192,192,25274,1,0,0:0:0:0:
448,192,25582,1,0,0:0:0:0:
192,192,25890,1,0,0:0:0:0:
320,192,25890,1,0,0:0:0:0:
448,192,26197,1,0,0:0:0:0:
448,192,26505,1,0,0:0:0:0:
320,192,26505,1,0,0:0:0:0:
64,192,26813,1,0,0:0:0:0:
320,192,27120,1,0,0:0:0:0:
192,192,27120,1,0,0:0:0:0:
192,192,27428,1,0,0:0:0:0:
192,192,27736,1,0,0:0:0:0:
64,192,27736,1,0,0:0:0:0:
64,192,28044,1,0,0:0:0:0:
448,192,28351,1,0,0:0:0:0:
64,192,28351,1,0,0:0:0:0:
320,192,28659,1,0,0:0:0:0:
192,192,28967,1,0,0:0:0:0:
320,192,28967,1,0,0:0:0:0:
192,192,29274,1,0,0:0:0:0:
320,192,29582,1,0,0:0:0:0:
448,192,29582,1,0,0:0:0:0:
192,192,29890,1,0,0:0:0:0:
320,192,30197,1,0,0:0:0:0:
192,192,30197,1,0,0:0:0:0:
64,192,30505,1,0,0:0:0:0:
192,192,30813,1,0,0:0:0:0:
320,192,30813,1,0,0:0:0:0:
64,192,31120,1,0,0:0:0:0:
192,192,31428,1,0,0:0:0:0:
64,192,31428,1,0,0:0:0:0:
448,192,31736,1,0,0:0:0:0:
320,192,32044,1,0,0:0:0:0:
192,192,32044,1,0,0:0:0:0:
320,192,32351,1,0,0:0:0:0:
448,192,32659,1,0,0:0:0:0:
320,192,32659,1,0,0:0:0:0:
448,192,32967,1,0,0:0:0:0:
448,192,33274,1,0,0:0:0:0:
64,192,33274,1,0,0:0:0:0:
192,192,33582,1,0,0:0:0:0:
64,192,33582,1,0,0:0:0:0:
320,192,33736,1,0,0:0:0:0:
448,192,33736,1,0,0:0:0:0:
64,192,34044,1,0,0:0:0:0:
192,192,34044,1,0,0:0:0:0:
448,192,34197,1,0,0:0:0:0:
320,192,34197,1,0,0:0:0:0:
320,192,34505,1,0,0:0:0:0:
192,192,34813,1,0,0:0:0:0:
64,192,34813,1,0,0:0:0:0:
320,192,35120,128,0,35428:0:0:0:0:
192,192,35428,1,0,0:0:0:0:
448,192,35736,1,0,0:0:0:0:
320,192,36044,1,0,0:0:0:0:
192,192,36044,1,0,0:0:0:0:
192,192,36197,128,0,36659:0:0:0:0:
448,192,36659,1,0,0:0:0:0:
64,192,36967,1,0,0:0:0:0:
192,192,37274,1,0,0:0:0:0:
320,192,37274,1,0,0:0:0:0:
192,192,37582,128,0,37890:0:0:0:0:
64,192,37890,1,0,0:0:0:0:
64,192,38197,1,0,0:0:0:0:
64,192,38505,1,0,0:0:0:0:
448,192,38505,1,0,0:0:0:0:
320,192,38813,1,0,0:0:0:0:
320,192,39120,1,0,0:0:0:0:
192,192,39120,1,0,0:0:0:0:
320,192,39428,1,0,0:0:0:0:
64,192,39736,1,0,0:0:0:0:
192,192,39736,1,0,0:0:0:0:
320,192,40044,1,0,0:0:0:0:
320,192,40351,1,0,0:0:0:0:
192,192,40351,1,0,0:0:0:0:
448,192,40659,1,0,0:0:0:0:
192,192,40967,1,0,0:0:0:0:
320,192,40967,1,0,0:0:0:0:
448,192,41274,1,0,0:0:0:0:
448,192,41582,1,0,0:0:0:0:
320,192,41582,1,0,0:0:0:0:
64,192,41890,1,0,0:0:0:0:
320,192,42197,1,0,0:0:0:0:
192,192,42197,1,0,0:0:0:0:
192,192,42505,1,0,0:0:0:0:
192,192,42813,1,0,0:0:0:0:
64,192,42813,1,0,0:0:0:0:
64,192,43120,1,0,0:0:0:0:
448,192,43428,1,0,0:0:0:0:
64,192,43428,1,0,0:0:0:0:
320,192,43736,1,0,0:0:0:0:
192,192,44044,1,0,0:0:0:0:
320,192,44044,1,0,0:0:0:0:
448,192,44351,1,0,0:0:0:0:
320,192,44659,1,0,0:0:0:0:
192,192,44813,1,0,0:0:0:0:
64,192,44967,1,0,0:0:0:0:
320,192,45120,1,0,0:0:0:0:
320,192,45428,1,0,0:0:0:0:
448,192,45582,1,0,0:0:0:0:
192,192,45736,1,0,0:0:0:0:
320,192,45890,1,0,0:0:0:0:
192,192,46044,1,0,0:0:0:0:
64,192,46197,1,0,0:0:0:0:
320,192,46505,1,0,0:0:0:0:
448,192,46505,1,0,0:0:0:0:
448,192,46813,1,0,0:0:0:0:
320,192,47120,1,0,0:0:0:0:
192,192,47274,1,0,0:0:0:0:
64,192,47428,1,0,0:0:0:0:
320,192,47582,1,0,0:0:0:0:
320,192,47890,1,0,0:0:0:0:
448,192,48044,1,0,0:0:0:0:
192,192,48197,1,0,0:0:0:0:
320,192,48351,1,0,0:0:0:0:
448,192,48505,1,0,0:0:0:0:
320,192,48659,1,0,0:0:0:0:
192,192,48813,1,0,0:0:0:0:
192,192,48967,1,0,0:0:0:0:
64,192,48967,1,0,0:0:0:0:
448,192,49274,1,0,0:0:0:0:
320,192,49582,1,0,0:0:0:0:
192,192,49736,1,0,0:0:0:0:
64,192,49890,1,0,0:0:0:0:
320,192,50044,1,0,0:0:0:0:
320,192,50351,1,0,0:0:0:0:
448,192,50505,1,0,0:0:0:0:
192,192,50659,1,0,0:0:0:0:
320,192,50813,1,0,0:0:0:0:
192,192,50967,1,0,0:0:0:0:
64,192,51120,1,0,0:0:0:0:
320,192,51428,1,0,0:0:0:0:
448,192,51428,1,0,0:0:0:0:
448,192,51736,1,0,0:0:0:0:
320,192,52044,1,0,0:0:0:0:
192,192,52197,1,0,0:0:0:0:
64,192,52351,1,0,0:0:0:0:
320,192,52505,1,0,0:0:0:0:
320,192,52813,1,0,0:0:0:0:
448,192,52967,1,0,0:0:0:0:
192,192,53120,1,0,0:0:0:0:
320,192,53274,1,0,0:0:0:0:
448,192,53428,1,0,0:0:0:0:
320,192,53582,1,0,0:0:0:0:
192,192,53736,1,0,0:0:0:0:
320,192,53890,1,0,0:0:0:0:
448,192,53890,1,0,0:0:0:0:
320,192,54197,1,0,0:0:0:0:
448,192,54197,1,0,0:0:0:0:
448,192,54505,1,0,0:0:0:0:
320,192,54505,1,0,0:0:0:0:
320,192,54813,1,0,0:0:0:0:
448,192,54813,1,0,0:0:0:0:
320,192,55120,1,0,0:0:0:0:
448,192,55120,1,0,0:0:0:0:
320,192,55428,1,0,0:0:0:0:
448,192,55428,1,0,0:0:0:0:
320,192,55736,1,0,0:0:0:0:
448,192,55736,1,0,0:0:0:0:
320,192,56044,1,0,0:0:0:0:
448,192,56044,1,0,0:0:0:0:
192,192,56351,1,0,0:0:0:0:
64,192,56351,1,0,0:0:0:0:
192,192,56659,1,0,0:0:0:0:
64,192,56659,1,0,0:0:0:0:
192,192,56967,1,0,0:0:0:0:
64,192,56967,1,0,0:0:0:0:
192,192,57274,1,0,0:0:0:0:
64,192,57274,1,0,0:0:0:0:
192,192,57582,1,0,0:0:0:0:
64,192,57582,1,0,0:0:0:0:
192,192,57890,1,0,0:0:0:0:
64,192,57890,1,0,0:0:0:0:
192,192,58197,1,0,0:0:0:0:
64,192,58197,1,0,0:0:0:0:
192,192,58505,1,0,0:0:0:0:
64,192,58505,1,0,0:0:0:0:
192,192,58813,1,0,0:0:0:0:
64,192,58967,1,0,0:0:0:0:
320,192,59120,1,0,0:0:0:0:
448,192,59274,1,0,0:0:0:0:
192,192,59428,1,0,0:0:0:0:
64,192,59582,1,0,0:0:0:0:
448,192,59736,1,0,0:0:0:0:
320,192,59890,1,0,0:0:0:0:
64,192,60044,1,0,0:0:0:0:
192,192,60197,1,0,0:0:0:0:
320,192,60351,1,0,0:0:0:0:
448,192,60505,1,0,0:0:0:0:
192,192,60659,1,0,0:0:0:0:
320,192,60813,1,0,0:0:0:0:
448,192,60967,1,0,0:0:0:0:
320,192,61120,1,0,0:0:0:0:
64,192,61274,1,0,0:0:0:0:
192,192,61351,1,0,0:0:0:0:
320,192,61428,1,0,0:0:0:0:
448,192,61505,1,0,0:0:0:0:
64,192,61582,1,0,0:0:0:0:
192,192,61659,1,0,0:0:0:0:
320,192,61736,1,0,0:0:0:0:
448,192,61813,1,0,0:0:0:0:
64,192,61890,128,0,62197:0:0:0:0:
320,192,62197,128,0,62505:0:0:0:0:
448,192,62505,1,0,0:0:0:0:
320,192,62582,1,0,0:0:0:0:
192,192,62659,1,0,0:0:0:0:
64,192,62736,1,0,0:0:0:0:
448,192,62813,1,0,0:0:0:0:
320,192,62890,1,0,0:0:0:0:
192,192,62967,1,0,0:0:0:0:
64,192,63044,1,0,0:0:0:0:
448,192,63120,128,0,63428:0:0:0:0:
192,192,63428,128,0,63736:0:0:0:0:
320,192,63736,1,0,0:0:0:0:
448,192,66505,128,0,68044:0:0:0:0:
64,192,68044,1,0,0:0:0:0:
192,192,68120,1,0,0:0:0:0:
320,192,68197,1,0,0:0:0:0:
448,192,68274,1,0,0:0:0:0:
64,192,68351,1,0,0:0:0:0:
192,192,68428,1,0,0:0:0:0:
320,192,68505,1,0,0:0:0:0:
448,192,68582,1,0,0:0:0:0:
320,192,68659,1,0,0:0:0:0:
64,192,68813,1,0,0:0:0:0:
320,192,68967,1,0,0:0:0:0:
192,192,69120,1,0,0:0:0:0:
448,192,69274,1,0,0:0:0:0:
192,192,69428,1,0,0:0:0:0:
320,192,69505,1,0,0:0:0:0:
448,192,69582,1,0,0:0:0:0:
320,192,69736,1,0,0:0:0:0:
320,192,69890,1,0,0:0:0:0:
64,192,69967,1,0,0:0:0:0:
320,192,70120,1,0,0:0:0:0:
192,192,70274,1,0,0:0:0:0:
448,192,70428,1,0,0:0:0:0:
64,192,70659,1,0,0:0:0:0:
320,192,70736,1,0,0:0:0:0:
448,192,70813,1,0,0:0:0:0:
320,192,70967,1,0,0:0:0:0:
64,192,71120,1,0,0:0:0:0:
320,192,71274,1,0,0:0:0:0:
192,192,71428,1,0,0:0:0:0:
448,192,71582,1,0,0:0:0:0:
64,192,71659,1,0,0:0:0:0:
320,192,71736,1,0,0:0:0:0:
192,192,71813,1,0,0:0:0:0:
320,192,71967,1,0,0:0:0:0:
448,192,72044,1,0,0:0:0:0:
320,192,72197,1,0,0:0:0:0:
192,192,72351,1,0,0:0:0:0:
448,192,72505,1,0,0:0:0:0:
320,192,72659,1,0,0:0:0:0:
192,192,72890,1,0,0:0:0:0:
320,192,72967,1,0,0:0:0:0:
64,192,73120,1,0,0:0:0:0:
448,192,73274,1,0,0:0:0:0:
192,192,73428,1,0,0:0:0:0:
320,192,73582,1,0,0:0:0:0:
64,192,73736,1,0,0:0:0:0:
320,192,73890,1,0,0:0:0:0:
192,192,74044,1,0,0:0:0:0:
448,192,74197,1,0,0:0:0:0:
64,192,74351,1,0,0:0:0:0:
192,192,74428,1,0,0:0:0:0:
448,192,74505,1,0,0:0:0:0:
320,192,74659,1,0,0:0:0:0:
320,192,74813,1,0,0:0:0:0:
64,192,74890,1,0,0:0:0:0:
320,192,75044,1,0,0:0:0:0:
192,192,75197,1,0,0:0:0:0:
448,192,75351,1,0,0:0:0:0:
192,192,75582,1,0,0:0:0:0:
320,192,75659,1,0,0:0:0:0:
448,192,75736,1,0,0:0:0:0:
320,192,75890,1,0,0:0:0:0:
64,192,76044,1,0,0:0:0:0:
320,192,76197,1,0,0:0:0:0:
192,192,76351,1,0,0:0:0:0:
448,192,76505,1,0,0:0:0:0:
64,192,76582,1,0,0:0:0:0:
320,192,76659,1,0,0:0:0:0:
192,192,76736,1,0,0:0:0:0:
320,192,76890,1,0,0:0:0:0:
448,192,76967,1,0,0:0:0:0:
320,192,77120,1,0,0:0:0:0:
192,192,77274,1,0,0:0:0:0:
448,192,77428,1,0,0:0:0:0:
320,192,77582,1,0,0:0:0:0:
192,192,77813,1,0,0:0:0:0:
320,192,77890,1,0,0:0:0:0:
64,192,78044,1,0,0:0:0:0:
448,192,78197,1,0,0:0:0:0:
320,192,78274,1,0,0:0:0:0:
192,192,78351,1,0,0:0:0:0:
320,192,78505,1,0,0:0:0:0:
64,192,78659,1,0,0:0:0:0:
320,192,78813,1,0,0:0:0:0:
192,192,78967,1,0,0:0:0:0:
448,192,79120,1,0,0:0:0:0:
64,192,79274,1,0,0:0:0:0:
320,192,79351,1,0,0:0:0:0:
448,192,79428,1,0,0:0:0:0:
320,192,79582,1,0,0:0:0:0:
320,192,79736,1,0,0:0:0:0:
64,192,79813,1,0,0:0:0:0:
320,192,79967,1,0,0:0:0:0:
192,192,80120,1,0,0:0:0:0:
448,192,80274,1,0,0:0:0:0:
64,192,80505,1,0,0:0:0:0:
192,192,80582,1,0,0:0:0:0:
448,192,80659,1,0,0:0:0:0:
320,192,80813,1,0,0:0:0:0:
64,192,80967,1,0,0:0:0:0:
320,192,81120,1,0,0:0:0:0:
192,192,81274,1,0,0:0:0:0:
448,192,81428,1,0,0:0:0:0:
64,192,81505,1,0,0:0:0:0:
320,192,81582,1,0,0:0:0:0:
192,192,81659,1,0,0:0:0:0:
320,192,81813,1,0,0:0:0:0:
448,192,81890,1,0,0:0:0:0:
320,192,82044,1,0,0:0:0:0:
192,192,82197,1,0,0:0:0:0:
448,192,82351,1,0,0:0:0:0:
320,192,82505,1,0,0:0:0:0:
192,192,82736,1,0,0:0:0:0:
320,192,82813,1,0,0:0:0:0:
64,192,82967,1,0,0:0:0:0:
448,192,83120,1,0,0:0:0:0:
320,192,83197,1,0,0:0:0:0:
192,192,83274,1,0,0:0:0:0:
320,192,83428,1,0,0:0:0:0:
64,192,83736,1,0,0:0:0:0:
320,192,83890,1,0,0:0:0:0:
192,192,84044,1,0,0:0:0:0:
320,192,84197,1,0,0:0:0:0:
64,192,84351,1,0,0:0:0:0:
448,192,84505,1,0,0:0:0:0:
448,192,84813,1,0,0:0:0:0:
320,192,84890,1,0,0:0:0:0:
192,192,84967,1,0,0:0:0:0:
64,192,85120,1,0,0:0:0:0:
320,192,85274,1,0,0:0:0:0:
192,192,85428,1,0,0:0:0:0:
448,192,85582,1,0,0:0:0:0:
320,192,85736,1,0,0:0:0:0:
192,192,85890,1,0,0:0:0:0:
320,192,86044,1,0,0:0:0:0:
192,192,86120,1,0,0:0:0:0:
64,192,86197,1,0,0:0:0:0:
448,192,86351,1,0,0:0:0:0:
320,192,86428,1,0,0:0:0:0:
192,192,86505,1,0,0:0:0:0:
64,192,86582,1,0,0:0:0:0:
448,192,86659,128,0,86813:0:0:0:0:
64,192,86813,1,0,0:0:0:0:
192,192,86890,1,0,0:0:0:0:
320,192,86967,1,0,0:0:0:0:
192,192,87120,1,0,0:0:0:0:
320,192,87197,1,0,0:0:0:0:
448,192,87274,1,0,0:0:0:0:
64,192,87428,1,0,0:0:0:0:
192,192,87505,1,0,0:0:0:0:
320,192,87582,1,0,0:0:0:0:
192,192,87736,1,0,0:0:0:0:
320,192,87813,1,0,0:0:0:0:
448,192,87890,128,0,88044:0:0:0:0:
64,192,88197,128,0,88351:0:0:0:0:
320,192,88351,1,0,0:0:0:0:
448,192,88659,128,0,90197:0:0:0:0:
64,192,90197,1,0,0:0:0:0:
192,192,90274,1,0,0:0:0:0:
320,192,90351,1,0,0:0:0:0:
448,192,90428,1,0,0:0:0:0:
64,192,90505,1,0,0:0:0:0:
192,192,90582,1,0,0:0:0:0:
320,192,90659,1,0,0:0:0:0:
448,192,90736,1,0,0:0:0:0:
320,192,90813,1,0,0:0:0:0:
64,192,90967,1,0,0:0:0:0:
320,192,91120,1,0,0:0:0:0:
192,192,91274,1,0,0:0:0:0:
448,192,91428,1,0,0:0:0:0:
64,192,91582,1,0,0:0:0:0:
192,192,91659,1,0,0:0:0:0:
320,192,91736,1,0,0:0:0:0:
192,192,91890,1,0,0:0:0:0:
320,192,92044,1,0,0:0:0:0:
64,192,92120,1,0,0:0:0:0:
320,192,92274,1,0,0:0:0:0:
192,192,92428,1,0,0:0:0:0:
448,192,92582,1,0,0:0:0:0:
192,192,92813,1,0,0:0:0:0:
320,192,92890,1,0,0:0:0:0:
448,192,92967,1,0,0:0:0:0:
320,192,93120,1,0,0:0:0:0:
64,192,93274,1,0,0:0:0:0:
320,192,93428,1,0,0:0:0:0:
192,192,93582,1,0,0:0:0:0:
448,192,93736,1,0,0:0:0:0:
64,192,93813,1,0,0:0:0:0:
320,192,93890,1,0,0:0:0:0:
192,192,93967,1,0,0:0:0:0:
320,192,94120,1,0,0:0:0:0:
448,192,94197,1,0,0:0:0:0:
320,192,94351,1,0,0:0:0:0:
192,192,94505,1,0,0:0:0:0:
448,192,94659,1,0,0:0:0:0:
320,192,94813,1,0,0:0:0:0:
192,192,95044,1,0,0:0:0:0:
320,192,95120,1,0,0:0:0:0:
192,192,95197,1,0,0:0:0:0:
64,192,95274,1,0,0:0:0:0:
448,192,95428,1,0,0:0:0:0:
320,192,95505,1,0,0:0:0:0:
192,192,95582,1,0,0:0:0:0:
320,192,95736,1,0,0:0:0:0:
64,192,95890,1,0,0:0:0:0:
320,192,96044,1,0,0:0:0:0:
192,192,96197,1,0,0:0:0:0:
448,192,96351,1,0,0:0:0:0:
64,192,96428,1,0,0:0:0:0:
192,192,96505,1,0,0:0:0:0:
320,192,96582,1,0,0:0:0:0:
448,192,96659,1,0,0:0:0:0:
320,192,96813,1,0,0:0:0:0:
320,192,96967,1,0,0:0:0:0:
64,192,97044,1,0,0:0:0:0:
320,192,97197,1,0,0:0:0:0:
192,192,97351,1,0,0:0:0:0:
448,192,97505,1,0,0:0:0:0:
192,192,97736,1,0,0:0:0:0:
320,192,97813,1,0,0:0:0:0:
448,192,97890,1,0,0:0:0:0:
320,192,98044,1,0,0:0:0:0:
64,192,98197,1,0,0:0:0:0:
320,192,98351,1,0,0:0:0:0:
192,192,98505,1,0,0:0:0:0:
448,192,98659,1,0,0:0:0:0:
64,192,98736,1,0,0:0:0:0:
320,192,98813,1,0,0:0:0:0:
192,192,98890,1,0,0:0:0:0:
320,192,99044,1,0,0:0:0:0:
448,192,99120,1,0,0:0:0:0:
320,192,99274,1,0,0:0:0:0:
192,192,99428,1,0,0:0:0:0:
448,192,99582,1,0,0:0:0:0:
320,192,99736,1,0,0:0:0:0:
192,192,99967,1,0,0:0:0:0:
320,192,100044,1,0,0:0:0:0:
192,192,100120,1,0,0:0:0:0:
64,192,100197,1,0,0:0:0:0:
448,192,100351,1,0,0:0:0:0:
320,192,100428,1,0,0:0:0:0:
192,192,100505,1,0,0:0:0:0:
320,192,100659,1,0,0:0:0:0:
64,192,100813,1,0,0:0:0:0:
320,192,100967,1,0,0:0:0:0:
192,192,101120,1,0,0:0:0:0:
448,192,101274,1,0,0:0:0:0:
192,192,101428,1,0,0:0:0:0:
320,192,101505,1,0,0:0:0:0:
448,192,101582,1,0,0:0:0:0:
320,192,101736,1,0,0:0:0:0:
320,192,101890,1,0,0:0:0:0:
64,192,101967,1,0,0:0:0:0:
320,192,102120,1,0,0:0:0:0:
192,192,102274,1,0,0:0:0:0:
448,192,102428,1,0,0:0:0:0:
64,192,102659,1,0,0:0:0:0:
320,192,102736,1,0,0:0:0:0:
448,192,102813,1,0,0:0:0:0:
320,192,102967,1,0,0:0:0:0:
64,192,103120,1,0,0:0:0:0:
320,192,103274,1,0,0:0:0:0:
192,192,103428,1,0,0:0:0:0:
448,192,103582,1,0,0:0:0:0:
64,192,103659,1,0,0:0:0:0:
320,192,103736,1,0,0:0:0:0:
192,192,103813,1,0,0:0:0:0:
320,192,103967,1,0,0:0:0:0:
448,192,104044,1,0,0:0:0:0:
320,192,104197,1,0,0:0:0:0:
192,192,104351,1,0,0:0:0:0:
448,192,104505,1,0,0:0:0:0:
320,192,104659,1,0,0:0:0:0:
192,192,104890,1,0,0:0:0:0:
320,192,104967,1,0,0:0:0:0:
192,192,105044,1,0,0:0:0:0:
64,192,105120,1,0,0:0:0:0:
448,192,105274,1,0,0:0:0:0:
320,192,105351,1,0,0:0:0:0:
192,192,105428,1,0,0:0:0:0:
64,192,105582,1,0,0:0:0:0:
64,192,105890,1,0,0:0:0:0:
192,192,105967,1,0,0:0:0:0:
320,192,106044,1,0,0:0:0:0:
64,192,106197,1,0,0:0:0:0:
192,192,106351,1,0,0:0:0:0:
320,192,106505,1,0,0:0:0:0:
448,192,106659,1,0,0:0:0:0:
448,192,106967,1,0,0:0:0:0:
320,192,107044,1,0,0:0:0:0:
192,192,107120,1,0,0:0:0:0:
64,192,107274,1,0,0:0:0:0:
192,192,107351,1,0,0:0:0:0:
320,192,107428,1,0,0:0:0:0:
448,192,107582,128,0,107736:0:0:0:0:
64,192,107736,1,0,0:0:0:0:
192,192,107890,1,0,0:0:0:0:
448,192,108044,1,0,0:0:0:0:
64,192,108197,1,0,0:0:0:0:
192,192,108274,1,0,0:0:0:0:
320,192,108351,1,0,0:0:0:0:
448,192,108505,1,0,0:0:0:0:
320,192,108582,1,0,0:0:0:0:
192,192,108659,1,0,0:0:0:0:
64,192,108736,1,0,0:0:0:0:
448,192,108813,1,0,0:0:0:0:
320,192,108890,1,0,0:0:0:0:
192,192,108967,128,0,109120:0:0:0:0:
64,192,109120,128,0,109274:0:0:0:0:
192,192,109274,1,0,0:0:0:0:
320,192,109351,1,0,0:0:0:0:
448,192,109428,1,0,0:0:0:0:
64,192,109582,1,0,0:0:0:0:
64,192,109736,1,0,0:0:0:0:
192,192,109813,1,0,0:0:0:0:
320,192,109890,1,0,0:0:0:0:
448,192,109967,1,0,0:0:0:0:
64,192,110044,128,0,110197:0:0:0:0:
448,192,110351,1,0,0:0:0:0:
192,192,110505,1,0,0:0:0:0:
320,192,110659,1,0,0:0:0:0:
448,192,110967,1,0,0:0:0:0:
64,192,111120,1,0,0:0:0:0:
192,192,111274,1,0,0:0:0:0:
320,192,111351,1,0,0:0:0:0:
448,192,111428,1,0,0:0:0:0:
192,192,111736,1,0,0:0:0:0:
320,192,111890,1,0,0:0:0:0:
64,192,112120,1,0,0:0:0:0:
192,192,112197,1,0,0:0:0:0:
320,192,112274,1,0,0:0:0:0:
64,192,112351,128,0,112659:0:0:0:0:
448,192,112659,128,0,112967:0:0:0:0:
64,192,112967,128,0,116967:0:0:0:0:
192,192,112967,1,0,0:0:0:0:
