osu file format v14

[General]
AudioFilename: audio.mp3
AudioLeadIn: 0
PreviewTime: 79770
Countdown: 0
SampleSet: Drum
StackLeniency: 0.7
Mode: 3
LetterboxInBreaks: 0
SpecialStyle: 0
WidescreenStoryboard: 0

[Editor]
DistanceSpacing: 0.8
BeatDivisor: 4
GridSize: 8
TimelineZoom: 2.899999

[Metadata]
Title:Get Back Here
TitleUnicode:Get Back Here
Artist:Hommarju
ArtistUnicode:Hommarju
Creator:Ibrahim
Version:GRAVITY
Source:SOUNDVOLTEX III GRAVITY WARS
Tags:Episode 15 MISSION 再会と真実と sdvx original song Fresh Chicken [BANGKE] -SoraGami-
BeatmapID:1741778
BeatmapSetID:527189

[Difficulty]
HPDrainRate:8
CircleSize:4
OverallDifficulty:8
ApproachRate:5
SliderMultiplier:1.4
SliderTickRate:1

[Events]
//Background and Video events
0,0,"angels_rozen_maiden_suigintou__1920x1080_artwallpaperhi.com.jpg",0,0
//Break Periods
//Storyboard Layer 0 (Background)
//Storyboard Layer 1 (Fail)
//Storyboard Layer 2 (Pass)
//Storyboard Layer 3 (Foreground)
//Storyboard Layer 4 (Overlay)
//Storyboard Sound Samples

[TimingPoints]
570,300,4,3,1,30,1,0
79770,-100,4,3,1,30,0,1
98970,-100,4,3,1,30,0,0

[HitObjects]
64,192,570,5,8,0:0:0:0:
192,192,570,1,0,0:0:0:0:
448,192,570,128,0,2970:0:0:0:0:
320,192,570,128,0,2970:0:0:0:0:
192,192,2370,128,0,2970:0:0:0:0:
64,192,2970,1,0,0:0:0:0:
192,192,3270,1,0,0:0:0:0:
320,192,3270,1,0,0:0:0:0:
448,192,3420,1,0,0:0:0:0:
64,192,3420,1,0,0:0:0:0:
320,192,3420,1,0,0:0:0:0:
64,192,3720,1,0,0:0:0:0:
192,192,3720,1,0,0:0:0:0:
320,192,3795,1,0,0:0:0:0:
448,192,3870,1,2,0:0:0:0:
192,192,3870,1,0,0:0:0:0:
64,192,3870,1,0,0:0:0:0:
320,192,3945,1,0,0:0:0:0:
192,192,4020,1,0,0:0:0:0:
64,192,4095,1,0,0:0:0:0:
320,192,4170,1,0,0:0:0:0:
448,192,4170,1,0,0:0:0:0:
192,192,4170,1,0,0:0:0:0:
320,192,4470,1,0,0:0:0:0:
64,192,4470,1,0,0:0:0:0:
192,192,4620,1,0,0:0:0:0:
320,192,4620,1,0,0:0:0:0:
448,192,4620,1,0,0:0:0:0:
64,192,4920,1,0,0:0:0:0:
192,192,4920,1,2,0:0:0:0:
320,192,4995,1,2,0:0:0:0:
448,192,4995,1,0,0:0:0:0:
192,192,5070,1,2,0:0:0:0:
64,192,5070,1,0,0:0:0:0:
320,192,5145,1,2,0:0:0:0:
448,192,5145,1,0,0:0:0:0:
64,192,5220,1,0,0:0:0:0:
192,192,5220,1,2,0:0:0:0:
320,192,5295,1,2,0:0:0:0:
448,192,5370,1,0,0:0:0:0:
192,192,5370,1,0,0:0:0:0:
64,192,5370,1,0,0:0:0:0:
320,192,5670,1,0,0:0:0:0:
192,192,5670,1,0,0:0:0:0:
448,192,5820,1,0,0:0:0:0:
320,192,5820,1,0,0:0:0:0:
64,192,5820,1,0,0:0:0:0:
192,192,6120,1,0,0:0:0:0:
64,192,6120,1,0,0:0:0:0:
64,192,6270,1,0,0:0:0:0:
320,192,6270,1,0,0:0:0:0:
448,192,6270,1,2,0:0:0:0:
192,192,6570,1,0,0:0:0:0:
320,192,6570,1,0,0:0:0:0:
64,192,6720,128,0,6795:0:0:0:0:
448,192,6720,1,0,0:0:0:0:
64,192,6870,128,0,6945:0:0:0:0:
448,192,6870,1,0,0:0:0:0:
64,192,7020,128,0,7095:0:0:0:0:
448,192,7020,1,0,0:0:0:0:
448,192,7170,128,0,7320:0:0:0:0:
320,192,7170,1,0,0:0:0:0:
320,192,7320,128,0,7470:0:0:0:0:
192,192,7320,1,0,0:0:0:0:
192,192,7470,128,0,7620:0:0:0:0:
64,192,7470,1,0,0:0:0:0:
448,192,7620,128,0,7770:0:0:0:0:
320,192,7620,1,0,0:0:0:0:
64,192,7770,1,0,0:0:0:0:
192,192,7770,1,0,0:0:0:0:
320,192,7770,1,0,0:0:0:0:
320,192,8070,1,0,0:0:0:0:
448,192,8070,1,0,0:0:0:0:
64,192,8220,1,0,0:0:0:0:
192,192,8220,1,0,0:0:0:0:
320,192,8220,1,0,0:0:0:0:
448,192,8520,1,0,0:0:0:0:
320,192,8520,1,0,0:0:0:0:
192,192,8595,1,0,0:0:0:0:
64,192,8670,1,2,0:0:0:0:
448,192,8670,1,0,0:0:0:0:
320,192,8670,1,0,0:0:0:0:
192,192,8745,1,0,0:0:0:0:
448,192,8820,1,0,0:0:0:0:
320,192,8895,1,0,0:0:0:0:
192,192,8970,1,0,0:0:0:0:
448,192,8970,1,0,0:0:0:0:
64,192,8970,1,0,0:0:0:0:
320,192,9270,1,0,0:0:0:0:
192,192,9270,1,0,0:0:0:0:
64,192,9420,1,0,0:0:0:0:
320,192,9420,1,0,0:0:0:0:
448,192,9420,1,0,0:0:0:0:
64,192,9720,1,2,0:0:0:0:
448,192,9720,1,0,0:0:0:0:
192,192,9795,1,0,0:0:0:0:
320,192,9795,1,2,0:0:0:0:
64,192,9870,1,2,0:0:0:0:
448,192,9870,1,0,0:0:0:0:
192,192,9945,1,0,0:0:0:0:
320,192,9945,1,2,0:0:0:0:
64,192,10020,1,2,0:0:0:0:
448,192,10020,1,0,0:0:0:0:
320,192,10095,1,2,0:0:0:0:
448,192,10170,1,0,0:0:0:0:
64,192,10170,1,0,0:0:0:0:
192,192,10170,1,0,0:0:0:0:
448,192,10470,1,0,0:0:0:0:
192,192,10470,1,0,0:0:0:0:
320,192,10620,1,0,0:0:0:0:
192,192,10620,1,0,0:0:0:0:
64,192,10620,1,0,0:0:0:0:
64,192,10920,1,0,0:0:0:0:
320,192,10920,1,0,0:0:0:0:
192,192,11070,1,2,0:0:0:0:
320,192,11070,1,0,0:0:0:0:
448,192,11070,1,0,0:0:0:0:
64,192,11370,1,0,0:0:0:0:
192,192,11370,1,0,0:0:0:0:
448,192,11520,128,0,12570:0:0:0:0:
320,192,11520,128,0,11595:0:0:0:0:
320,192,11670,128,0,11745:0:0:0:0:
320,192,11820,128,0,11895:0:0:0:0:
320,192,11970,128,0,12120:0:0:0:0:
64,192,12120,128,0,12270:0:0:0:0:
192,192,12270,128,0,12420:0:0:0:0:
320,192,12420,128,0,12570:0:0:0:0:
64,192,12570,1,8,0:0:0:0:
192,192,12570,1,0,0:0:0:0:
448,192,12870,1,0,0:0:0:0:
64,192,12870,1,0,0:0:0:0:
448,192,13020,1,0,0:0:0:0:
192,192,13020,1,0,0:0:0:0:
448,192,13170,1,0,0:0:0:0:
320,192,13170,1,0,0:0:0:0:
64,192,13320,1,0,0:0:0:0:
192,192,13470,1,0,0:0:0:0:
320,192,13470,1,0,0:0:0:0:
448,192,13620,1,0,0:0:0:0:
320,192,13620,1,0,0:0:0:0:
64,192,13770,1,0,0:0:0:0:
320,192,13770,1,0,0:0:0:0:
192,192,13920,1,0,0:0:0:0:
448,192,14070,1,0,0:0:0:0:
64,192,14070,1,0,0:0:0:0:
64,192,14220,1,0,0:0:0:0:
320,192,14220,1,0,0:0:0:0:
64,192,14370,1,0,0:0:0:0:
192,192,14370,1,0,0:0:0:0:
320,192,14520,1,0,0:0:0:0:
448,192,14670,1,0,0:0:0:0:
192,192,14670,1,0,0:0:0:0:
64,192,14820,1,0,0:0:0:0:
320,192,14970,1,0,0:0:0:0:
448,192,14970,1,0,0:0:0:0:
192,192,15120,1,0,0:0:0:0:
64,192,15270,1,0,0:0:0:0:
448,192,15270,1,0,0:0:0:0:
320,192,15420,1,0,0:0:0:0:
64,192,15420,1,0,0:0:0:0:
192,192,15570,1,0,0:0:0:0:
64,192,15570,1,0,0:0:0:0:
320,192,15720,1,0,0:0:0:0:
448,192,15870,1,0,0:0:0:0:
64,192,15870,1,0,0:0:0:0:
448,192,16020,1,0,0:0:0:0:
192,192,16020,1,0,0:0:0:0:
448,192,16170,1,0,0:0:0:0:
320,192,16170,1,0,0:0:0:0:
64,192,16320,1,0,0:0:0:0:
192,192,16470,1,0,0:0:0:0:
320,192,16470,1,0,0:0:0:0:
448,192,16620,1,0,0:0:0:0:
320,192,16620,1,0,0:0:0:0:
320,192,16770,1,0,0:0:0:0:
64,192,16770,1,0,0:0:0:0:
192,192,16920,1,0,0:0:0:0:
64,192,17070,1,0,0:0:0:0:
448,192,17070,1,0,0:0:0:0:
320,192,17220,1,0,0:0:0:0:
192,192,17370,1,0,0:0:0:0:
64,192,17370,1,0,0:0:0:0:
448,192,17520,1,0,0:0:0:0:
192,192,17670,1,0,0:0:0:0:
64,192,17670,1,0,0:0:0:0:
192,192,17820,1,0,0:0:0:0:
320,192,17820,1,0,0:0:0:0:
320,192,17970,1,0,0:0:0:0:
448,192,17970,1,0,0:0:0:0:
192,192,18120,1,0,0:0:0:0:
64,192,18270,1,0,0:0:0:0:
448,192,18270,1,0,0:0:0:0:
320,192,18345,1,0,0:0:0:0:
192,192,18420,1,0,0:0:0:0:
64,192,18420,1,0,0:0:0:0:
320,192,18495,1,0,0:0:0:0:
448,192,18570,1,0,0:0:0:0:
64,192,18570,1,0,0:0:0:0:
192,192,18645,1,0,0:0:0:0:
448,192,18720,1,0,0:0:0:0:
320,192,18795,1,0,0:0:0:0:
192,192,18870,1,0,0:0:0:0:
64,192,18870,1,0,0:0:0:0:
320,192,18945,1,0,0:0:0:0:
448,192,19020,1,0,0:0:0:0:
64,192,19020,1,0,0:0:0:0:
192,192,19095,1,0,0:0:0:0:
320,192,19170,1,0,0:0:0:0:
448,192,19170,1,0,0:0:0:0:
192,192,19245,1,0,0:0:0:0:
64,192,19320,1,0,0:0:0:0:
448,192,19395,1,0,0:0:0:0:
320,192,19470,1,0,0:0:0:0:
192,192,19470,1,0,0:0:0:0:
64,192,19545,1,0,0:0:0:0:
320,192,19620,1,0,0:0:0:0:
448,192,19620,1,0,0:0:0:0:
192,192,19695,1,0,0:0:0:0:
64,192,19770,1,0,0:0:0:0:
448,192,19770,1,0,0:0:0:0:
192,192,19845,1,0,0:0:0:0:
320,192,19845,1,0,0:0:0:0:
64,192,19920,1,0,0:0:0:0:
448,192,19920,1,0,0:0:0:0:
192,192,19995,1,0,0:0:0:0:
320,192,19995,1,0,0:0:0:0:
64,192,20070,1,0,0:0:0:0:
448,192,20070,1,0,0:0:0:0:
320,192,20145,1,0,0:0:0:0:
192,192,20145,1,0,0:0:0:0:
64,192,20220,1,0,0:0:0:0:
448,192,20220,1,0,0:0:0:0:
192,192,20295,1,0,0:0:0:0:
320,192,20370,1,0,0:0:0:0:
448,192,20370,1,0,0:0:0:0:
64,192,20445,1,0,0:0:0:0:
192,192,20445,1,0,0:0:0:0:
320,192,20520,1,0,0:0:0:0:
448,192,20520,1,0,0:0:0:0:
64,192,20595,1,0,0:0:0:0:
192,192,20595,1,0,0:0:0:0:
320,192,20670,1,0,0:0:0:0:
448,192,20670,1,0,0:0:0:0:
192,192,20745,1,0,0:0:0:0:
64,192,20745,1,0,0:0:0:0:
320,192,20820,1,0,0:0:0:0:
448,192,20820,1,0,0:0:0:0:
192,192,20895,1,0,0:0:0:0:
64,192,20895,1,0,0:0:0:0:
448,192,21120,128,0,21420:0:0:0:0:
320,192,21120,1,0,0:0:0:0:
320,192,21270,128,0,21570:0:0:0:0:
192,192,21270,1,0,0:0:0:0:
192,192,21420,128,0,21720:0:0:0:0:
64,192,21420,1,0,0:0:0:0:
64,192,21570,128,0,21870:0:0:0:0:
448,192,21570,1,0,0:0:0:0:
320,192,21720,128,0,22020:0:0:0:0:
448,192,21720,1,0,0:0:0:0:
448,192,21870,128,0,22170:0:0:0:0:
192,192,21870,1,0,0:0:0:0:
192,192,22020,128,0,22170:0:0:0:0:
64,192,22020,1,0,0:0:0:0:
64,192,22170,1,8,0:0:0:0:
320,192,22170,1,0,0:0:0:0:
192,192,22320,1,0,0:0:0:0:
64,192,22470,128,0,22620:0:0:0:0:
320,192,22470,1,2,0:0:0:0:
448,192,22470,1,0,0:0:0:0:
192,192,22620,128,0,22770:0:0:0:0:
448,192,22620,1,0,0:0:0:0:
320,192,22770,128,0,22920:0:0:0:0:
64,192,22770,1,0,0:0:0:0:
448,192,22920,1,0,0:0:0:0:
64,192,22920,128,0,23070:0:0:0:0:
448,192,23070,128,0,23220:0:0:0:0:
320,192,23070,1,0,0:0:0:0:
192,192,23070,1,2,0:0:0:0:
64,192,23220,128,0,23370:0:0:0:0:
320,192,23220,1,0,0:0:0:0:
448,192,23370,1,0,0:0:0:0:
192,192,23370,128,0,23520:0:0:0:0:
320,192,23520,128,0,23670:0:0:0:0:
64,192,23520,1,0,0:0:0:0:
448,192,23670,128,0,23820:0:0:0:0:
192,192,23670,1,0,0:0:0:0:
64,192,23670,1,2,0:0:0:0:
320,192,23820,128,0,23970:0:0:0:0:
192,192,23820,1,0,0:0:0:0:
64,192,23970,128,0,24120:0:0:0:0:
448,192,23970,1,0,0:0:0:0:
192,192,24120,128,0,24270:0:0:0:0:
320,192,24120,1,0,0:0:0:0:
448,192,24270,128,0,24420:0:0:0:0:
64,192,24270,1,0,0:0:0:0:
320,192,24270,1,2,0:0:0:0:
192,192,24420,128,0,24570:0:0:0:0:
64,192,24420,1,0,0:0:0:0:
320,192,24570,1,0,0:0:0:0:
448,192,24570,1,0,0:0:0:0:
192,192,24720,1,0,0:0:0:0:
64,192,24870,1,2,0:0:0:0:
448,192,24870,128,0,25020:0:0:0:0:
320,192,24870,1,0,0:0:0:0:
192,192,25020,128,0,25170:0:0:0:0:
64,192,25020,1,0,0:0:0:0:
320,192,25170,128,0,25320:0:0:0:0:
448,192,25170,1,0,0:0:0:0:
64,192,25320,128,0,25470:0:0:0:0:
192,192,25320,1,0,0:0:0:0:
192,192,25470,1,0,0:0:0:0:
320,192,25470,1,2,0:0:0:0:
448,192,25470,128,0,25620:0:0:0:0:
64,192,25620,128,0,25770:0:0:0:0:
320,192,25620,1,0,0:0:0:0:
192,192,25770,1,0,0:0:0:0:
448,192,25770,1,0,0:0:0:0:
320,192,25920,1,0,0:0:0:0:
448,192,26070,1,0,0:0:0:0:
192,192,26070,1,2,0:0:0:0:
64,192,26070,128,0,26220:0:0:0:0:
320,192,26220,128,0,26370:0:0:0:0:
448,192,26220,1,0,0:0:0:0:
192,192,26370,128,0,26520:0:0:0:0:
64,192,26370,1,0,0:0:0:0:
448,192,26520,128,0,26670:0:0:0:0:
320,192,26520,1,0,0:0:0:0:
64,192,26670,128,0,26820:0:0:0:0:
192,192,26670,1,0,0:0:0:0:
320,192,26670,1,2,0:0:0:0:
448,192,26820,128,0,26970:0:0:0:0:
192,192,26820,1,0,0:0:0:0:
64,192,26970,1,0,0:0:0:0:
320,192,26970,1,0,0:0:0:0:
192,192,27120,1,0,0:0:0:0:
64,192,27270,1,0,0:0:0:0:
448,192,27270,1,2,0:0:0:0:
320,192,27270,128,0,27420:0:0:0:0:
192,192,27420,128,0,27570:0:0:0:0:
448,192,27420,1,0,0:0:0:0:
64,192,27570,128,0,27720:0:0:0:0:
320,192,27570,1,0,0:0:0:0:
192,192,27720,1,0,0:0:0:0:
448,192,27720,128,0,27870:0:0:0:0:
320,192,27870,128,0,28020:0:0:0:0:
192,192,27870,1,2,0:0:0:0:
64,192,27870,1,0,0:0:0:0:
64,192,28020,128,0,28170:0:0:0:0:
448,192,28020,1,0,0:0:0:0:
192,192,28170,128,0,28320:0:0:0:0:
320,192,28170,1,0,0:0:0:0:
448,192,28170,1,0,0:0:0:0:
64,192,28320,1,0,0:0:0:0:
448,192,28470,1,0,0:0:0:0:
192,192,28470,1,2,0:0:0:0:
320,192,28470,128,0,28620:0:0:0:0:
64,192,28620,128,0,28770:0:0:0:0:
448,192,28620,1,0,0:0:0:0:
320,192,28770,1,0,0:0:0:0:
192,192,28770,128,0,28920:0:0:0:0:
448,192,28920,128,0,29070:0:0:0:0:
64,192,28920,1,0,0:0:0:0:
192,192,29070,1,2,0:0:0:0:
64,192,29070,1,0,0:0:0:0:
320,192,29070,128,0,29220:0:0:0:0:
448,192,29220,128,0,29370:0:0:0:0:
192,192,29370,1,0,0:0:0:0:
64,192,29370,1,0,0:0:0:0:
320,192,29520,1,0,0:0:0:0:
64,192,29670,1,0,0:0:0:0:
192,192,29670,1,2,0:0:0:0:
448,192,29670,128,0,29820:0:0:0:0:
320,192,29820,128,0,29970:0:0:0:0:
64,192,29820,1,0,0:0:0:0:
192,192,29970,128,0,30120:0:0:0:0:
448,192,29970,1,0,0:0:0:0:
64,192,30120,128,0,30270:0:0:0:0:
320,192,30120,1,0,0:0:0:0:
448,192,30270,128,0,30420:0:0:0:0:
320,192,30270,1,2,0:0:0:0:
192,192,30270,1,0,0:0:0:0:
64,192,30420,128,0,30570:0:0:0:0:
192,192,30420,1,0,0:0:0:0:
320,192,30570,1,0,0:0:0:0:
448,192,30570,128,0,30720:0:0:0:0:
192,192,30720,128,0,30870:0:0:0:0:
64,192,30720,1,0,0:0:0:0:
320,192,30870,128,0,31020:0:0:0:0:
448,192,30870,1,0,0:0:0:0:
192,192,31020,128,0,31170:0:0:0:0:
64,192,31020,1,0,0:0:0:0:
320,192,31170,1,0,0:0:0:0:
64,192,31170,128,0,31320:0:0:0:0:
448,192,31320,1,0,0:0:0:0:
192,192,31320,1,0,0:0:0:0:
64,192,31395,1,0,0:0:0:0:
320,192,31395,1,0,0:0:0:0:
448,192,31470,1,0,0:0:0:0:
192,192,31470,1,0,0:0:0:0:
192,192,31620,1,0,0:0:0:0:
320,192,31620,1,0,0:0:0:0:
448,192,31770,1,8,0:0:0:0:
320,192,31770,1,0,0:0:0:0:
64,192,31770,1,0,0:0:0:0:
64,192,31920,1,0,0:0:0:0:
192,192,31920,1,0,0:0:0:0:
320,192,32070,1,0,0:0:0:0:
192,192,32070,1,0,0:0:0:0:
448,192,32070,1,0,0:0:0:0:
64,192,32220,1,0,0:0:0:0:
320,192,32220,1,0,0:0:0:0:
64,192,32370,1,0,0:0:0:0:
448,192,32370,1,0,0:0:0:0:
320,192,32520,1,0,0:0:0:0:
192,192,32520,1,0,0:0:0:0:
320,192,32670,1,0,0:0:0:0:
448,192,32670,1,0,0:0:0:0:
64,192,32670,1,2,0:0:0:0:
448,192,32820,1,0,0:0:0:0:
192,192,32820,1,0,0:0:0:0:
192,192,32970,1,0,0:0:0:0:
320,192,32970,1,0,0:0:0:0:
320,192,33120,1,0,0:0:0:0:
448,192,33120,1,0,0:0:0:0:
448,192,33270,1,2,0:0:0:0:
192,192,33270,1,0,0:0:0:0:
64,192,33270,1,0,0:0:0:0:
192,192,33420,1,0,0:0:0:0:
320,192,33420,1,0,0:0:0:0:
64,192,33570,1,0,0:0:0:0:
320,192,33570,1,0,0:0:0:0:
64,192,33720,1,0,0:0:0:0:
448,192,33720,1,0,0:0:0:0:
448,192,33870,1,0,0:0:0:0:
320,192,33870,1,2,0:0:0:0:
192,192,33870,1,0,0:0:0:0:
192,192,34020,1,0,0:0:0:0:
64,192,34020,1,0,0:0:0:0:
64,192,34170,1,0,0:0:0:0:
448,192,34170,1,0,0:0:0:0:
448,192,34320,1,0,0:0:0:0:
320,192,34320,1,0,0:0:0:0:
320,192,34470,1,0,0:0:0:0:
192,192,34470,1,0,0:0:0:0:
64,192,34470,1,0,0:0:0:0:
64,192,34620,1,0,0:0:0:0:
448,192,34620,1,0,0:0:0:0:
192,192,34770,1,0,0:0:0:0:
448,192,34770,1,0,0:0:0:0:
320,192,34920,1,0,0:0:0:0:
192,192,34920,1,0,0:0:0:0:
320,192,35070,1,0,0:0:0:0:
64,192,35070,1,0,0:0:0:0:
448,192,35070,1,2,0:0:0:0:
192,192,35220,1,0,0:0:0:0:
64,192,35220,1,0,0:0:0:0:
192,192,35370,1,0,0:0:0:0:
320,192,35370,1,0,0:0:0:0:
320,192,35520,1,0,0:0:0:0:
448,192,35520,1,0,0:0:0:0:
448,192,35670,1,0,0:0:0:0:
64,192,35670,1,0,0:0:0:0:
192,192,35670,1,0,0:0:0:0:
320,192,35820,1,0,0:0:0:0:
192,192,35820,1,0,0:0:0:0:
64,192,35970,1,0,0:0:0:0:
320,192,35970,1,0,0:0:0:0:
64,192,36120,1,0,0:0:0:0:
192,192,36120,1,0,0:0:0:0:
320,192,36195,1,0,0:0:0:0:
448,192,36195,1,0,0:0:0:0:
192,192,36270,1,0,0:0:0:0:
64,192,36270,1,0,0:0:0:0:
192,192,36420,1,0,0:0:0:0:
320,192,36420,1,0,0:0:0:0:
448,192,36570,1,0,0:0:0:0:
320,192,36570,1,0,0:0:0:0:
64,192,36570,1,0,0:0:0:0:
64,192,36720,1,0,0:0:0:0:
192,192,36720,1,0,0:0:0:0:
192,192,36870,1,0,0:0:0:0:
320,192,36870,1,8,0:0:0:0:
448,192,36870,1,0,0:0:0:0:
64,192,37020,1,0,0:0:0:0:
448,192,37020,1,0,0:0:0:0:
64,192,37170,1,0,0:0:0:0:
192,192,37170,1,0,0:0:0:0:
320,192,37320,1,0,0:0:0:0:
192,192,37320,1,0,0:0:0:0:
320,192,37470,1,0,0:0:0:0:
64,192,37470,1,0,0:0:0:0:
448,192,37470,1,2,0:0:0:0:
64,192,37620,1,0,0:0:0:0:
192,192,37620,1,0,0:0:0:0:
448,192,37770,1,0,0:0:0:0:
192,192,37770,1,0,0:0:0:0:
448,192,37920,1,0,0:0:0:0:
64,192,37920,1,0,0:0:0:0:
64,192,38070,1,0,0:0:0:0:
192,192,38070,1,0,0:0:0:0:
320,192,38070,1,2,0:0:0:0:
192,192,38220,1,0,0:0:0:0:
448,192,38220,1,0,0:0:0:0:
448,192,38370,1,0,0:0:0:0:
64,192,38370,1,0,0:0:0:0:
320,192,38370,1,0,0:0:0:0:
192,192,38520,1,0,0:0:0:0:
64,192,38520,1,0,0:0:0:0:
448,192,38670,1,0,0:0:0:0:
192,192,38670,1,0,0:0:0:0:
448,192,38820,1,0,0:0:0:0:
64,192,38820,1,0,0:0:0:0:
64,192,38970,1,0,0:0:0:0:
192,192,38970,1,0,0:0:0:0:
192,192,39120,1,0,0:0:0:0:
320,192,39120,1,0,0:0:0:0:
320,192,39270,1,0,0:0:0:0:
448,192,39270,1,0,0:0:0:0:
448,192,39420,1,0,0:0:0:0:
64,192,39420,1,0,0:0:0:0:
64,192,39570,1,0,0:0:0:0:
320,192,39570,1,0,0:0:0:0:
192,192,39720,1,0,0:0:0:0:
320,192,39720,1,0,0:0:0:0:
192,192,39870,1,0,0:0:0:0:
448,192,39870,1,0,0:0:0:0:
64,192,40020,1,0,0:0:0:0:
448,192,40020,1,0,0:0:0:0:
64,192,40170,1,0,0:0:0:0:
192,192,40170,1,0,0:0:0:0:
448,192,40245,1,0,0:0:0:0:
320,192,40245,1,0,0:0:0:0:
192,192,40320,1,0,0:0:0:0:
64,192,40320,1,0,0:0:0:0:
320,192,40395,1,0,0:0:0:0:
448,192,40395,1,0,0:0:0:0:
192,192,40470,1,0,0:0:0:0:
64,192,40470,1,0,0:0:0:0:
320,192,40620,1,0,0:0:0:0:
448,192,40620,1,0,0:0:0:0:
64,192,40770,1,0,0:0:0:0:
192,192,40770,1,0,0:0:0:0:
320,192,40845,1,0,0:0:0:0:
448,192,40920,1,0,0:0:0:0:
64,192,40920,1,0,0:0:0:0:
192,192,40995,1,0,0:0:0:0:
320,192,41070,1,0,0:0:0:0:
448,192,41070,1,0,0:0:0:0:
64,192,41145,1,0,0:0:0:0:
448,192,41220,1,0,0:0:0:0:
320,192,41257,1,0,0:0:0:0:
192,192,41295,1,0,0:0:0:0:
64,192,41332,1,0,0:0:0:0:
320,192,41370,1,8,0:0:0:0:
448,192,41370,128,0,43770:0:0:0:0:
192,192,41820,1,0,0:0:0:0:
64,192,42270,1,0,0:0:0:0:
320,192,42720,1,0,0:0:0:0:
64,192,43170,1,0,0:0:0:0:
320,192,43470,1,0,0:0:0:0:
320,192,43770,128,0,44970:0:0:0:0:
64,192,43770,1,0,0:0:0:0:
192,192,44220,1,0,0:0:0:0:
64,192,44670,1,0,0:0:0:0:
192,192,44970,128,0,46170:0:0:0:0:
448,192,45120,1,0,0:0:0:0:
64,192,46170,128,0,48570:0:0:0:0:
320,192,46170,1,0,0:0:0:0:
448,192,46620,1,0,0:0:0:0:
192,192,47070,1,0,0:0:0:0:
320,192,47520,1,0,0:0:0:0:
192,192,47970,1,0,0:0:0:0:
448,192,48270,1,0,0:0:0:0:
320,192,48570,128,0,49770:0:0:0:0:
192,192,48570,1,0,0:0:0:0:
64,192,49020,1,0,0:0:0:0:
448,192,49470,1,0,0:0:0:0:
192,192,49770,128,0,50970:0:0:0:0:
320,192,49920,1,0,0:0:0:0:
64,192,50670,128,0,50970:0:0:0:0:
448,192,50970,128,0,53370:0:0:0:0:
320,192,50970,1,8,0:0:0:0:
192,192,51420,1,0,0:0:0:0:
64,192,51870,1,0,0:0:0:0:
320,192,52320,1,0,0:0:0:0:
64,192,53370,128,0,54570:0:0:0:0:
320,192,53370,1,0,0:0:0:0:
192,192,53820,1,0,0:0:0:0:
320,192,54270,1,0,0:0:0:0:
192,192,54570,128,0,55770:0:0:0:0:
448,192,54720,1,0,0:0:0:0:
320,192,55170,1,0,0:0:0:0:
64,192,55470,1,0,0:0:0:0:
448,192,55770,128,0,58170:0:0:0:0:
320,192,55770,1,0,0:0:0:0:
64,192,56070,1,0,0:0:0:0:
192,192,56220,1,0,0:0:0:0:
320,192,56370,1,0,0:0:0:0:
64,192,56520,1,0,0:0:0:0:
320,192,56670,1,0,0:0:0:0:
192,192,56820,1,0,0:0:0:0:
64,192,56970,1,0,0:0:0:0:
192,192,57045,1,0,0:0:0:0:
320,192,57120,1,0,0:0:0:0:
64,192,57195,1,0,0:0:0:0:
192,192,57270,1,0,0:0:0:0:
320,192,57345,1,0,0:0:0:0:
192,192,57420,1,0,0:0:0:0:
64,192,57495,1,0,0:0:0:0:
192,192,57570,1,0,0:0:0:0:
320,192,57645,1,0,0:0:0:0:
64,192,57720,1,0,0:0:0:0:
192,192,57795,1,0,0:0:0:0:
320,192,57870,1,0,0:0:0:0:
64,192,57945,1,0,0:0:0:0:
192,192,58020,1,0,0:0:0:0:
320,192,58095,1,0,0:0:0:0:
192,192,58170,1,0,0:0:0:0:
64,192,58170,1,0,0:0:0:0:
448,192,58245,1,0,0:0:0:0:
320,192,58320,1,0,0:0:0:0:
64,192,58395,1,0,0:0:0:0:
448,192,58470,1,0,0:0:0:0:
192,192,58545,1,0,0:0:0:0:
320,192,58620,1,0,0:0:0:0:
64,192,58695,1,0,0:0:0:0:
448,192,58770,1,0,0:0:0:0:
320,192,58845,1,0,0:0:0:0:
192,192,58920,1,0,0:0:0:0:
64,192,58995,1,0,0:0:0:0:
448,192,59070,1,0,0:0:0:0:
320,192,59145,1,0,0:0:0:0:
64,192,59220,1,0,0:0:0:0:
192,192,59295,1,0,0:0:0:0:
448,192,59370,1,0,0:0:0:0:
320,192,59370,1,0,0:0:0:0:
192,192,59445,1,0,0:0:0:0:
448,192,59520,1,0,0:0:0:0:
64,192,59520,1,0,0:0:0:0:
320,192,59595,1,0,0:0:0:0:
192,192,59670,1,0,0:0:0:0:
64,192,59670,1,0,0:0:0:0:
320,192,59745,1,0,0:0:0:0:
448,192,59820,1,0,0:0:0:0:
64,192,59820,1,0,0:0:0:0:
192,192,59895,1,0,0:0:0:0:
320,192,59970,1,0,0:0:0:0:
448,192,59970,1,0,0:0:0:0:
192,192,60045,1,0,0:0:0:0:
64,192,60120,1,0,0:0:0:0:
448,192,60120,1,0,0:0:0:0:
320,192,60195,1,0,0:0:0:0:
192,192,60270,1,0,0:0:0:0:
64,192,60270,1,0,0:0:0:0:
320,192,60345,1,0,0:0:0:0:
448,192,60420,1,0,0:0:0:0:
64,192,60420,1,0,0:0:0:0:
320,192,60495,1,0,0:0:0:0:
192,192,60570,1,0,0:0:0:0:
64,192,60570,1,0,0:0:0:0:
448,192,60570,1,0,0:0:0:0:
320,192,60645,1,0,0:0:0:0:
64,192,60720,1,0,0:0:0:0:
320,192,60795,1,0,0:0:0:0:
448,192,60870,1,0,0:0:0:0:
64,192,60870,1,0,0:0:0:0:
192,192,60945,1,0,0:0:0:0:
320,192,61020,1,0,0:0:0:0:
448,192,61020,1,0,0:0:0:0:
64,192,61020,1,0,0:0:0:0:
448,192,61320,1,0,0:0:0:0:
320,192,61320,1,0,0:0:0:0:
192,192,61320,1,0,0:0:0:0:
64,192,61470,1,0,0:0:0:0:
192,192,61470,1,0,0:0:0:0:
448,192,61470,1,0,0:0:0:0:
64,192,61620,1,0,0:0:0:0:
320,192,61620,1,0,0:0:0:0:
448,192,61770,1,0,0:0:0:0:
320,192,61770,1,0,0:0:0:0:
64,192,61920,1,0,0:0:0:0:
448,192,61920,1,0,0:0:0:0:
192,192,61920,1,0,0:0:0:0:
64,192,62070,1,0,0:0:0:0:
320,192,62070,1,0,0:0:0:0:
448,192,62070,1,0,0:0:0:0:
192,192,62220,1,0,0:0:0:0:
320,192,62220,1,0,0:0:0:0:
64,192,62220,1,0,0:0:0:0:
448,192,62370,1,0,0:0:0:0:
192,192,62370,1,0,0:0:0:0:
64,192,62370,1,0,0:0:0:0:
192,192,62520,1,0,0:0:0:0:
320,192,62520,1,0,0:0:0:0:
448,192,62520,1,0,0:0:0:0:
448,192,62670,1,0,0:0:0:0:
64,192,62670,1,0,0:0:0:0:
320,192,62670,1,0,0:0:0:0:
320,192,62970,1,0,0:0:0:0:
64,192,62970,1,0,0:0:0:0:
448,192,62970,1,0,0:0:0:0:
192,192,63045,1,0,0:0:0:0:
320,192,63120,1,0,0:0:0:0:
448,192,63195,1,0,0:0:0:0:
64,192,63270,1,0,0:0:0:0:
192,192,63270,1,0,0:0:0:0:
320,192,63345,1,0,0:0:0:0:
448,192,63420,1,0,0:0:0:0:
64,192,63420,1,0,0:0:0:0:
192,192,63420,1,0,0:0:0:0:
320,192,63495,1,0,0:0:0:0:
64,192,63570,1,0,0:0:0:0:
320,192,63645,1,0,0:0:0:0:
448,192,63720,1,0,0:0:0:0:
64,192,63720,1,0,0:0:0:0:
192,192,63720,1,0,0:0:0:0:
192,192,63870,1,0,0:0:0:0:
448,192,63870,1,0,0:0:0:0:
320,192,63870,1,0,0:0:0:0:
64,192,64020,1,0,0:0:0:0:
192,192,64020,1,0,0:0:0:0:
448,192,64170,1,0,0:0:0:0:
320,192,64170,1,0,0:0:0:0:
64,192,64320,1,0,0:0:0:0:
448,192,64320,1,0,0:0:0:0:
192,192,64320,1,0,0:0:0:0:
64,192,64470,1,0,0:0:0:0:
448,192,64470,1,0,0:0:0:0:
320,192,64470,1,0,0:0:0:0:
192,192,64620,1,0,0:0:0:0:
64,192,64620,1,0,0:0:0:0:
448,192,64620,1,0,0:0:0:0:
448,192,64770,1,0,0:0:0:0:
320,192,64770,1,0,0:0:0:0:
192,192,64770,1,0,0:0:0:0:
64,192,64920,1,0,0:0:0:0:
192,192,64920,1,0,0:0:0:0:
448,192,64920,1,0,0:0:0:0:
448,192,65070,1,0,0:0:0:0:
320,192,65070,1,0,0:0:0:0:
64,192,65070,1,0,0:0:0:0:
192,192,65220,1,0,0:0:0:0:
320,192,65220,1,0,0:0:0:0:
64,192,65370,1,0,0:0:0:0:
192,192,65370,1,0,0:0:0:0:
448,192,65370,1,8,0:0:0:0:
320,192,65445,1,0,0:0:0:0:
192,192,65520,1,0,0:0:0:0:
64,192,65595,1,0,0:0:0:0:
320,192,65670,1,0,0:0:0:0:
448,192,65670,1,0,0:0:0:0:
192,192,65745,1,0,0:0:0:0:
64,192,65820,1,0,0:0:0:0:
448,192,65820,1,0,0:0:0:0:
320,192,65820,1,0,0:0:0:0:
192,192,65895,1,0,0:0:0:0:
448,192,65970,1,0,0:0:0:0:
64,192,66045,1,0,0:0:0:0:
320,192,66120,1,0,0:0:0:0:
448,192,66120,1,0,0:0:0:0:
192,192,66120,1,0,0:0:0:0:
64,192,66270,1,0,0:0:0:0:
448,192,66270,1,0,0:0:0:0:
192,192,66270,1,0,0:0:0:0:
320,192,66420,1,0,0:0:0:0:
448,192,66420,1,0,0:0:0:0:
192,192,66570,1,0,0:0:0:0:
64,192,66570,1,0,0:0:0:0:
448,192,66720,1,0,0:0:0:0:
320,192,66720,1,0,0:0:0:0:
64,192,66720,1,0,0:0:0:0:
192,192,66870,1,0,0:0:0:0:
320,192,66870,1,0,0:0:0:0:
448,192,66870,1,0,0:0:0:0:
64,192,67020,1,0,0:0:0:0:
192,192,67020,1,0,0:0:0:0:
320,192,67020,1,0,0:0:0:0:
64,192,67170,1,0,0:0:0:0:
448,192,67170,1,0,0:0:0:0:
192,192,67170,1,0,0:0:0:0:
192,192,67320,1,0,0:0:0:0:
320,192,67320,1,0,0:0:0:0:
448,192,67320,1,0,0:0:0:0:
64,192,67470,1,0,0:0:0:0:
192,192,67470,1,0,0:0:0:0:
320,192,67470,1,0,0:0:0:0:
448,192,67770,1,0,0:0:0:0:
320,192,67770,1,0,0:0:0:0:
64,192,67770,1,8,0:0:0:0:
192,192,67845,1,0,0:0:0:0:
320,192,67920,1,0,0:0:0:0:
448,192,67995,1,0,0:0:0:0:
64,192,68070,1,0,0:0:0:0:
192,192,68070,1,0,0:0:0:0:
320,192,68145,1,0,0:0:0:0:
448,192,68220,1,0,0:0:0:0:
64,192,68220,1,0,0:0:0:0:
192,192,68220,1,0,0:0:0:0:
320,192,68295,1,0,0:0:0:0:
64,192,68370,1,0,0:0:0:0:
448,192,68445,1,0,0:0:0:0:
192,192,68520,1,0,0:0:0:0:
64,192,68520,1,0,0:0:0:0:
320,192,68520,1,0,0:0:0:0:
448,192,68670,1,0,0:0:0:0:
320,192,68670,1,0,0:0:0:0:
64,192,68670,1,0,0:0:0:0:
192,192,68820,1,0,0:0:0:0:
320,192,68820,1,0,0:0:0:0:
320,192,68970,1,0,0:0:0:0:
448,192,68970,1,0,0:0:0:0:
64,192,69120,1,0,0:0:0:0:
192,192,69120,1,0,0:0:0:0:
448,192,69120,1,0,0:0:0:0:
320,192,69270,1,0,0:0:0:0:
192,192,69270,1,0,0:0:0:0:
64,192,69270,1,0,0:0:0:0:
192,192,69420,1,0,0:0:0:0:
320,192,69420,1,0,0:0:0:0:
448,192,69420,1,0,0:0:0:0:
448,192,69570,1,0,0:0:0:0:
64,192,69570,1,0,0:0:0:0:
192,192,69570,1,0,0:0:0:0:
320,192,69720,1,0,0:0:0:0:
448,192,69720,1,0,0:0:0:0:
64,192,69720,1,0,0:0:0:0:
64,192,69870,1,0,0:0:0:0:
192,192,69870,1,0,0:0:0:0:
448,192,69870,1,0,0:0:0:0:
320,192,70020,1,0,0:0:0:0:
192,192,70020,1,0,0:0:0:0:
448,192,70170,1,0,0:0:0:0:
64,192,70170,1,0,0:0:0:0:
192,192,70245,1,0,0:0:0:0:
320,192,70320,1,0,0:0:0:0:
448,192,70395,1,0,0:0:0:0:
64,192,70470,1,0,0:0:0:0:
192,192,70470,1,0,0:0:0:0:
320,192,70545,1,0,0:0:0:0:
192,192,70620,1,0,0:0:0:0:
64,192,70695,1,0,0:0:0:0:
320,192,70770,1,0,0:0:0:0:
448,192,70770,1,0,0:0:0:0:
192,192,70845,1,0,0:0:0:0:
64,192,70920,1,0,0:0:0:0:
448,192,70920,1,0,0:0:0:0:
320,192,70995,1,0,0:0:0:0:
192,192,71070,1,0,0:0:0:0:
448,192,71070,1,0,0:0:0:0:
64,192,71145,1,0,0:0:0:0:
320,192,71220,1,0,0:0:0:0:
448,192,71295,1,0,0:0:0:0:
64,192,71370,1,0,0:0:0:0:
192,192,71370,1,0,0:0:0:0:
320,192,71445,1,0,0:0:0:0:
448,192,71520,1,0,0:0:0:0:
64,192,71520,1,0,0:0:0:0:
192,192,71595,1,0,0:0:0:0:
320,192,71670,1,0,0:0:0:0:
448,192,71670,1,0,0:0:0:0:
192,192,71745,1,0,0:0:0:0:
64,192,71820,1,0,0:0:0:0:
448,192,71820,1,0,0:0:0:0:
320,192,71895,1,0,0:0:0:0:
192,192,71970,1,0,0:0:0:0:
64,192,71970,1,0,0:0:0:0:
320,192,72045,1,0,0:0:0:0:
448,192,72120,1,0,0:0:0:0:
64,192,72120,1,0,0:0:0:0:
192,192,72195,1,0,0:0:0:0:
320,192,72270,1,0,0:0:0:0:
448,192,72270,1,0,0:0:0:0:
192,192,72345,1,0,0:0:0:0:
64,192,72420,1,0,0:0:0:0:
448,192,72495,1,0,0:0:0:0:
320,192,72570,1,0,0:0:0:0:
192,192,72570,1,0,0:0:0:0:
64,192,72645,1,0,0:0:0:0:
320,192,72720,1,0,0:0:0:0:
192,192,72795,1,0,0:0:0:0:
448,192,72870,1,0,0:0:0:0:
64,192,72870,1,0,0:0:0:0:
320,192,72945,1,0,0:0:0:0:
192,192,73020,1,0,0:0:0:0:
64,192,73020,1,0,0:0:0:0:
320,192,73095,1,0,0:0:0:0:
448,192,73170,1,0,0:0:0:0:
64,192,73170,1,0,0:0:0:0:
192,192,73245,1,0,0:0:0:0:
320,192,73320,1,0,0:0:0:0:
448,192,73320,1,0,0:0:0:0:
192,192,73395,1,0,0:0:0:0:
64,192,73470,1,0,0:0:0:0:
448,192,73470,1,0,0:0:0:0:
320,192,73545,1,0,0:0:0:0:
192,192,73620,1,0,0:0:0:0:
64,192,73620,1,0,0:0:0:0:
320,192,73695,1,0,0:0:0:0:
448,192,73770,1,0,0:0:0:0:
64,192,73770,1,0,0:0:0:0:
192,192,73845,1,0,0:0:0:0:
320,192,73920,1,0,0:0:0:0:
448,192,73920,1,0,0:0:0:0:
192,192,73995,1,0,0:0:0:0:
64,192,73995,1,0,0:0:0:0:
320,192,74070,1,0,0:0:0:0:
448,192,74070,1,0,0:0:0:0:
192,192,74145,1,0,0:0:0:0:
64,192,74220,1,0,0:0:0:0:
448,192,74220,1,0,0:0:0:0:
320,192,74295,1,0,0:0:0:0:
192,192,74370,1,0,0:0:0:0:
64,192,74370,1,0,0:0:0:0:
320,192,74445,1,0,0:0:0:0:
448,192,74520,1,0,0:0:0:0:
64,192,74520,1,0,0:0:0:0:
192,192,74595,1,0,0:0:0:0:
320,192,74670,1,0,0:0:0:0:
448,192,74670,1,0,0:0:0:0:
192,192,74745,1,0,0:0:0:0:
64,192,74745,1,0,0:0:0:0:
448,192,74820,1,0,0:0:0:0:
320,192,74820,1,0,0:0:0:0:
192,192,74895,1,0,0:0:0:0:
448,192,74970,1,0,0:0:0:0:
320,192,74970,1,0,0:0:0:0:
64,192,74970,1,0,0:0:0:0:
192,192,75045,1,2,0:0:0:0:
448,192,75120,1,2,0:0:0:0:
64,192,75195,1,2,0:0:0:0:
192,192,75270,1,0,0:0:0:0:
320,192,75270,1,2,0:0:0:0:
448,192,75345,1,2,0:0:0:0:
64,192,75420,1,2,0:0:0:0:
192,192,75495,1,2,0:0:0:0:
320,192,75570,1,2,0:0:0:0:
448,192,75570,1,0,0:0:0:0:
64,192,75645,1,2,0:0:0:0:
192,192,75720,1,2,0:0:0:0:
448,192,75795,1,2,0:0:0:0:
64,192,75870,1,0,0:0:0:0:
192,192,75870,1,2,0:0:0:0:
320,192,75945,1,2,0:0:0:0:
448,192,75945,1,0,0:0:0:0:
192,192,76020,1,2,0:0:0:0:
64,192,76020,1,0,0:0:0:0:
320,192,76095,1,2,0:0:0:0:
448,192,76095,1,0,0:0:0:0:
192,192,76170,1,2,0:0:0:0:
64,192,76170,1,0,0:0:0:0:
320,192,76245,1,2,0:0:0:0:
448,192,76245,1,0,0:0:0:0:
64,192,76320,1,0,0:0:0:0:
192,192,76320,1,2,0:0:0:0:
320,192,76395,1,2,0:0:0:0:
448,192,76395,1,0,0:0:0:0:
192,192,76470,1,2,0:0:0:0:
64,192,76470,1,0,0:0:0:0:
320,192,76545,1,2,0:0:0:0:
448,192,76545,1,0,0:0:0:0:
64,192,76620,1,0,0:0:0:0:
192,192,76620,1,2,0:0:0:0:
320,192,76695,1,2,0:0:0:0:
448,192,76695,1,0,0:0:0:0:
192,192,76770,1,2,0:0:0:0:
64,192,76770,1,0,0:0:0:0:
320,192,76845,1,2,0:0:0:0:
448,192,76845,1,0,0:0:0:0:
192,192,76920,1,2,0:0:0:0:
64,192,76920,1,0,0:0:0:0:
448,192,76995,1,0,0:0:0:0:
320,192,76995,1,2,0:0:0:0:
192,192,77070,1,2,0:0:0:0:
64,192,77070,1,0,0:0:0:0:
320,192,77145,1,2,0:0:0:0:
448,192,77145,1,0,0:0:0:0:
192,192,77220,1,2,0:0:0:0:
64,192,77220,1,0,0:0:0:0:
320,192,77295,1,2,0:0:0:0:
448,192,77370,1,2,0:0:0:0:
64,192,77370,1,0,0:0:0:0:
192,192,77445,1,2,0:0:0:0:
320,192,77445,1,0,0:0:0:0:
64,192,77520,1,0,0:0:0:0:
448,192,77520,1,2,0:0:0:0:
192,192,77595,1,2,0:0:0:0:
320,192,77595,1,0,0:0:0:0:
64,192,77670,1,0,0:0:0:0:
448,192,77670,1,2,0:0:0:0:
320,192,77745,1,0,0:0:0:0:
192,192,77745,1,2,0:0:0:0:
64,192,77820,1,0,0:0:0:0:
448,192,77820,1,2,0:0:0:0:
320,192,77895,1,0,0:0:0:0:
192,192,77895,1,2,0:0:0:0:
448,192,77970,1,2,0:0:0:0:
64,192,77970,1,0,0:0:0:0:
192,192,78045,1,2,0:0:0:0:
320,192,78045,1,0,0:0:0:0:
64,192,78120,1,0,0:0:0:0:
448,192,78120,1,2,0:0:0:0:
320,192,78195,1,0,0:0:0:0:
192,192,78195,1,2,0:0:0:0:
64,192,78270,1,0,0:0:0:0:
448,192,78270,1,2,0:0:0:0:
320,192,78345,1,0,0:0:0:0:
192,192,78345,1,2,0:0:0:0:
64,192,78420,1,0,0:0:0:0:
448,192,78420,1,2,0:0:0:0:
192,192,78495,1,2,0:0:0:0:
64,192,78570,1,0,0:0:0:0:
448,192,78570,1,8,0:0:0:0:
320,192,78570,128,0,79770:0:0:0:0:
192,192,78870,1,0,0:0:0:0:
448,192,79020,128,0,79770:0:0:0:0:
64,192,79470,128,0,79770:0:0:0:0:
192,192,79770,1,0,0:0:0:0:
320,192,79920,1,0,0:0:0:0:
448,192,79920,1,0,0:0:0:0:
448,192,80070,1,2,0:0:0:0:
192,192,80070,1,0,0:0:0:0:
64,192,80070,1,0,0:0:0:0:
192,192,80220,1,0,0:0:0:0:
320,192,80220,1,0,0:0:0:0:
64,192,80370,1,0,0:0:0:0:
448,192,80370,1,0,0:0:0:0:
64,192,80520,1,0,0:0:0:0:
192,192,80520,1,0,0:0:0:0:
192,192,80670,1,0,0:0:0:0:
320,192,80670,1,2,0:0:0:0:
448,192,80670,1,0,0:0:0:0:
64,192,80820,1,0,0:0:0:0:
320,192,80820,1,0,0:0:0:0:
448,192,80970,1,0,0:0:0:0:
64,192,80970,1,0,0:0:0:0:
192,192,81120,1,0,0:0:0:0:
448,192,81120,1,0,0:0:0:0:
320,192,81270,1,0,0:0:0:0:
192,192,81270,1,0,0:0:0:0:
64,192,81270,1,2,0:0:0:0:
320,192,81420,1,0,0:0:0:0:
448,192,81420,1,0,0:0:0:0:
64,192,81570,1,0,0:0:0:0:
320,192,81570,1,0,0:0:0:0:
64,192,81720,1,0,0:0:0:0:
192,192,81720,1,0,0:0:0:0:
192,192,81870,1,0,0:0:0:0:
448,192,81870,1,2,0:0:0:0:
320,192,81870,1,0,0:0:0:0:
64,192,82020,1,0,0:0:0:0:
320,192,82020,1,0,0:0:0:0:
448,192,82170,1,0,0:0:0:0:
64,192,82170,1,0,0:0:0:0:
448,192,82320,1,0,0:0:0:0:
320,192,82320,1,0,0:0:0:0:
192,192,82470,1,0,0:0:0:0:
64,192,82470,1,2,0:0:0:0:
320,192,82470,1,0,0:0:0:0:
448,192,82620,1,0,0:0:0:0:
192,192,82620,1,0,0:0:0:0:
64,192,82770,1,0,0:0:0:0:
448,192,82770,1,0,0:0:0:0:
320,192,82920,1,0,0:0:0:0:
192,192,82920,1,0,0:0:0:0:
448,192,83070,1,2,0:0:0:0:
320,192,83070,1,0,0:0:0:0:
64,192,83070,1,0,0:0:0:0:
192,192,83220,1,0,0:0:0:0:
64,192,83220,1,0,0:0:0:0:
192,192,83370,1,0,0:0:0:0:
320,192,83370,1,0,0:0:0:0:
448,192,83520,1,0,0:0:0:0:
320,192,83520,1,0,0:0:0:0:
448,192,83670,1,0,0:0:0:0:
64,192,83670,1,0,0:0:0:0:
192,192,83670,1,2,0:0:0:0:
320,192,83820,1,0,0:0:0:0:
192,192,83820,1,0,0:0:0:0:
64,192,83970,1,0,0:0:0:0:
448,192,83970,1,0,0:0:0:0:
64,192,84120,1,0,0:0:0:0:
320,192,84120,1,0,0:0:0:0:
320,192,84270,1,0,0:0:0:0:
448,192,84270,1,0,0:0:0:0:
192,192,84345,1,0,0:0:0:0:
64,192,84345,1,0,0:0:0:0:
320,192,84420,1,0,0:0:0:0:
448,192,84420,1,0,0:0:0:0:
64,192,84570,1,0,0:0:0:0:
448,192,84570,1,0,0:0:0:0:
192,192,84720,1,0,0:0:0:0:
320,192,84720,1,0,0:0:0:0:
448,192,84870,1,2,0:0:0:0:
64,192,84870,1,0,0:0:0:0:
320,192,84870,1,0,0:0:0:0:
192,192,85020,1,0,0:0:0:0:
64,192,85020,1,0,0:0:0:0:
448,192,85170,1,0,0:0:0:0:
192,192,85170,1,0,0:0:0:0:
64,192,85320,1,0,0:0:0:0:
448,192,85320,1,0,0:0:0:0:
64,192,85470,1,0,0:0:0:0:
192,192,85470,1,2,0:0:0:0:
320,192,85470,1,0,0:0:0:0:
320,192,85620,1,0,0:0:0:0:
448,192,85620,1,0,0:0:0:0:
448,192,85770,1,0,0:0:0:0:
192,192,85770,1,0,0:0:0:0:
64,192,85920,1,0,0:0:0:0:
192,192,85920,1,0,0:0:0:0:
64,192,86070,1,0,0:0:0:0:
448,192,86070,1,2,0:0:0:0:
320,192,86070,1,0,0:0:0:0:
192,192,86220,1,0,0:0:0:0:
320,192,86220,1,0,0:0:0:0:
448,192,86370,1,0,0:0:0:0:
320,192,86370,1,0,0:0:0:0:
448,192,86520,1,0,0:0:0:0:
64,192,86520,1,0,0:0:0:0:
64,192,86670,1,0,0:0:0:0:
192,192,86670,1,0,0:0:0:0:
320,192,86745,1,0,0:0:0:0:
448,192,86745,1,0,0:0:0:0:
192,192,86820,1,0,0:0:0:0:
64,192,86820,1,0,0:0:0:0:
320,192,86895,1,0,0:0:0:0:
64,192,86970,1,0,0:0:0:0:
192,192,86970,1,0,0:0:0:0:
448,192,86970,1,0,0:0:0:0:
320,192,87045,1,0,0:0:0:0:
448,192,87120,1,0,0:0:0:0:
64,192,87195,1,0,0:0:0:0:
192,192,87270,1,0,0:0:0:0:
320,192,87270,1,0,0:0:0:0:
448,192,87345,1,0,0:0:0:0:
64,192,87420,1,0,0:0:0:0:
192,192,87420,1,0,0:0:0:0:
320,192,87420,1,0,0:0:0:0:
320,192,87720,1,0,0:0:0:0:
448,192,87720,1,0,0:0:0:0:
320,192,87870,1,0,0:0:0:0:
192,192,87870,1,0,0:0:0:0:
64,192,88020,1,0,0:0:0:0:
192,192,88020,1,0,0:0:0:0:
448,192,88170,1,0,0:0:0:0:
64,192,88170,1,0,0:0:0:0:
320,192,88320,1,0,0:0:0:0:
192,192,88320,1,0,0:0:0:0:
448,192,88320,1,0,0:0:0:0:
192,192,88470,1,0,0:0:0:0:
64,192,88470,1,0,0:0:0:0:
448,192,88470,1,0,0:0:0:0:
64,192,88620,1,0,0:0:0:0:
192,192,88620,1,0,0:0:0:0:
320,192,88620,1,0,0:0:0:0:
448,192,88770,1,0,0:0:0:0:
320,192,88770,1,0,0:0:0:0:
64,192,88770,1,0,0:0:0:0:
192,192,88920,1,0,0:0:0:0:
320,192,88920,1,0,0:0:0:0:
448,192,88920,1,0,0:0:0:0:
64,192,89070,1,0,0:0:0:0:
192,192,89070,1,0,0:0:0:0:
320,192,89145,1,0,0:0:0:0:
448,192,89145,1,0,0:0:0:0:
192,192,89220,1,0,0:0:0:0:
64,192,89220,1,0,0:0:0:0:
320,192,89295,1,0,0:0:0:0:
448,192,89295,1,0,0:0:0:0:
192,192,89370,1,0,0:0:0:0:
64,192,89370,1,8,0:0:0:0:
448,192,89370,1,0,0:0:0:0:
320,192,89520,1,0,0:0:0:0:
64,192,89670,1,2,0:0:0:0:
448,192,89670,1,0,0:0:0:0:
192,192,89670,128,0,89820:0:0:0:0:
320,192,89820,128,0,89970:0:0:0:0:
448,192,89820,1,0,0:0:0:0:
448,192,89970,128,0,90120:0:0:0:0:
64,192,89970,1,0,0:0:0:0:
64,192,90120,128,0,90270:0:0:0:0:
320,192,90120,1,0,0:0:0:0:
192,192,90270,128,0,90420:0:0:0:0:
448,192,90270,1,0,0:0:0:0:
320,192,90270,1,2,0:0:0:0:
64,192,90420,1,0,0:0:0:0:
448,192,90420,128,0,90570:0:0:0:0:
320,192,90570,1,0,0:0:0:0:
192,192,90570,128,0,90720:0:0:0:0:
448,192,90720,1,0,0:0:0:0:
64,192,90870,1,2,0:0:0:0:
192,192,90870,1,0,0:0:0:0:
320,192,90870,128,0,91020:0:0:0:0:
448,192,91020,128,0,91170:0:0:0:0:
192,192,91020,1,0,0:0:0:0:
320,192,91170,1,0,0:0:0:0:
64,192,91170,128,0,91320:0:0:0:0:
192,192,91320,1,0,0:0:0:0:
448,192,91320,128,0,91470:0:0:0:0:
64,192,91470,1,0,0:0:0:0:
192,192,91470,1,2,0:0:0:0:
320,192,91470,128,0,91620:0:0:0:0:
448,192,91620,128,0,91770:0:0:0:0:
64,192,91620,1,0,0:0:0:0:
192,192,91770,128,0,91920:0:0:0:0:
320,192,91770,1,0,0:0:0:0:
64,192,91920,1,0,0:0:0:0:
192,192,92070,1,2,0:0:0:0:
320,192,92070,1,0,0:0:0:0:
448,192,92070,128,0,92220:0:0:0:0:
64,192,92220,128,0,92370:0:0:0:0:
320,192,92220,1,0,0:0:0:0:
192,192,92370,128,0,92520:0:0:0:0:
448,192,92370,1,0,0:0:0:0:
320,192,92520,128,0,92670:0:0:0:0:
64,192,92520,1,0,0:0:0:0:
192,192,92670,128,0,92820:0:0:0:0:
448,192,92670,1,0,0:0:0:0:
64,192,92670,1,2,0:0:0:0:
320,192,92820,128,0,92970:0:0:0:0:
448,192,92820,1,0,0:0:0:0:
64,192,92970,128,0,93120:0:0:0:0:
192,192,92970,1,0,0:0:0:0:
448,192,93120,1,0,0:0:0:0:
320,192,93270,128,0,93420:0:0:0:0:
192,192,93270,1,2,0:0:0:0:
64,192,93270,1,0,0:0:0:0:
64,192,93420,128,0,93570:0:0:0:0:
448,192,93420,1,0,0:0:0:0:
320,192,93570,1,0,0:0:0:0:
192,192,93570,128,0,93720:0:0:0:0:
448,192,93720,1,0,0:0:0:0:
64,192,93720,128,0,93870:0:0:0:0:
320,192,93870,1,0,0:0:0:0:
448,192,93870,1,0,0:0:0:0:
192,192,93945,1,0,0:0:0:0:
64,192,93945,1,0,0:0:0:0:
320,192,94020,1,0,0:0:0:0:
448,192,94020,128,0,94170:0:0:0:0:
192,192,94170,1,0,0:0:0:0:
64,192,94170,128,0,94320:0:0:0:0:
320,192,94320,128,0,94470:0:0:0:0:
448,192,94320,1,0,0:0:0:0:
64,192,94470,1,0,0:0:0:0:
448,192,94470,1,2,0:0:0:0:
192,192,94470,128,0,94620:0:0:0:0:
320,192,94620,1,0,0:0:0:0:
64,192,94620,128,0,94770:0:0:0:0:
192,192,94770,1,0,0:0:0:0:
448,192,94770,128,0,94920:0:0:0:0:
320,192,94920,1,0,0:0:0:0:
64,192,94920,128,0,95070:0:0:0:0:
192,192,95070,1,2,0:0:0:0:
320,192,95070,1,0,0:0:0:0:
448,192,95070,1,0,0:0:0:0:
448,192,95220,128,0,95370:0:0:0:0:
64,192,95220,1,0,0:0:0:0:
192,192,95370,128,0,95520:0:0:0:0:
320,192,95370,1,0,0:0:0:0:
64,192,95520,128,0,95670:0:0:0:0:
448,192,95520,1,0,0:0:0:0:
320,192,95670,128,0,95820:0:0:0:0:
192,192,95670,1,0,0:0:0:0:
448,192,95670,1,2,0:0:0:0:
64,192,95820,128,0,95970:0:0:0:0:
192,192,95820,1,0,0:0:0:0:
320,192,95970,1,0,0:0:0:0:
448,192,95970,1,0,0:0:0:0:
320,192,96120,1,0,0:0:0:0:
192,192,96120,1,0,0:0:0:0:
192,192,96270,1,0,0:0:0:0:
64,192,96270,1,0,0:0:0:0:
64,192,96420,1,0,0:0:0:0:
448,192,96420,1,0,0:0:0:0:
320,192,96495,1,0,0:0:0:0:
192,192,96495,1,0,0:0:0:0:
64,192,96570,1,0,0:0:0:0:
448,192,96570,1,0,0:0:0:0:
192,192,96645,1,0,0:0:0:0:
448,192,96720,1,0,0:0:0:0:
320,192,96795,1,0,0:0:0:0:
64,192,96870,1,2,0:0:0:0:
192,192,96870,1,0,0:0:0:0:
448,192,96870,1,0,0:0:0:0:
320,192,96945,1,0,0:0:0:0:
192,192,97020,1,0,0:0:0:0:
320,192,97095,1,0,0:0:0:0:
448,192,97170,1,0,0:0:0:0:
64,192,97170,1,0,0:0:0:0:
192,192,97245,1,0,0:0:0:0:
448,192,97320,1,0,0:0:0:0:
320,192,97320,1,0,0:0:0:0:
192,192,97395,1,0,0:0:0:0:
448,192,97470,1,0,0:0:0:0:
64,192,97470,1,0,0:0:0:0:
320,192,97470,1,2,0:0:0:0:
192,192,97545,1,0,0:0:0:0:
448,192,97620,1,0,0:0:0:0:
64,192,97620,1,0,0:0:0:0:
320,192,97695,1,0,0:0:0:0:
192,192,97770,1,0,0:0:0:0:
64,192,97770,1,0,0:0:0:0:
448,192,97920,1,0,0:0:0:0:
320,192,97920,1,0,0:0:0:0:
64,192,97920,1,0,0:0:0:0:
64,192,98070,1,0,0:0:0:0:
192,192,98070,1,0,0:0:0:0:
320,192,98070,1,0,0:0:0:0:
448,192,98220,1,0,0:0:0:0:
320,192,98220,1,0,0:0:0:0:
192,192,98220,1,0,0:0:0:0:
64,192,98370,1,0,0:0:0:0:
192,192,98370,1,0,0:0:0:0:
448,192,98370,1,0,0:0:0:0:
448,192,98520,1,0,0:0:0:0:
320,192,98520,1,0,0:0:0:0:
64,192,98520,1,0,0:0:0:0:
64,192,98670,1,0,0:0:0:0:
192,192,98670,1,0,0:0:0:0:
320,192,98670,1,0,0:0:0:0:
448,192,98820,1,0,0:0:0:0:
320,192,98970,1,0,0:0:0:0:
64,192,98970,1,0,0:0:0:0:
448,192,98970,1,0,0:0:0:0:
192,192,99045,1,0,0:0:0:0:
320,192,99120,1,0,0:0:0:0:
448,192,99195,1,0,0:0:0:0:
64,192,99270,1,0,0:0:0:0:
192,192,99270,1,0,0:0:0:0:
320,192,99345,1,0,0:0:0:0:
448,192,99420,1,0,0:0:0:0:
64,192,99420,1,0,0:0:0:0:
192,192,99420,1,0,0:0:0:0:
320,192,99495,1,0,0:0:0:0:
64,192,99570,1,0,0:0:0:0:
192,192,99720,1,0,0:0:0:0:
448,192,99720,1,0,0:0:0:0:
64,192,99870,1,0,0:0:0:0:
320,192,99870,1,0,0:0:0:0:
448,192,99870,1,2,0:0:0:0:
192,192,100020,1,0,0:0:0:0:
320,192,100020,1,0,0:0:0:0:
448,192,100170,1,0,0:0:0:0:
192,192,100170,1,0,0:0:0:0:
64,192,100320,1,0,0:0:0:0:
320,192,100320,1,0,0:0:0:0:
448,192,100320,1,0,0:0:0:0:
64,192,100470,1,0,0:0:0:0:
192,192,100470,1,0,0:0:0:0:
320,192,100470,1,0,0:0:0:0:
64,192,100620,1,0,0:0:0:0:
320,192,100620,1,0,0:0:0:0:
448,192,100620,1,0,0:0:0:0:
320,192,100770,1,0,0:0:0:0:
448,192,100770,1,0,0:0:0:0:
64,192,100770,1,0,0:0:0:0:
64,192,100920,1,0,0:0:0:0:
192,192,100920,1,0,0:0:0:0:
448,192,100920,1,0,0:0:0:0:
64,192,101070,1,0,0:0:0:0:
192,192,101070,1,0,0:0:0:0:
320,192,101070,1,0,0:0:0:0:
448,192,101370,1,0,0:0:0:0:
64,192,101370,1,0,0:0:0:0:
192,192,101370,1,0,0:0:0:0:
320,192,101445,1,0,0:0:0:0:
192,192,101520,1,0,0:0:0:0:
64,192,101595,1,0,0:0:0:0:
320,192,101670,1,0,0:0:0:0:
448,192,101670,1,0,0:0:0:0:
192,192,101745,1,0,0:0:0:0:
448,192,101820,1,0,0:0:0:0:
64,192,101820,1,0,0:0:0:0:
320,192,101820,1,0,0:0:0:0:
192,192,101895,1,0,0:0:0:0:
448,192,101970,1,0,0:0:0:0:
320,192,102120,1,0,0:0:0:0:
64,192,102120,1,0,0:0:0:0:
64,192,102270,1,2,0:0:0:0:
192,192,102270,1,0,0:0:0:0:
448,192,102270,1,0,0:0:0:0:
320,192,102420,1,0,0:0:0:0:
192,192,102420,1,0,0:0:0:0:
64,192,102570,1,0,0:0:0:0:
320,192,102570,1,0,0:0:0:0:
192,192,102720,1,0,0:0:0:0:
448,192,102720,1,0,0:0:0:0:
64,192,102720,1,0,0:0:0:0:
192,192,102870,1,0,0:0:0:0:
320,192,102870,1,0,0:0:0:0:
448,192,102870,1,0,0:0:0:0:
64,192,103020,1,0,0:0:0:0:
192,192,103020,1,0,0:0:0:0:
320,192,103020,1,0,0:0:0:0:
448,192,103170,1,0,0:0:0:0:
320,192,103170,1,0,0:0:0:0:
64,192,103170,1,0,0:0:0:0:
192,192,103320,1,0,0:0:0:0:
64,192,103320,1,0,0:0:0:0:
448,192,103320,1,0,0:0:0:0:
448,192,103470,1,0,0:0:0:0:
320,192,103470,1,0,0:0:0:0:
192,192,103470,1,0,0:0:0:0:
64,192,103620,1,0,0:0:0:0:
320,192,103620,1,0,0:0:0:0:
448,192,103770,1,0,0:0:0:0:
320,192,103770,1,0,0:0:0:0:
64,192,103845,1,0,0:0:0:0:
192,192,103920,1,0,0:0:0:0:
448,192,103995,1,0,0:0:0:0:
320,192,104070,1,0,0:0:0:0:
64,192,104070,1,0,0:0:0:0:
192,192,104145,1,0,0:0:0:0:
448,192,104220,1,0,0:0:0:0:
320,192,104295,1,0,0:0:0:0:
192,192,104370,1,0,0:0:0:0:
64,192,104370,1,0,0:0:0:0:
320,192,104445,1,0,0:0:0:0:
448,192,104520,1,0,0:0:0:0:
64,192,104520,1,0,0:0:0:0:
192,192,104595,1,0,0:0:0:0:
320,192,104670,1,0,0:0:0:0:
448,192,104670,1,0,0:0:0:0:
192,192,104745,1,0,0:0:0:0:
64,192,104820,1,0,0:0:0:0:
448,192,104895,1,0,0:0:0:0:
320,192,104970,1,0,0:0:0:0:
192,192,104970,1,0,0:0:0:0:
64,192,105045,1,0,0:0:0:0:
448,192,105120,1,0,0:0:0:0:
192,192,105195,1,0,0:0:0:0:
320,192,105270,1,0,0:0:0:0:
448,192,105270,1,0,0:0:0:0:
192,192,105345,1,0,0:0:0:0:
64,192,105420,1,0,0:0:0:0:
448,192,105420,1,0,0:0:0:0:
320,192,105495,1,0,0:0:0:0:
192,192,105570,1,0,0:0:0:0:
64,192,105570,1,0,0:0:0:0:
320,192,105645,1,0,0:0:0:0:
448,192,105720,1,0,0:0:0:0:
64,192,105720,1,0,0:0:0:0:
192,192,105795,1,0,0:0:0:0:
320,192,105870,1,0,0:0:0:0:
448,192,105870,1,0,0:0:0:0:
192,192,105945,1,0,0:0:0:0:
64,192,106020,1,0,0:0:0:0:
320,192,106095,1,0,0:0:0:0:
192,192,106170,1,0,0:0:0:0:
448,192,106170,1,0,0:0:0:0:
64,192,106245,1,0,0:0:0:0:
320,192,106320,1,0,0:0:0:0:
192,192,106395,1,0,0:0:0:0:
448,192,106470,1,0,0:0:0:0:
320,192,106470,1,0,0:0:0:0:
192,192,106545,1,0,0:0:0:0:
64,192,106620,1,0,0:0:0:0:
448,192,106620,1,0,0:0:0:0:
320,192,106695,1,0,0:0:0:0:
192,192,106770,1,0,0:0:0:0:
64,192,106770,1,0,0:0:0:0:
320,192,106845,1,0,0:0:0:0:
448,192,106920,1,0,0:0:0:0:
64,192,106920,1,0,0:0:0:0:
192,192,106995,1,0,0:0:0:0:
320,192,107070,1,0,0:0:0:0:
448,192,107070,1,0,0:0:0:0:
192,192,107145,1,0,0:0:0:0:
64,192,107220,1,0,0:0:0:0:
448,192,107220,1,0,0:0:0:0:
320,192,107295,1,0,0:0:0:0:
192,192,107370,1,0,0:0:0:0:
64,192,107370,1,0,0:0:0:0:
320,192,107445,1,0,0:0:0:0:
448,192,107520,1,0,0:0:0:0:
64,192,107520,1,0,0:0:0:0:
320,192,107595,1,0,0:0:0:0:
192,192,107595,1,0,0:0:0:0:
64,192,107670,1,0,0:0:0:0:
448,192,107670,1,0,0:0:0:0:
192,192,107745,1,0,0:0:0:0:
320,192,107820,1,0,0:0:0:0:
448,192,107820,1,0,0:0:0:0:
192,192,107895,1,0,0:0:0:0:
64,192,107895,1,0,0:0:0:0:
320,192,107970,1,0,0:0:0:0:
448,192,107970,1,0,0:0:0:0:
192,192,108045,1,0,0:0:0:0:
64,192,108120,1,0,0:0:0:0:
448,192,108120,1,0,0:0:0:0:
320,192,108195,1,0,0:0:0:0:
192,192,108195,1,0,0:0:0:0:
64,192,108270,1,0,0:0:0:0:
448,192,108270,1,0,0:0:0:0:
192,192,108345,1,0,0:0:0:0:
320,192,108345,1,0,0:0:0:0:
64,192,108420,1,0,0:0:0:0:
448,192,108420,1,0,0:0:0:0:
192,192,108495,1,0,0:0:0:0:
320,192,108495,1,0,0:0:0:0:
448,192,108945,128,0,112170:0:0:0:0:
192,192,108945,128,8,112170:0:0:0:0:
320,192,108945,128,0,112170:0:0:0:0:
64,192,108945,128,0,112170:0:0:0:0:
