osu file format v14

[General]
AudioFilename: ULTIMATE SURVIVAL Crazy Jackpot - Hommarju.mp3
AudioLeadIn: 0
PreviewTime: -1
Countdown: 1
SampleSet: Soft
StackLeniency: 0.7
Mode: 0
LetterboxInBreaks: 1
WidescreenStoryboard: 0

[Editor]
Bookmarks: 35732,47026,52673,58320,68202,69614,92202,109144,114791
DistanceSpacing: 0.7
BeatDivisor: 4
GridSize: 8
TimelineZoom: 1.7

[Metadata]
Title:Crazy Jackpot
TitleUnicode:Crazy Jackpot
Artist:Hommarju
ArtistUnicode:Hommarju
Creator:ouranhshc
Version:Insane
Source:
Tags:
BeatmapID:940938
BeatmapSetID:436928

[Difficulty]
HPDrainRate:7
CircleSize:4
OverallDifficulty:8
ApproachRate:9
SliderMultiplier:2
SliderTickRate:2

[Events]
//Background and Video events
0,0,"power_unleashed-wallpaper-1366x768.jpg",0,0
//Break Periods
//Storyboard Layer 0 (Background)
//Storyboard Layer 1 (Fail)
//Storyboard Layer 2 (Pass)
//Storyboard Layer 3 (Foreground)
//Storyboard Sound Samples

[TimingPoints]
1837,352.941176470588,4,2,0,100,1,0

[Colours]
Combo1 : 255,192,0
Combo2 : 255,255,0
Combo3 : 18,124,255
Combo4 : 242,24,57

[HitObjects]
256,192,7307,5,8,0:0:0:0:
256,192,7484,1,8,0:0:0:0:
144,192,7660,1,8,0:0:0:0:
152,148,7748,1,8,0:0:0:0:
178,111,7836,1,8,0:0:0:0:
214,88,7925,1,8,0:0:0:0:
256,80,8013,1,8,0:0:0:0:
256,192,8189,5,8,0:0:0:0:
256,304,8365,1,8,0:0:0:0:
212,295,8453,1,8,0:0:0:0:
175,269,8541,1,8,0:0:0:0:
152,233,8630,1,8,0:0:0:0:
144,192,8718,1,8,0:0:0:0:
256,192,8895,5,8,0:0:0:0:
368,192,9071,1,8,0:0:0:0:
359,235,9159,1,8,0:0:0:0:
333,272,9247,1,8,0:0:0:0:
297,295,9336,1,8,0:0:0:0:
256,304,9424,1,8,0:0:0:0:
256,192,9601,5,8,0:0:0:0:
256,80,9777,1,8,0:0:0:0:
299,88,9865,1,8,0:0:0:0:
336,114,9953,1,8,0:0:0:0:
359,150,10042,1,8,0:0:0:0:
368,192,10130,1,8,0:0:0:0:
256,113,10307,5,8,0:0:0:0:
286,119,10395,1,8,0:0:0:0:
311,137,10483,1,8,0:0:0:0:
327,162,10572,1,8,0:0:0:0:
334,192,10660,1,8,0:0:0:0:
328,222,10748,1,8,0:0:0:0:
310,247,10836,1,8,0:0:0:0:
285,263,10925,1,8,0:0:0:0:
256,270,11013,1,8,0:0:0:0:
225,264,11101,1,8,0:0:0:0:
200,246,11189,1,8,0:0:0:0:
184,221,11278,1,8,0:0:0:0:
177,192,11366,1,8,0:0:0:0:
183,161,11454,1,8,0:0:0:0:
201,136,11542,1,8,0:0:0:0:
226,120,11631,1,8,0:0:0:0:
256,113,11719,6,0,P|296:128|328:176,1,100
256,270,12072,2,0,P|216:256|184:208,1,100
256,113,12425,5,8,0:0:0:0:
256,272,12778,1,8,0:0:0:0:
400,16,13131,5,8,0:0:0:0:
400,16,13307,1,8,0:0:0:0:
432,8,13395,1,8,0:0:0:0:
464,16,13484,1,8,0:0:0:0:
488,40,13572,1,8,0:0:0:0:
496,72,13660,1,8,0:0:0:0:
488,104,13748,1,8,0:0:0:0:
464,128,13836,5,8,0:0:0:0:
432,136,13925,1,8,0:0:0:0:
400,128,14013,1,8,0:0:0:0:
304,72,14189,1,8,0:0:0:0:
272,56,14278,1,8,0:0:0:0:
239,58,14366,2,0,P|185:83|191:202,1,150
184,200,14719,5,8,0:0:0:0:
216,216,14807,1,8,0:0:0:0:
248,216,14895,1,8,0:0:0:0:
280,208,14984,1,8,0:0:0:0:
312,192,15072,1,8,0:0:0:0:
344,184,15160,1,8,0:0:0:0:
376,184,15248,1,8,0:0:0:0:
408,200,15336,1,8,0:0:0:0:
432,224,15425,1,8,0:0:0:0:
352,328,15601,1,8,0:0:0:0:
320,312,15689,1,8,0:0:0:0:
304,280,15778,1,8,0:0:0:0:
336,136,15954,5,8,0:0:0:0:
336,136,16130,1,8,0:0:0:0:
312,160,16218,1,8,0:0:0:0:
280,176,16307,1,8,0:0:0:0:
248,176,16395,1,8,0:0:0:0:
216,160,16483,1,8,0:0:0:0:
192,136,16571,1,8,0:0:0:0:
160,112,16659,5,8,0:0:0:0:
128,104,16748,1,8,0:0:0:0:
96,112,16836,1,8,0:0:0:0:
47,214,17012,1,8,0:0:0:0:
64,228,17101,1,8,0:0:0:0:
88,240,17189,2,0,P|160:232|200:168,1,150
208,136,17542,5,8,0:0:0:0:
229,108,17630,1,8,0:0:0:0:
260,93,17718,1,8,0:0:0:0:
294,87,17807,1,8,0:0:0:0:
325,102,17895,1,8,0:0:0:0:
353,122,17983,1,8,0:0:0:0:
386,130,18071,1,8,0:0:0:0:
420,122,18159,1,8,0:0:0:0:
448,100,18248,1,8,0:0:0:0:
385,3,18424,1,8,0:0:0:0:
351,11,18512,1,8,0:0:0:0:
325,35,18601,1,8,0:0:0:0:
224,128,18778,5,8,0:0:0:0:
224,128,18954,1,8,0:0:0:0:
192,144,19042,1,8,0:0:0:0:
160,144,19131,1,8,0:0:0:0:
128,128,19219,1,8,0:0:0:0:
112,96,19307,1,8,0:0:0:0:
112,64,19395,1,8,0:0:0:0:
128,32,19483,5,8,0:0:0:0:
160,16,19572,1,8,0:0:0:0:
192,16,19660,1,8,0:0:0:0:
272,80,19836,1,8,0:0:0:0:
304,64,19925,1,8,0:0:0:0:
336,72,20013,2,0,P|384:112|384:200,1,150
368,224,20366,5,8,0:0:0:0:
336,240,20454,1,8,0:0:0:0:
304,240,20542,1,8,0:0:0:0:
272,232,20631,1,8,0:0:0:0:
240,216,20719,1,8,0:0:0:0:
208,200,20807,1,8,0:0:0:0:
176,192,20895,1,8,0:0:0:0:
144,200,20983,1,8,0:0:0:0:
112,224,21072,1,8,0:0:0:0:
80,344,21248,1,8,0:0:0:0:
112,352,21336,1,8,0:0:0:0:
144,344,21425,1,8,0:0:0:0:
232,272,21601,5,8,0:0:0:0:
232,272,21778,1,8,0:0:0:0:
256,248,21866,1,8,0:0:0:0:
288,240,21954,1,8,0:0:0:0:
320,248,22042,1,8,0:0:0:0:
344,272,22131,1,8,0:0:0:0:
352,304,22219,1,8,0:0:0:0:
344,336,22307,1,8,0:0:0:0:
320,360,22395,1,8,0:0:0:0:
288,368,22484,1,8,0:0:0:0:
184,312,22660,1,8,0:0:0:0:
184,280,22748,1,8,0:0:0:0:
192,248,22836,2,0,P|240:200|320:192,1,150
352,208,23189,5,8,0:0:0:0:
384,216,23278,1,8,0:0:0:0:
416,216,23366,1,8,0:0:0:0:
448,200,23454,1,8,0:0:0:0:
472,176,23542,1,8,0:0:0:0:
480,144,23631,1,8,0:0:0:0:
480,112,23719,1,8,0:0:0:0:
472,80,23807,1,8,0:0:0:0:
448,56,23895,1,8,0:0:0:0:
352,8,24072,2,0,L|296:8,2,50
416,128,24425,5,8,0:0:0:0:
352,200,24601,1,8,0:0:0:0:
320,208,24689,1,8,0:0:0:0:
288,200,24778,1,8,0:0:0:0:
256,176,24866,1,8,0:0:0:0:
232,152,24954,1,8,0:0:0:0:
200,136,25042,1,8,0:0:0:0:
168,128,25131,1,8,0:0:0:0:
136,136,25219,1,8,0:0:0:0:
104,152,25307,1,8,0:0:0:0:
16,256,25484,1,8,0:0:0:0:
16,256,25572,1,8,0:0:0:0:
16,256,25660,1,8,0:0:0:0:
112,352,25836,5,8,0:0:0:0:
208,272,26013,1,8,0:0:0:0:
240,264,26101,1,8,0:0:0:0:
272,264,26189,1,8,0:0:0:0:
304,272,26278,1,8,0:0:0:0:
336,288,26366,1,8,0:0:0:0:
368,304,26454,1,8,0:0:0:0:
400,312,26542,1,8,0:0:0:0:
432,312,26631,1,8,0:0:0:0:
464,304,26719,1,8,0:0:0:0:
472,144,26895,2,0,P|422:125|375:134,1,100
264,232,27248,5,8,0:0:0:0:
256,120,27425,1,8,0:0:0:0:
224,120,27513,1,8,0:0:0:0:
192,128,27601,1,8,0:0:0:0:
160,144,27689,1,8,0:0:0:0:
128,168,27778,1,8,0:0:0:0:
104,192,27866,1,8,0:0:0:0:
72,208,27954,1,8,0:0:0:0:
40,216,28042,1,8,0:0:0:0:
8,216,28131,1,8,0:0:0:0:
16,72,28307,1,8,0:0:0:0:
16,72,28395,1,8,0:0:0:0:
16,72,28484,1,8,0:0:0:0:
152,48,28660,5,8,0:0:0:0:
88,152,28836,1,8,0:0:0:0:
112,176,28925,1,8,0:0:0:0:
144,192,29013,1,8,0:0:0:0:
176,192,29101,1,8,0:0:0:0:
208,184,29189,1,8,0:0:0:0:
240,176,29278,1,8,0:0:0:0:
272,176,29366,1,8,0:0:0:0:
304,184,29454,1,8,0:0:0:0:
336,200,29542,1,8,0:0:0:0:
400,304,29719,1,8,0:0:0:0:
400,304,29807,1,8,0:0:0:0:
400,304,29895,1,8,0:0:0:0:
256,336,30072,5,8,0:0:0:0:
200,264,30248,2,0,L|200:208,1,50
312,214,30513,2,0,L|312:264,1,50
256,336,30778,5,8,0:0:0:0:
184,264,30954,2,0,L|184:208,1,50
328,214,31219,2,0,L|328:264,1,50
256,336,31484,5,8,0:0:0:0:
168,264,31660,2,0,L|168:208,1,50
344,214,31925,2,0,L|344:264,1,50
256,336,32189,5,8,0:0:0:0:
152,264,32365,2,0,L|152:208,1,50
360,214,32631,2,0,L|360:264,1,50
237,333,32895,5,0,0:0:0:0:
219,322,32984,1,0,0:0:0:0:
207,306,33072,1,0,0:0:0:0:
202,287,33160,1,0,0:0:0:0:
204,267,33248,1,0,0:0:0:0:
213,249,33336,1,0,0:0:0:0:
228,235,33425,1,0,0:0:0:0:
246,228,33513,1,0,0:0:0:0:
266,228,33601,1,0,0:0:0:0:
285,235,33689,1,0,0:0:0:0:
300,249,33778,1,0,0:0:0:0:
309,267,33866,1,0,0:0:0:0:
310,287,33954,1,0,0:0:0:0:
305,306,34042,1,0,0:0:0:0:
293,322,34131,1,0,0:0:0:0:
276,333,34219,1,0,0:0:0:0:
256,336,34307,5,0,0:0:0:0:
256,192,34660,1,8,0:0:0:0:
256,48,35013,1,8,0:0:0:0:
256,48,35366,6,8,L|256:152,1,100
256,312,35719,5,8,0:0:0:0:
376,344,35895,1,8,0:0:0:0:
408,328,35984,1,8,0:0:0:0:
432,304,36072,1,8,0:0:0:0:
448,272,36160,1,8,0:0:0:0:
456,240,36248,1,8,0:0:0:0:
456,208,36336,1,8,0:0:0:0:
440,176,36425,1,8,0:0:0:0:
408,152,36513,1,8,0:0:0:0:
376,136,36601,1,8,0:0:0:0:
360,288,36778,1,8,0:0:0:0:
360,288,36866,1,8,0:0:0:0:
360,288,36954,1,8,0:0:0:0:
48,104,37307,5,8,0:0:0:0:
48,104,37395,1,8,0:0:0:0:
48,104,37484,1,8,0:0:0:0:
48,104,37572,1,8,0:0:0:0:
48,104,37660,1,8,0:0:0:0:
48,104,37748,1,8,0:0:0:0:
48,104,37836,1,8,0:0:0:0:
48,104,37925,1,8,0:0:0:0:
48,104,38013,1,8,0:0:0:0:
200,8,38189,1,8,0:0:0:0:
200,8,38366,1,8,0:0:0:0:
408,144,38542,5,8,0:0:0:0:
256,240,38719,1,8,0:0:0:0:
256,240,38807,1,8,0:0:0:0:
256,240,38895,1,8,0:0:0:0:
256,240,38984,1,8,0:0:0:0:
256,240,39072,1,8,0:0:0:0:
256,240,39160,1,8,0:0:0:0:
256,240,39248,1,8,0:0:0:0:
256,240,39336,1,8,0:0:0:0:
256,240,39425,1,8,0:0:0:0:
104,144,39601,1,8,0:0:0:0:
104,144,39689,1,8,0:0:0:0:
104,144,39778,1,8,0:0:0:0:
120,280,40131,5,8,0:0:0:0:
120,280,40219,1,8,0:0:0:0:
120,280,40307,1,8,0:0:0:0:
120,280,40395,1,8,0:0:0:0:
120,280,40484,1,8,0:0:0:0:
120,280,40572,1,8,0:0:0:0:
120,280,40660,1,8,0:0:0:0:
120,280,40748,1,8,0:0:0:0:
120,280,40836,1,8,0:0:0:0:
296,264,41013,1,8,0:0:0:0:
296,264,41101,1,8,0:0:0:0:
296,264,41189,1,8,0:0:0:0:
208,112,41366,5,8,0:0:0:0:
208,112,41542,1,8,0:0:0:0:
208,112,41631,1,8,0:0:0:0:
208,112,41719,1,8,0:0:0:0:
208,112,41807,1,8,0:0:0:0:
208,112,41895,1,8,0:0:0:0:
208,112,41984,1,8,0:0:0:0:
208,112,42072,1,8,0:0:0:0:
208,112,42160,1,8,0:0:0:0:
208,112,42248,1,8,0:0:0:0:
384,96,42425,1,8,0:0:0:0:
384,96,42513,1,8,0:0:0:0:
384,96,42601,1,8,0:0:0:0:
24,144,42954,5,8,0:0:0:0:
24,144,43042,1,8,0:0:0:0:
24,144,43131,1,8,0:0:0:0:
24,144,43219,1,8,0:0:0:0:
24,144,43307,1,8,0:0:0:0:
24,144,43395,1,8,0:0:0:0:
24,144,43484,1,8,0:0:0:0:
24,144,43572,1,8,0:0:0:0:
24,144,43660,1,8,0:0:0:0:
200,168,43836,1,8,0:0:0:0:
200,168,44013,1,8,0:0:0:0:
352,72,44189,5,8,0:0:0:0:
448,224,44366,1,8,0:0:0:0:
448,224,44454,1,8,0:0:0:0:
448,224,44542,1,8,0:0:0:0:
448,224,44631,1,8,0:0:0:0:
448,224,44719,1,8,0:0:0:0:
448,224,44807,1,8,0:0:0:0:
448,224,44895,1,8,0:0:0:0:
448,224,44984,1,8,0:0:0:0:
448,224,45072,1,8,0:0:0:0:
288,304,45248,1,8,0:0:0:0:
288,304,45336,1,8,0:0:0:0:
288,304,45425,1,8,0:0:0:0:
248,128,45601,5,8,0:0:0:0:
248,128,45778,1,8,0:0:0:0:
248,128,45866,1,8,0:0:0:0:
248,128,45954,1,8,0:0:0:0:
248,128,46042,1,8,0:0:0:0:
248,128,46131,1,8,0:0:0:0:
248,128,46219,1,8,0:0:0:0:
248,128,46307,1,8,0:0:0:0:
248,128,46395,1,8,0:0:0:0:
248,128,46484,1,8,0:0:0:0:
424,104,46660,1,8,0:0:0:0:
424,104,46748,1,8,0:0:0:0:
424,104,46836,1,8,0:0:0:0:
320,256,47013,5,8,0:0:0:0:
320,256,47189,1,8,0:0:0:0:
144,272,47366,1,8,0:0:0:0:
144,272,47542,1,8,0:0:0:0:
144,272,47631,1,8,0:0:0:0:
144,272,47807,1,8,0:0:0:0:
104,96,47984,1,8,0:0:0:0:
104,96,48072,1,8,0:0:0:0:
280,96,48248,5,8,0:0:0:0:
280,96,48336,1,8,0:0:0:0:
280,96,48425,1,8,0:0:0:0:
280,96,48601,1,8,0:0:0:0:
280,96,48778,1,8,0:0:0:0:
280,96,48954,1,8,0:0:0:0:
280,96,49042,1,8,0:0:0:0:
280,96,49219,1,8,0:0:0:0:
280,96,49395,1,8,0:0:0:0:
280,96,49484,1,8,0:0:0:0:
424,224,49836,5,8,0:0:0:0:
424,224,50013,1,8,0:0:0:0:
424,224,50189,1,8,0:0:0:0:
272,128,50366,1,8,0:0:0:0:
272,128,50454,1,8,0:0:0:0:
272,128,50631,1,8,0:0:0:0:
272,128,50807,1,8,0:0:0:0:
272,128,50895,1,8,0:0:0:0:
96,96,51072,5,8,0:0:0:0:
96,96,51160,1,8,0:0:0:0:
96,96,51248,1,8,0:0:0:0:
96,96,51425,1,8,0:0:0:0:
96,96,51601,1,8,0:0:0:0:
96,96,51778,1,8,0:0:0:0:
96,96,51866,1,8,0:0:0:0:
96,96,52042,1,8,0:0:0:0:
96,96,52219,1,8,0:0:0:0:
96,96,52307,1,8,0:0:0:0:
144,272,52660,5,8,0:0:0:0:
144,272,53013,1,8,0:0:0:0:
144,272,53366,1,8,0:0:0:0:
144,272,53631,1,8,0:0:0:0:
144,272,53895,1,8,0:0:0:0:
224,128,54248,5,8,0:0:0:0:
224,128,54425,1,8,0:0:0:0:
224,128,54778,1,8,0:0:0:0:
224,128,55042,1,8,0:0:0:0:
224,128,55307,1,8,0:0:0:0:
224,128,55484,5,8,0:0:0:0:
224,128,55836,1,8,0:0:0:0:
224,128,56189,1,8,0:0:0:0:
224,128,56454,1,8,0:0:0:0:
224,128,56719,1,8,0:0:0:0:
400,120,56895,5,8,0:0:0:0:
400,120,57072,1,8,0:0:0:0:
400,120,57160,1,8,0:0:0:0:
400,120,57248,1,8,0:0:0:0:
400,120,57425,1,8,0:0:0:0:
400,120,57513,1,8,0:0:0:0:
400,120,57601,1,8,0:0:0:0:
400,120,57778,1,8,0:0:0:0:
400,120,57866,1,8,0:0:0:0:
400,120,57954,1,8,0:0:0:0:
400,120,58131,1,8,0:0:0:0:
400,120,58219,1,8,0:0:0:0:
400,120,58307,5,8,0:0:0:0:
272,176,59013,1,8,0:0:0:0:
272,176,59719,1,8,0:0:0:0:
272,176,60425,1,8,0:0:0:0:
272,176,60778,5,8,0:0:0:0:
272,176,60866,1,8,0:0:0:0:
272,176,60954,1,8,0:0:0:0:
272,176,61042,1,8,0:0:0:0:
272,176,61131,1,8,0:0:0:0:
272,176,61836,1,8,0:0:0:0:
272,176,62542,1,8,0:0:0:0:
272,176,63248,1,8,0:0:0:0:
272,176,63601,1,8,0:0:0:0:
272,176,63689,1,8,0:0:0:0:
272,176,63778,1,8,0:0:0:0:
272,176,63866,1,8,0:0:0:0:
272,176,63954,5,8,0:0:0:0:
112,96,64660,1,8,0:0:0:0:
112,96,65366,1,8,0:0:0:0:
112,96,66072,1,8,0:0:0:0:
112,96,66425,1,8,0:0:0:0:
112,96,66513,1,8,0:0:0:0:
112,96,66601,1,8,0:0:0:0:
112,96,66689,1,8,0:0:0:0:
112,96,66778,5,8,0:0:0:0:
112,96,67484,1,8,0:0:0:0:
112,96,68189,1,8,0:0:0:0:
104,280,68366,1,8,0:0:0:0:
104,280,68454,1,8,0:0:0:0:
104,280,68542,1,8,0:0:0:0:
104,280,68631,1,8,0:0:0:0:
104,280,68719,1,8,0:0:0:0:
104,280,68807,1,8,0:0:0:0:
104,280,68895,1,8,0:0:0:0:
104,280,68984,1,8,0:0:0:0:
104,280,69072,1,8,0:0:0:0:
104,280,69248,1,8,0:0:0:0:
104,280,69336,1,8,0:0:0:0:
104,280,69425,1,8,0:0:0:0:
256,184,69601,5,8,0:0:0:0:
256,184,69778,1,8,0:0:0:0:
256,184,69954,1,8,0:0:0:0:
256,184,70131,1,8,0:0:0:0:
256,184,70307,1,8,0:0:0:0:
256,184,70484,1,8,0:0:0:0:
256,184,70660,1,8,0:0:0:0:
256,184,70836,1,8,0:0:0:0:
432,136,71013,5,8,0:0:0:0:
432,136,71189,1,8,0:0:0:0:
432,136,71366,1,8,0:0:0:0:
432,136,71542,1,8,0:0:0:0:
432,136,71719,1,8,0:0:0:0:
432,136,71895,1,8,0:0:0:0:
432,136,72072,1,8,0:0:0:0:
432,136,72248,1,8,0:0:0:0:
256,96,72425,5,8,0:0:0:0:
256,96,72601,1,8,0:0:0:0:
256,96,72778,1,8,0:0:0:0:
256,96,72954,1,8,0:0:0:0:
256,96,73131,1,8,0:0:0:0:
256,96,73307,1,8,0:0:0:0:
256,96,73484,1,8,0:0:0:0:
256,96,73660,1,8,0:0:0:0:
80,104,73836,5,8,0:0:0:0:
80,104,74013,1,8,0:0:0:0:
80,104,74101,1,8,0:0:0:0:
80,104,74189,1,8,0:0:0:0:
80,104,74366,1,8,0:0:0:0:
80,104,74454,1,8,0:0:0:0:
80,104,74542,1,8,0:0:0:0:
80,104,74719,1,8,0:0:0:0:
80,104,74807,1,8,0:0:0:0:
80,104,74895,1,8,0:0:0:0:
80,104,75072,1,8,0:0:0:0:
80,104,75160,1,8,0:0:0:0:
80,104,75248,5,8,0:0:0:0:
80,288,75425,1,8,0:0:0:0:
80,288,75601,1,8,0:0:0:0:
80,288,75778,1,8,0:0:0:0:
80,288,75954,1,8,0:0:0:0:
80,288,76131,1,8,0:0:0:0:
80,288,76307,1,8,0:0:0:0:
80,288,76484,1,8,0:0:0:0:
256,304,76660,5,8,0:0:0:0:
256,304,76836,1,8,0:0:0:0:
256,304,77013,1,8,0:0:0:0:
256,304,77189,1,8,0:0:0:0:
256,304,77366,1,8,0:0:0:0:
256,304,77542,1,8,0:0:0:0:
256,304,77719,1,8,0:0:0:0:
256,304,77895,1,8,0:0:0:0:
424,232,78072,5,8,0:0:0:0:
424,232,78248,1,8,0:0:0:0:
424,232,78425,1,8,0:0:0:0:
424,232,78601,1,8,0:0:0:0:
424,232,78778,1,8,0:0:0:0:
424,232,78954,1,8,0:0:0:0:
424,232,79131,1,8,0:0:0:0:
424,232,79307,1,8,0:0:0:0:
280,128,79484,5,8,0:0:0:0:
280,128,79660,1,8,0:0:0:0:
280,128,79748,1,8,0:0:0:0:
280,128,79836,1,8,0:0:0:0:
280,128,80013,1,8,0:0:0:0:
280,128,80101,1,8,0:0:0:0:
280,128,80189,1,8,0:0:0:0:
280,128,80366,1,8,0:0:0:0:
280,128,80454,1,8,0:0:0:0:
280,128,80542,1,8,0:0:0:0:
280,128,80719,1,8,0:0:0:0:
280,128,80807,1,8,0:0:0:0:
280,128,80895,5,8,0:0:0:0:
104,160,81072,1,8,0:0:0:0:
104,160,81160,1,8,0:0:0:0:
104,160,81248,1,8,0:0:0:0:
104,160,81336,1,8,0:0:0:0:
104,160,81425,1,8,0:0:0:0:
88,336,81601,1,8,0:0:0:0:
264,296,81778,1,8,0:0:0:0:
264,296,81866,1,8,0:0:0:0:
264,296,81954,1,8,0:0:0:0:
264,296,82042,1,8,0:0:0:0:
264,296,82131,1,8,0:0:0:0:
440,312,82307,1,8,0:0:0:0:
384,144,82484,1,8,0:0:0:0:
384,144,82572,1,8,0:0:0:0:
384,144,82660,1,8,0:0:0:0:
384,144,82748,1,8,0:0:0:0:
384,144,82836,1,8,0:0:0:0:
200,136,83013,1,8,0:0:0:0:
200,136,83189,1,8,0:0:0:0:
200,136,83278,1,8,0:0:0:0:
200,136,83366,1,8,0:0:0:0:
200,136,83454,1,8,0:0:0:0:
200,136,83542,1,8,0:0:0:0:
56,248,83719,5,8,0:0:0:0:
56,248,83895,1,8,0:0:0:0:
56,248,83984,1,8,0:0:0:0:
56,248,84072,1,8,0:0:0:0:
56,248,84160,1,8,0:0:0:0:
56,248,84248,1,8,0:0:0:0:
64,64,84425,5,8,0:0:0:0:
64,64,84601,1,8,0:0:0:0:
64,64,84689,1,8,0:0:0:0:
64,64,84778,1,8,0:0:0:0:
64,64,84866,1,8,0:0:0:0:
64,64,84954,1,8,0:0:0:0:
216,160,85131,5,8,0:0:0:0:
216,160,85307,1,8,0:0:0:0:
216,160,85395,1,8,0:0:0:0:
216,160,85484,1,8,0:0:0:0:
216,160,85572,1,8,0:0:0:0:
216,160,85660,1,8,0:0:0:0:
376,80,85836,5,8,0:0:0:0:
376,80,86013,1,8,0:0:0:0:
376,80,86101,1,8,0:0:0:0:
376,80,86189,1,8,0:0:0:0:
376,80,86278,1,8,0:0:0:0:
376,80,86366,1,8,0:0:0:0:
240,200,86542,5,8,0:0:0:0:
240,200,86631,1,8,0:0:0:0:
240,200,86719,1,8,0:0:0:0:
240,200,86895,1,8,0:0:0:0:
240,200,86984,1,8,0:0:0:0:
240,200,87072,1,8,0:0:0:0:
240,200,87248,1,8,0:0:0:0:
240,200,87336,1,8,0:0:0:0:
240,200,87425,1,8,0:0:0:0:
240,200,87601,1,8,0:0:0:0:
240,200,87689,1,8,0:0:0:0:
240,200,87778,1,8,0:0:0:0:
416,240,87954,5,8,0:0:0:0:
416,240,88042,1,8,0:0:0:0:
416,240,88131,1,8,0:0:0:0:
416,240,88307,1,8,0:0:0:0:
416,240,88395,1,8,0:0:0:0:
416,240,88484,1,8,0:0:0:0:
416,240,88660,1,8,0:0:0:0:
416,240,88748,1,8,0:0:0:0:
416,240,88836,1,8,0:0:0:0:
416,240,89013,1,8,0:0:0:0:
416,240,89101,1,8,0:0:0:0:
416,240,89189,1,8,0:0:0:0:
312,96,89366,5,8,0:0:0:0:
312,96,89454,1,8,0:0:0:0:
312,96,89542,1,8,0:0:0:0:
312,96,89631,1,8,0:0:0:0:
312,96,89719,1,8,0:0:0:0:
312,96,89807,1,8,0:0:0:0:
312,96,89895,1,8,0:0:0:0:
312,96,89984,1,8,0:0:0:0:
312,96,90072,1,8,0:0:0:0:
312,96,90160,1,8,0:0:0:0:
312,96,90248,1,8,0:0:0:0:
312,96,90336,1,8,0:0:0:0:
312,96,90425,1,8,0:0:0:0:
312,96,90513,1,8,0:0:0:0:
312,96,90601,1,8,0:0:0:0:
312,96,90689,1,8,0:0:0:0:
312,96,90778,5,8,0:0:0:0:
136,88,90954,1,8,0:0:0:0:
136,88,91042,1,8,0:0:0:0:
136,88,91131,1,8,0:0:0:0:
136,88,91219,1,8,0:0:0:0:
136,88,91307,1,8,0:0:0:0:
136,88,91395,1,8,0:0:0:0:
136,88,91484,1,8,0:0:0:0:
136,88,91572,1,8,0:0:0:0:
136,88,91660,1,8,0:0:0:0:
48,248,91836,1,8,0:0:0:0:
48,248,91925,1,8,0:0:0:0:
48,248,92013,1,8,0:0:0:0:
216,192,92189,6,8,L|336:272,1,100
299,247,92454,1,8,0:0:0:0:
320,72,92631,1,8,0:0:0:0:
320,72,92719,1,8,0:0:0:0:
320,72,92807,1,8,0:0:0:0:
320,72,92895,1,8,0:0:0:0:
320,72,92984,1,8,0:0:0:0:
320,72,93072,1,8,0:0:0:0:
320,72,93160,1,8,0:0:0:0:
320,72,93248,1,8,0:0:0:0:
64,120,93601,6,8,L|72:232,1,100
71,219,93866,1,8,0:0:0:0:
248,208,94042,1,8,0:0:0:0:
248,208,94131,1,8,0:0:0:0:
248,208,94219,1,8,0:0:0:0:
248,208,94307,5,8,0:0:0:0:
248,208,94395,1,8,0:0:0:0:
248,208,94484,1,8,0:0:0:0:
248,208,94572,1,8,0:0:0:0:
248,208,94660,1,8,0:0:0:0:
248,208,94748,1,8,0:0:0:0:
248,208,94836,1,8,0:0:0:0:
248,208,94925,1,8,0:0:0:0:
248,208,95013,6,8,L|352:224,1,100
346,223,95278,1,8,0:0:0:0:
448,72,95454,1,8,0:0:0:0:
448,72,95542,1,8,0:0:0:0:
448,72,95631,1,8,0:0:0:0:
448,72,95719,1,8,0:0:0:0:
448,72,95807,1,8,0:0:0:0:
448,72,95895,1,8,0:0:0:0:
448,72,95984,1,8,0:0:0:0:
448,72,96072,1,8,0:0:0:0:
88,88,96425,5,8,0:0:0:0:
88,88,96513,1,8,0:0:0:0:
88,88,96601,1,8,0:0:0:0:
88,88,96689,1,8,0:0:0:0:
80,264,96866,5,8,0:0:0:0:
80,264,96954,1,8,0:0:0:0:
80,264,97042,1,8,0:0:0:0:
80,264,97131,1,8,0:0:0:0:
80,264,97219,1,8,0:0:0:0:
80,264,97307,1,8,0:0:0:0:
80,264,97395,1,8,0:0:0:0:
80,264,97484,1,8,0:0:0:0:
80,264,97572,1,8,0:0:0:0:
80,264,97660,1,8,0:0:0:0:
80,264,97748,1,8,0:0:0:0:
80,264,97836,6,8,L|184:264,1,100
180,264,98101,1,8,0:0:0:0:
240,96,98278,1,8,0:0:0:0:
240,96,98366,1,8,0:0:0:0:
240,96,98454,1,8,0:0:0:0:
240,96,98542,1,8,0:0:0:0:
240,96,98631,1,8,0:0:0:0:
240,96,98719,1,8,0:0:0:0:
240,96,98807,1,8,0:0:0:0:
240,96,98895,1,8,0:0:0:0:
80,152,99248,6,8,L|152:240,1,100
143,229,99513,1,8,0:0:0:0:
320,264,99689,1,8,0:0:0:0:
320,264,99778,1,8,0:0:0:0:
320,264,99866,1,8,0:0:0:0:
320,264,99954,1,8,0:0:0:0:
320,264,100042,1,8,0:0:0:0:
320,264,100131,1,8,0:0:0:0:
320,264,100219,1,8,0:0:0:0:
320,264,100307,1,8,0:0:0:0:
320,264,100395,1,8,0:0:0:0:
320,264,100484,1,8,0:0:0:0:
320,264,100572,1,8,0:0:0:0:
320,264,100660,6,8,L|400:200,1,100
398,201,100925,1,8,0:0:0:0:
304,48,101101,1,8,0:0:0:0:
304,48,101189,1,8,0:0:0:0:
304,48,101278,1,8,0:0:0:0:
304,48,101366,1,8,0:0:0:0:
304,48,101454,1,8,0:0:0:0:
304,48,101542,1,8,0:0:0:0:
304,48,101631,1,8,0:0:0:0:
304,48,101719,1,8,0:0:0:0:
112,64,102072,5,8,0:0:0:0:
112,64,102160,1,8,0:0:0:0:
112,64,102248,1,8,0:0:0:0:
112,64,102336,1,8,0:0:0:0:
32,224,102513,1,8,0:0:0:0:
32,224,102601,1,8,0:0:0:0:
32,224,102689,1,8,0:0:0:0:
32,224,102778,1,8,0:0:0:0:
32,224,102866,1,8,0:0:0:0:
32,224,102954,1,8,0:0:0:0:
32,224,103042,1,8,0:0:0:0:
32,224,103131,1,8,0:0:0:0:
32,224,103219,1,8,0:0:0:0:
32,224,103307,1,8,0:0:0:0:
32,224,103395,1,8,0:0:0:0:
32,224,103484,6,8,L|104:152,1,100
102,153,103748,1,8,0:0:0:0:
272,104,103925,1,8,0:0:0:0:
272,104,104013,1,8,0:0:0:0:
272,104,104101,1,8,0:0:0:0:
272,104,104189,1,8,0:0:0:0:
272,104,104278,1,8,0:0:0:0:
272,104,104366,1,8,0:0:0:0:
272,104,104454,1,8,0:0:0:0:
272,104,104542,1,8,0:0:0:0:
280,304,104895,5,8,0:0:0:0:
280,304,104984,1,8,0:0:0:0:
280,304,105072,1,8,0:0:0:0:
280,304,105160,1,8,0:0:0:0:
448,240,105336,1,8,0:0:0:0:
448,240,105425,1,8,0:0:0:0:
448,240,105513,1,8,0:0:0:0:
448,240,105601,1,8,0:0:0:0:
448,240,105689,1,8,0:0:0:0:
448,240,105778,1,8,0:0:0:0:
448,240,105866,1,8,0:0:0:0:
448,240,105954,1,8,0:0:0:0:
448,240,106042,1,8,0:0:0:0:
448,240,106131,1,8,0:0:0:0:
448,240,106219,1,8,0:0:0:0:
448,240,106307,6,8,L|424:136,1,100
425,142,106572,1,8,0:0:0:0:
272,48,106748,1,8,0:0:0:0:
272,48,106836,1,8,0:0:0:0:
272,48,106925,1,8,0:0:0:0:
272,48,107013,1,8,0:0:0:0:
272,48,107101,1,8,0:0:0:0:
272,48,107189,1,8,0:0:0:0:
272,48,107278,1,8,0:0:0:0:
272,48,107366,1,8,0:0:0:0:
40,72,107719,5,8,0:0:0:0:
40,72,107807,1,8,0:0:0:0:
40,72,107895,1,8,0:0:0:0:
40,72,107984,1,8,0:0:0:0:
56,248,108160,1,8,0:0:0:0:
56,248,108248,1,8,0:0:0:0:
56,248,108336,1,8,0:0:0:0:
56,248,108425,1,8,0:0:0:0:
56,248,108513,1,8,0:0:0:0:
56,248,108601,1,8,0:0:0:0:
56,248,108689,1,8,0:0:0:0:
56,248,108778,1,8,0:0:0:0:
56,248,108866,1,8,0:0:0:0:
56,248,108954,1,8,0:0:0:0:
56,248,109042,1,8,0:0:0:0:
56,248,109131,5,8,0:0:0:0:
232,240,109307,1,8,0:0:0:0:
232,240,109395,1,8,0:0:0:0:
232,240,109484,1,8,0:0:0:0:
232,240,109572,1,8,0:0:0:0:
232,240,109660,1,8,0:0:0:0:
344,96,109836,1,8,0:0:0:0:
344,96,110013,1,8,0:0:0:0:
344,96,110101,1,8,0:0:0:0:
344,96,110189,1,8,0:0:0:0:
344,96,110278,1,8,0:0:0:0:
344,96,110366,1,8,0:0:0:0:
344,96,110542,1,8,0:0:0:0:
344,96,110719,1,8,0:0:0:0:
344,96,110807,1,8,0:0:0:0:
344,96,110895,1,8,0:0:0:0:
344,96,110984,1,8,0:0:0:0:
344,96,111072,1,8,0:0:0:0:
344,96,111248,1,8,0:0:0:0:
344,96,111425,1,8,0:0:0:0:
344,96,111513,1,8,0:0:0:0:
344,96,111601,1,8,0:0:0:0:
344,96,111689,1,8,0:0:0:0:
344,96,111778,1,8,0:0:0:0:
168,96,111954,5,8,0:0:0:0:
168,96,112042,1,8,0:0:0:0:
168,96,112131,1,8,0:0:0:0:
168,96,112219,1,8,0:0:0:0:
168,96,112307,1,8,0:0:0:0:
168,96,112395,1,8,0:0:0:0:
168,96,112484,1,8,0:0:0:0:
168,96,112572,1,8,0:0:0:0:
168,96,112660,1,8,0:0:0:0:
168,96,112748,1,8,0:0:0:0:
168,96,112836,1,8,0:0:0:0:
168,96,112925,1,8,0:0:0:0:
168,96,113013,1,8,0:0:0:0:
168,96,113101,1,8,0:0:0:0:
168,96,113189,1,8,0:0:0:0:
168,96,113278,1,8,0:0:0:0:
168,96,113366,5,8,0:0:0:0:
344,88,113542,1,8,0:0:0:0:
344,88,113631,1,8,0:0:0:0:
344,88,113719,1,8,0:0:0:0:
344,88,113807,1,8,0:0:0:0:
344,88,113895,1,8,0:0:0:0:
344,88,113984,1,8,0:0:0:0:
344,88,114072,1,8,0:0:0:0:
344,88,114160,1,8,0:0:0:0:
344,88,114248,1,8,0:0:0:0:
344,88,114425,1,8,0:0:0:0:
344,88,114513,1,8,0:0:0:0:
344,88,114601,1,8,0:0:0:0:
344,88,114778,5,8,0:0:0:0:
