osu file format v14

[General]
AudioFilename: audio.ogg
AudioLeadIn: 0
PreviewTime: 89923
Countdown: 0
SampleSet: Normal
StackLeniency: 0.7
Mode: 1
LetterboxInBreaks: 0
WidescreenStoryboard: 1

[Editor]
DistanceSpacing: 1.2
BeatDivisor: 4
GridSize: 32
TimelineZoom: 1.9

[Metadata]
Title:Crazy Jackpot
TitleUnicode:Crazy Jackpot
Artist:Hommarju
ArtistUnicode:Hommarju
Creator:icouldentthink
Version:FUTSUU
Source:REFLEC BEAT VOLZZA
Tags:Electronic UK HAPPY HARDCORE dance Video Game VGM ost original soundtrack Instrumental English female vocal vocalist ULTIMATE SURVIVAL beatmania IIDX 28 BISTROVER mobile 召しませ!Meshimase ! asia SOUND VOLTEX EXCEED GEAR コナステ コナステ版 REFLEC BEAT セレクション 楽曲パック vol.1 Konasute Version Selection Music Pack volume one INFINITAS vol.22 twenty two HYENA first 1st album NO1Z-0001 The NO1ZE Noize noise Comic Market 92 c92 comiket92 コミックマーケット92 doujin dojin indie All that is. Is all? QWCE-90018 edp DANCE PRODUCTIONS EXIT TUNES DISC 1 Non-Prim BEMANI originals Mayumi Morinaga mm moimoi 森永真由美 KONAMI
BeatmapID:4527349
BeatmapSetID:2148660

[Difficulty]
HPDrainRate:7
CircleSize:2
OverallDifficulty:4
ApproachRate:10
SliderMultiplier:1.4
SliderTickRate:1

[Events]
//Background and Video events
0,0,"EgrJYVKUYAAz2ae.jpg",0,120
//Break Periods
//Storyboard Layer 0 (Background)
//Storyboard Layer 1 (Fail)
//Storyboard Layer 2 (Pass)
//Storyboard Layer 3 (Foreground)
//Storyboard Layer 4 (Overlay)
//Storyboard Sound Samples

[TimingPoints]
985,352.941176470588,4,1,0,60,1,0
985,-111.111111111111,4,1,0,60,0,0
6627,-111.111111111111,4,1,0,70,0,0
10862,-111.111111111111,4,1,0,50,0,0
12274,-111.111111111111,4,1,0,60,0,0
23568,-111.111111111111,4,1,0,70,0,0
34509,-111.111111111111,4,1,0,60,0,0
34867,-111.111111111111,4,1,0,80,0,1
44749,-111.111111111111,4,1,0,80,0,0
44834,-111.111111111111,4,1,0,70,0,0
46161,-111.111111111111,4,1,0,80,0,1
51808,-111.111111111111,4,1,0,80,0,0
56038,-111.111111111111,4,1,0,70,0,0
56391,-111.111111111111,4,1,0,65,0,0
56744,-111.111111111111,4,1,0,60,0,0
57097,-111.111111111111,4,1,0,55,0,0
57450,-111.111111111111,4,1,0,50,0,0
67332,-111.111111111111,4,1,0,60,0,0
68744,-111.111111111111,4,1,0,70,0,0
78979,-111.111111111111,4,1,0,60,0,0
80038,-111.111111111111,4,1,0,80,0,0
91337,-111.111111111111,4,1,0,90,0,1
108279,-111.111111111111,4,1,0,80,0,0
112509,-111.111111111111,4,1,0,70,0,0
113921,-111.111111111111,4,1,0,60,0,0

[HitObjects]
256,192,984,5,6,0:0:0:0:
256,192,1514,1,2,0:0:0:0:
256,192,1779,1,0,0:0:0:0:
256,192,2043,1,0,0:0:0:0:
256,192,2220,1,0,0:0:0:0:
256,192,2396,1,2,0:0:0:0:
256,192,2661,1,0,0:0:0:0:
256,192,2926,1,0,0:0:0:0:
256,192,3190,1,2,0:0:0:0:
256,192,3808,1,0,0:0:0:0:
256,192,4073,1,2,0:0:0:0:
256,192,4337,1,0,0:0:0:0:
256,192,4602,1,2,0:0:0:0:
256,192,4867,1,2,0:0:0:0:
256,192,5042,1,0,0:0:0:0:
256,192,5220,1,2,0:0:0:0:
256,192,5484,1,0,0:0:0:0:
256,192,5749,1,0,0:0:0:0:
256,192,6014,1,2,0:0:0:0:
256,192,6631,1,6,0:0:0:0:
256,192,7160,1,2,0:0:0:0:
256,192,7513,1,0,0:0:0:0:
256,192,7689,1,0,0:0:0:0:
256,192,7866,1,0,0:0:0:0:
256,192,8219,1,2,0:0:0:0:
256,192,8395,1,2,0:0:0:0:
256,192,8572,1,2,0:0:0:0:
256,192,8925,1,0,0:0:0:0:
256,192,9101,1,0,0:0:0:0:
256,192,9454,1,2,0:0:0:0:
256,192,9631,1,0,0:0:0:0:
256,192,9807,1,2,0:0:0:0:
256,192,9983,1,0,0:0:0:0:
256,192,10160,1,2,0:0:0:0:
256,192,10513,1,0,0:0:0:0:
256,192,10866,1,2,0:0:0:0:
256,192,12278,1,6,0:0:0:0:
256,192,12983,1,2,0:0:0:0:
256,192,13336,1,0,0:0:0:0:
256,192,13513,1,0,0:0:0:0:
256,192,13866,1,2,0:0:0:0:
256,192,14395,1,2,0:0:0:0:
256,192,14748,1,0,0:0:0:0:
256,192,14925,1,0,0:0:0:0:
256,192,15101,1,0,0:0:0:0:
256,192,15807,1,2,0:0:0:0:
256,192,16160,1,0,0:0:0:0:
256,192,16336,1,0,0:0:0:0:
256,192,16689,1,2,0:0:0:0:
256,192,17219,1,0,0:0:0:0:
256,192,17572,1,2,0:0:0:0:
256,192,17925,1,0,0:0:0:0:
256,192,18631,1,2,0:0:0:0:
256,192,18983,1,0,0:0:0:0:
256,192,19160,1,0,0:0:0:0:
256,192,19513,1,2,0:0:0:0:
256,192,20042,1,0,0:0:0:0:
256,192,20395,1,2,0:0:0:0:
256,192,20572,1,2,0:0:0:0:
256,192,20748,1,2,0:0:0:0:
256,192,21454,1,2,0:0:0:0:
256,192,21807,1,0,0:0:0:0:
256,192,21983,1,0,0:0:0:0:
256,192,22336,1,2,0:0:0:0:
256,192,22866,1,0,0:0:0:0:
256,192,23219,1,2,0:0:0:0:
256,192,23572,1,4,0:0:0:0:
256,192,24278,1,2,0:0:0:0:
256,192,24983,1,2,0:0:0:0:
256,192,25336,1,2,0:0:0:0:
256,192,25689,1,0,0:0:0:0:
256,192,26042,1,2,0:0:0:0:
256,192,26395,1,0,0:0:0:0:
256,192,26748,1,0,0:0:0:0:
256,192,27101,1,2,0:0:0:0:
256,192,27807,1,2,0:0:0:0:
256,192,28160,1,2,0:0:0:0:
256,192,28513,1,0,0:0:0:0:
256,192,28866,1,2,0:0:0:0:
256,192,29219,1,0,0:0:0:0:
256,192,29572,1,0,0:0:0:0:
256,192,29748,1,0,0:0:0:0:
256,192,30101,1,2,0:0:0:0:
256,192,30278,1,2,0:0:0:0:
256,192,30454,1,2,0:0:0:0:
256,192,30807,1,0,0:0:0:0:
256,192,30983,1,0,0:0:0:0:
256,192,31160,1,0,0:0:0:0:
256,192,31513,1,2,0:0:0:0:
256,192,31689,1,2,0:0:0:0:
256,192,32042,1,2,0:0:0:0:
256,192,32219,1,2,0:0:0:0:
256,192,32395,1,0,0:0:0:0:
256,192,32572,1,0,0:0:0:0:
256,192,32748,1,2,0:0:0:0:
256,192,33101,1,0,0:0:0:0:
256,192,33278,1,0,0:0:0:0:
256,192,33454,1,2,0:0:0:0:
256,192,33807,1,2,0:0:0:0:
256,192,34160,1,2,0:0:0:0:
256,192,34866,1,6,0:0:0:0:
256,192,35572,1,2,0:0:0:0:
256,192,35925,1,0,0:0:0:0:
256,192,36101,1,2,0:0:0:0:
256,192,36454,1,2,0:0:0:0:
256,192,36631,1,2,0:0:0:0:
256,192,36983,1,0,0:0:0:0:
256,192,37336,1,2,0:0:0:0:
256,192,37689,1,0,0:0:0:0:
256,192,38042,1,2,0:0:0:0:
256,192,38219,1,2,0:0:0:0:
256,192,38395,1,2,0:0:0:0:
256,192,38748,1,2,0:0:0:0:
256,192,38925,1,0,0:0:0:0:
256,192,39278,1,0,0:0:0:0:
256,192,39454,1,2,0:0:0:0:
256,192,39807,1,0,0:0:0:0:
256,192,40160,1,2,0:0:0:0:
256,192,40513,1,0,0:0:0:0:
256,192,40866,1,0,0:0:0:0:
256,192,41042,1,0,0:0:0:0:
256,192,41219,1,2,0:0:0:0:
256,192,41572,1,2,0:0:0:0:
256,192,41748,1,0,0:0:0:0:
256,192,42101,1,0,0:0:0:0:
256,192,42278,1,0,0:0:0:0:
256,192,42631,1,2,0:0:0:0:
256,192,42983,1,0,0:0:0:0:
256,192,43336,1,2,0:0:0:0:
256,192,43689,1,2,0:0:0:0:
256,192,43866,1,2,0:0:0:0:
256,192,44042,1,0,0:0:0:0:
256,192,44395,1,0,0:0:0:0:
256,192,44572,1,2,0:0:0:0:
256,192,44748,1,4,0:0:0:0:
256,192,45102,1,0,0:0:0:0:
256,192,45454,1,0,0:0:0:0:
256,192,45632,1,0,0:0:0:0:
256,192,45984,1,0,0:0:0:0:
256,192,46160,1,6,0:0:0:0:
256,192,46513,1,2,0:0:0:0:
256,192,46778,1,0,0:0:0:0:
256,192,46954,1,0,0:0:0:0:
256,192,47219,1,2,0:0:0:0:
256,192,47572,1,2,0:0:0:0:
256,192,47925,1,0,0:0:0:0:
256,192,48189,1,2,0:0:0:0:
256,192,48366,1,2,0:0:0:0:
256,192,48631,1,0,0:0:0:0:
256,192,48983,1,2,0:0:0:0:
256,192,49336,1,0,0:0:0:0:
256,192,49601,1,2,0:0:0:0:
256,192,49778,1,0,0:0:0:0:
256,192,50042,1,2,0:0:0:0:
256,192,50395,1,0,0:0:0:0:
256,192,50748,1,2,0:0:0:0:
256,192,51013,1,0,0:0:0:0:
256,192,51189,1,2,0:0:0:0:
256,192,51454,1,0,0:0:0:0:
256,192,51807,1,6,0:0:0:0:
256,192,52513,1,0,0:0:0:0:
256,192,52778,1,0,0:0:0:0:
256,192,53042,1,2,0:0:0:0:
256,192,53395,1,2,0:0:0:0:
256,192,53572,1,0,0:0:0:0:
256,192,53925,1,2,0:0:0:0:
256,192,54189,1,0,0:0:0:0:
256,192,54454,1,0,0:0:0:0:
256,192,54631,1,2,0:0:0:0:
256,192,54983,1,0,0:0:0:0:
256,192,55336,1,2,0:0:0:0:
256,192,55601,1,0,0:0:0:0:
256,192,55866,1,0,0:0:0:0:
256,192,56042,1,2,0:0:0:0:
256,192,56748,1,0,0:0:0:0:
256,192,57102,1,0,0:0:0:0:
256,192,57454,1,6,0:0:0:0:
256,192,58160,1,0,0:0:0:0:
256,192,58866,1,0,0:0:0:0:
256,192,59572,1,0,0:0:0:0:
256,192,59925,1,2,0:0:0:0:
256,192,60101,1,2,0:0:0:0:
256,192,60278,1,0,0:0:0:0:
256,192,60983,1,0,0:0:0:0:
256,192,61689,1,0,0:0:0:0:
256,192,62395,1,0,0:0:0:0:
256,192,62748,1,2,0:0:0:0:
256,192,62925,1,2,0:0:0:0:
256,192,63101,1,0,0:0:0:0:
256,192,63807,1,0,0:0:0:0:
256,192,64513,1,0,0:0:0:0:
256,192,65219,1,0,0:0:0:0:
256,192,65572,1,2,0:0:0:0:
256,192,65748,1,2,0:0:0:0:
256,192,65925,1,0,0:0:0:0:
256,192,66631,1,0,0:0:0:0:
256,192,67336,1,0,0:0:0:0:
256,192,67689,1,2,0:0:0:0:
256,192,67866,1,2,0:0:0:0:
256,192,68042,1,2,0:0:0:0:
256,192,68395,1,0,0:0:0:0:
256,192,68748,1,6,0:0:0:0:
256,192,69454,1,2,0:0:0:0:
256,192,70160,1,0,0:0:0:0:
256,192,70513,1,2,0:0:0:0:
256,192,70866,1,0,0:0:0:0:
256,192,71572,1,2,0:0:0:0:
256,192,71925,1,2,0:0:0:0:
256,192,72278,1,0,0:0:0:0:
256,192,72983,1,2,0:0:0:0:
256,192,73336,1,0,0:0:0:0:
256,192,73689,1,2,0:0:0:0:
256,192,74042,1,0,0:0:0:0:
256,192,74395,1,2,0:0:0:0:
256,192,74748,1,2,0:0:0:0:
256,192,75101,1,0,0:0:0:0:
256,192,75807,1,0,0:0:0:0:
256,192,76160,1,2,0:0:0:0:
256,192,76513,1,0,0:0:0:0:
256,192,77219,1,2,0:0:0:0:
256,192,77572,1,0,0:0:0:0:
256,192,77925,1,2,0:0:0:0:
256,192,78631,1,4,0:0:0:0:
256,192,79336,1,0,0:0:0:0:
256,192,80042,1,6,0:0:0:0:
256,192,80395,1,0,0:0:0:0:
256,192,80572,1,0,0:0:0:0:
256,192,80748,1,0,0:0:0:0:
256,192,81101,1,2,0:0:0:0:
256,192,81454,1,2,0:0:0:0:
256,192,81631,1,2,0:0:0:0:
256,192,81807,1,2,0:0:0:0:
256,192,82160,1,0,0:0:0:0:
256,192,82513,1,2,0:0:0:0:
256,192,82866,1,0,0:0:0:0:
256,192,83042,1,0,0:0:0:0:
256,192,83219,1,0,0:0:0:0:
256,192,83572,1,2,0:0:0:0:
256,192,83925,1,0,0:0:0:0:
256,192,84278,1,2,0:0:0:0:
256,192,84454,1,2,0:0:0:0:
256,192,84631,1,2,0:0:0:0:
256,192,84983,1,0,0:0:0:0:
256,192,85336,1,2,0:0:0:0:
256,192,85689,1,0,0:0:0:0:
256,192,85866,1,0,0:0:0:0:
256,192,86042,1,0,0:0:0:0:
256,192,86395,1,2,0:0:0:0:
256,192,86572,1,2,0:0:0:0:
256,192,86748,1,2,0:0:0:0:
256,192,87101,1,0,0:0:0:0:
256,192,87278,1,0,0:0:0:0:
256,192,87454,1,0,0:0:0:0:
256,192,87807,1,2,0:0:0:0:
256,192,87983,1,2,0:0:0:0:
256,192,88160,1,2,0:0:0:0:
256,192,88513,1,0,0:0:0:0:
256,192,88866,1,2,0:0:0:0:
256,192,89042,1,2,0:0:0:0:
256,192,89219,1,0,0:0:0:0:
256,192,89395,1,0,0:0:0:0:
256,192,89572,1,2,0:0:0:0:
256,192,89925,1,4,0:0:0:0:
256,192,90631,1,2,0:0:0:0:
256,192,90983,1,0,0:0:0:0:
256,192,91336,1,6,0:0:0:0:
256,192,92042,1,2,0:0:0:0:
256,192,92219,1,0,0:0:0:0:
256,192,92395,1,2,0:0:0:0:
256,192,92748,1,0,0:0:0:0:
256,192,93013,1,2,0:0:0:0:
256,192,93278,1,0,0:0:0:0:
256,192,93454,1,2,0:0:0:0:
256,192,93631,1,2,0:0:0:0:
256,192,93807,1,0,0:0:0:0:
256,192,94160,1,2,0:0:0:0:
256,192,94425,1,0,0:0:0:0:
256,192,94689,1,2,0:0:0:0:
256,192,94866,1,0,0:0:0:0:
256,192,95042,1,0,0:0:0:0:
256,192,95219,1,2,0:0:0:0:
256,192,95572,1,0,0:0:0:0:
256,192,95836,1,2,0:0:0:0:
256,192,96101,1,0,0:0:0:0:
256,192,96278,1,2,0:0:0:0:
256,192,96454,1,2,0:0:0:0:
256,192,96631,1,0,0:0:0:0:
256,192,96807,1,0,0:0:0:0:
256,192,96983,1,2,0:0:0:0:
256,192,97248,1,0,0:0:0:0:
256,192,97513,1,2,0:0:0:0:
256,192,97689,1,0,0:0:0:0:
256,192,97866,1,0,0:0:0:0:
256,192,98042,1,2,0:0:0:0:
256,192,98395,1,0,0:0:0:0:
256,192,98660,1,2,0:0:0:0:
256,192,98925,1,0,0:0:0:0:
256,192,99101,1,2,0:0:0:0:
256,192,99278,1,2,0:0:0:0:
256,192,99454,1,2,0:0:0:0:
256,192,99807,1,2,0:0:0:0:
256,192,100072,1,0,0:0:0:0:
256,192,100336,1,2,0:0:0:0:
256,192,100513,1,0,0:0:0:0:
256,192,100689,1,0,0:0:0:0:
256,192,100866,1,2,0:0:0:0:
256,192,101219,1,0,0:0:0:0:
256,192,101395,1,2,0:0:0:0:
256,192,101572,1,0,0:0:0:0:
256,192,101748,1,2,0:0:0:0:
256,192,101925,1,0,0:0:0:0:
256,192,102278,1,2,0:0:0:0:
256,192,102631,1,4,0:0:0:0:
256,192,103336,1,2,0:0:0:0:
256,192,103513,1,0,0:0:0:0:
256,192,103689,1,2,0:0:0:0:
256,192,104042,1,0,0:0:0:0:
256,192,104307,1,2,0:0:0:0:
256,192,104572,1,0,0:0:0:0:
256,192,104748,1,2,0:0:0:0:
256,192,104925,1,2,0:0:0:0:
256,192,105101,1,2,0:0:0:0:
256,192,105454,1,0,0:0:0:0:
256,192,105719,1,2,0:0:0:0:
256,192,105983,1,2,0:0:0:0:
256,192,106160,1,0,0:0:0:0:
256,192,106336,1,0,0:0:0:0:
256,192,106513,1,2,0:0:0:0:
256,192,106866,1,2,0:0:0:0:
256,192,107131,1,0,0:0:0:0:
256,192,107395,1,2,0:0:0:0:
256,192,107572,1,0,0:0:0:0:
256,192,107748,1,0,0:0:0:0:
256,192,107925,1,2,0:0:0:0:
256,192,108101,1,2,0:0:0:0:
256,192,108278,1,4,0:0:0:0:
256,192,108983,1,2,0:0:0:0:
256,192,109160,1,0,0:0:0:0:
256,192,109336,1,2,0:0:0:0:
256,192,109689,1,0,0:0:0:0:
256,192,109954,1,2,0:0:0:0:
256,192,110395,1,2,0:0:0:0:
256,192,110572,1,2,0:0:0:0:
256,192,110748,1,2,0:0:0:0:
256,192,111101,1,0,0:0:0:0:
256,192,111366,1,2,0:0:0:0:
256,192,111631,1,0,0:0:0:0:
256,192,111807,1,2,0:0:0:0:
256,192,111983,1,2,0:0:0:0:
256,192,112160,1,0,0:0:0:0:
256,192,112336,1,0,0:0:0:0:
256,192,112513,1,6,0:0:0:0:
256,192,113219,1,0,0:0:0:0:
256,192,113572,1,2,0:0:0:0:
256,192,113925,1,4,0:0:0:0:
