osu file format v14

[General]
AudioFilename: audio.mp3
AudioLeadIn: 0
PreviewTime: 92185
Countdown: 0
SampleSet: Normal
StackLeniency: 0.7
Mode: 1
LetterboxInBreaks: 0
WidescreenStoryboard: 0

[Editor]
DistanceSpacing: 2
BeatDivisor: 4
GridSize: 32
TimelineZoom: 0.7000006

[Metadata]
Title:Crazy Jackpot
TitleUnicode:Crazy Jackpot
Artist:Hommarju
ArtistUnicode:Hommarju
Creator:Tofu1222
Version:Nardo's Crazy Oni
Source:REFLEC BEAT VOLZZA
Tags:aabc271 Nardoxyribonucleic Ellyu handsome muscle Faputa jack1817 Mayumi Morinaga moimoi
BeatmapID:1517307
BeatmapSetID:717853

[Difficulty]
HPDrainRate:6
CircleSize:2
OverallDifficulty:7
ApproachRate:7
SliderMultiplier:1.4
SliderTickRate:1

[Events]
//Background and Video events
0,0,"bg.png",0,0
//Break Periods
//Storyboard Layer 0 (Background)
//Storyboard Layer 1 (Fail)
//Storyboard Layer 2 (Pass)
//Storyboard Layer 3 (Foreground)
//Storyboard Sound Samples

[TimingPoints]
1833,352.941176470588,4,1,0,80,1,0
13127,-100,4,1,0,70,0,0
24421,-100,4,1,0,75,0,0
35715,-100,4,1,0,80,0,0
47009,-100,4,1,0,85,0,0
58303,-100,4,1,0,65,0,0
59009,-111.111111111111,4,1,0,65,0,0
68185,-105.263157894737,4,1,0,65,0,0
69597,-100,4,1,0,75,0,0
80891,-100,4,1,0,85,0,0
82127,-98.5221674876847,4,1,0,85,0,0
82215,-98.0392156862745,4,1,0,85,0,0
82303,-97.5609756097561,4,1,0,85,0,0
83538,-96.1538461538461,4,1,0,85,0,0
83627,-95.6937799043062,4,1,0,85,0,0
83715,-95.2380952380952,4,1,0,85,0,0
84950,-93.8967136150235,4,1,0,85,0,0
85038,-93.4579439252336,4,1,0,85,0,0
85127,-93.0232558139535,4,1,0,85,0,0
86362,-91.743119266055,4,1,0,85,0,0
86450,-91.324200913242,4,1,0,85,0,0
86538,-90.9090909090909,4,1,0,85,0,0
86627,-90.4977375565611,4,1,0,85,0,0
86715,-90.0900900900901,4,1,0,85,0,0
86891,-89.2857142857143,4,1,0,85,0,0
86980,-88.8888888888889,4,1,0,85,0,0
87068,-88.4955752212389,4,1,0,85,0,0
87244,-87.719298245614,4,1,0,85,0,0
87332,-87.3362445414847,4,1,0,85,0,0
87421,-86.9565217391304,4,1,0,85,0,0
87597,-86.2068965517241,4,1,0,85,0,0
87685,-85.8369098712446,4,1,0,85,0,0
87774,-85.4700854700855,4,1,0,85,0,0
87950,-84.7457627118644,4,1,0,85,0,0
88038,-84.3881856540084,4,1,0,85,0,0
88127,-84.0336134453781,4,1,0,85,0,0
88303,-83.3333333333333,4,1,0,85,0,0
88391,-82.9875518672199,4,1,0,85,0,0
88480,-82.6446280991736,4,1,0,85,0,0
88656,-81.9672131147541,4,1,0,85,0,0
88744,-81.6326530612245,4,1,0,85,0,0
88832,-81.3008130081301,4,1,0,85,0,0
89009,-80.6451612903226,4,1,0,85,0,0
89097,-80.3212851405623,4,1,0,85,0,0
89185,-80,4,1,0,85,0,0
89362,-79.3650793650794,4,1,0,85,0,0
89450,-79.6812749003984,4,1,0,85,0,0
89538,-80,4,1,0,85,0,0
89627,-80.3212851405623,4,1,0,85,0,0
89715,-80.6451612903226,4,1,0,85,0,0
89803,-80.9716599190283,4,1,0,85,0,0
89891,-81.3008130081301,4,1,0,85,0,0
89980,-81.6326530612245,4,1,0,85,0,0
90068,-81.9672131147541,4,1,0,85,0,0
90156,-82.3045267489712,4,1,0,85,0,0
90244,-82.6446280991736,4,1,0,85,0,0
90332,-82.9875518672199,4,1,0,85,0,0
90421,-83.3333333333333,4,1,0,85,0,0
90509,-83.6820083682008,4,1,0,85,0,0
90597,-84.0336134453781,4,1,0,85,0,0
90685,-84.3881856540084,4,1,0,85,0,0
90774,-84.7457627118644,4,1,0,85,0,0
90862,-85.1063829787234,4,1,0,85,0,0
90950,-85.4700854700855,4,1,0,85,0,0
91038,-85.8369098712446,4,1,0,85,0,0
91127,-86.2068965517241,4,1,0,85,0,0
91215,-86.5800865800866,4,1,0,85,0,0
91303,-86.9565217391304,4,1,0,85,0,0
91391,-87.3362445414847,4,1,0,85,0,0
91480,-87.719298245614,4,1,0,85,0,0
91568,-88.1057268722467,4,1,0,85,0,0
91656,-88.4955752212389,4,1,0,85,0,0
91744,-88.8888888888889,4,1,0,85,0,0
91832,-89.2857142857143,4,1,0,85,0,0
91921,-89.6860986547085,4,1,0,85,0,0
92009,-90.0900900900901,4,1,0,85,0,0
92185,-90.9090909090909,4,1,0,95,0,1
109127,-90.9090909090909,4,1,0,100,0,1
109303,-90.0900900900901,4,1,0,100,0,1
109391,-89.6860986547085,4,1,0,100,0,1
109568,-88.8888888888889,4,1,0,100,0,1
109656,-88.4955752212389,4,1,0,100,0,1
109744,-88.1057268722467,4,1,0,100,0,1
109832,-87.719298245614,4,1,0,100,0,1
109921,-87.3362445414847,4,1,0,100,0,1
110009,-86.9565217391304,4,1,0,100,0,1
110097,-86.5800865800866,4,1,0,100,0,1
110185,-86.2068965517241,4,1,0,100,0,1
110362,-85.4700854700855,4,1,0,100,0,1
110450,-85.1063829787234,4,1,0,100,0,1
110538,-84.7457627118644,4,1,0,100,0,1
110627,-84.3881856540084,4,1,0,100,0,1
110715,-84.0336134453781,4,1,0,100,0,1
110803,-83.6820083682008,4,1,0,100,0,1
110891,-83.3333333333333,4,1,0,100,0,1
110980,-82.9875518672199,4,1,0,100,0,1
111068,-82.6446280991736,4,1,0,100,0,1
111156,-82.3045267489712,4,1,0,100,0,1
111244,-81.9672131147541,4,1,0,100,0,1
111332,-81.6326530612245,4,1,0,100,0,1
111421,-81.3008130081301,4,1,0,100,0,1
111509,-80.9716599190283,4,1,0,100,0,1
111597,-80.6451612903226,4,1,0,100,0,1
111685,-80.3212851405623,4,1,0,100,0,1
111774,-80,4,1,0,100,0,1
111862,-79.6812749003984,4,1,0,100,0,1
111950,-79.3650793650794,4,1,0,100,0,1
112038,-79.0513833992095,4,1,0,100,0,1
112127,-78.7401574803149,4,1,0,100,0,1
112215,-78.4313725490196,4,1,0,100,0,1
112303,-78.125,4,1,0,100,0,1
112391,-77.8210116731517,4,1,0,100,0,1
112480,-77.5193798449612,4,1,0,100,0,1
112568,-77.2200772200772,4,1,0,100,0,1
112656,-76.9230769230769,4,1,0,100,0,1
112744,-76.6283524904215,4,1,0,100,0,1
112832,-76.3358778625954,4,1,0,100,0,1
112921,-76.0456273764259,4,1,0,100,0,1
113009,-75.7575757575758,4,1,0,100,0,1
113097,-75.4716981132076,4,1,0,100,0,1
113185,-75.187969924812,4,1,0,100,0,1
113274,-74.9063670411985,4,1,0,100,0,1
113362,-74.6268656716418,4,1,0,100,0,1
113450,-74.9063670411985,4,1,0,100,0,1
113538,-75.187969924812,4,1,0,100,0,1
113627,-75.4716981132076,4,1,0,100,0,1
113715,-75.7575757575758,4,1,0,100,0,1
113803,-76.0456273764259,4,1,0,100,0,1
113891,-76.3358778625954,4,1,0,100,0,1
113980,-76.6283524904215,4,1,0,100,0,1
114068,-76.9230769230769,4,1,0,100,0,1
114156,-77.2200772200772,4,1,0,100,0,1
114244,-77.5193798449612,4,1,0,100,0,1
114332,-77.8210116731517,4,1,0,100,0,1
114421,-78.125,4,1,0,100,0,1
114509,-78.4313725490196,4,1,0,100,0,1
114597,-78.7401574803149,4,1,0,100,0,1
114774,-66.6666666666667,4,1,0,90,0,0

[HitObjects]
256,192,1832,5,4,0:0:0:0:
256,192,2097,1,8,0:0:0:0:
256,192,2362,1,8,0:0:0:0:
256,192,2627,1,8,0:0:0:0:
256,192,2891,1,0,0:0:0:0:
256,192,3068,1,0,0:0:0:0:
256,192,3244,1,8,0:0:0:0:
256,192,3509,1,8,0:0:0:0:
256,192,3774,1,8,0:0:0:0:
256,192,4038,1,8,0:0:0:0:
256,192,4303,1,0,0:0:0:0:
256,192,4656,1,0,0:0:0:0:
256,192,4921,1,8,0:0:0:0:
256,192,5185,1,8,0:0:0:0:
256,192,5450,1,8,0:0:0:0:
256,192,5715,1,0,0:0:0:0:
256,192,5891,1,0,0:0:0:0:
256,192,6068,1,8,0:0:0:0:
256,192,6332,1,8,0:0:0:0:
256,192,6597,1,8,0:0:0:0:
256,192,6862,1,8,0:0:0:0:
256,192,7127,1,0,0:0:0:0:
256,192,7303,1,0,0:0:0:0:
256,192,7480,1,8,0:0:0:0:
256,192,7656,1,0,0:0:0:0:
256,192,7744,1,8,0:0:0:0:
256,192,7832,1,0,0:0:0:0:
256,192,7921,1,0,0:0:0:0:
256,192,8009,1,8,0:0:0:0:
256,192,8185,1,8,0:0:0:0:
256,192,8362,1,0,0:0:0:0:
256,192,8450,1,0,0:0:0:0:
256,192,8538,1,0,0:0:0:0:
256,192,8627,1,0,0:0:0:0:
256,192,8715,1,8,0:0:0:0:
256,192,8891,1,8,0:0:0:0:
256,192,9068,1,0,0:0:0:0:
256,192,9156,1,8,0:0:0:0:
256,192,9244,1,0,0:0:0:0:
256,192,9332,1,0,0:0:0:0:
256,192,9421,1,8,0:0:0:0:
256,192,9597,1,8,0:0:0:0:
256,192,9774,1,0,0:0:0:0:
256,192,9862,1,0,0:0:0:0:
256,192,9950,1,0,0:0:0:0:
256,192,10038,1,0,0:0:0:0:
256,192,10127,1,8,0:0:0:0:
256,192,10303,1,0,0:0:0:0:
256,192,10391,1,0,0:0:0:0:
256,192,10480,1,8,0:0:0:0:
256,192,10568,1,0,0:0:0:0:
256,192,10656,1,8,0:0:0:0:
256,192,10744,1,8,0:0:0:0:
256,192,10832,1,0,0:0:0:0:
256,192,10921,1,0,0:0:0:0:
256,192,11009,1,8,0:0:0:0:
256,192,11097,1,8,0:0:0:0:
256,192,11185,1,8,0:0:0:0:
256,192,11274,1,0,0:0:0:0:
256,192,11362,1,8,0:0:0:0:
256,192,11450,1,8,0:0:0:0:
256,192,11538,1,8,0:0:0:0:
256,192,11627,1,8,0:0:0:0:
256,192,11715,1,0,0:0:0:0:
256,192,13127,1,4,0:0:0:0:
256,192,13303,1,8,0:0:0:0:
256,192,13391,1,0,0:0:0:0:
256,192,13480,1,0,0:0:0:0:
256,192,13568,1,8,0:0:0:0:
256,192,13656,1,0,0:0:0:0:
256,192,13832,1,8,0:0:0:0:
256,192,14009,1,0,0:0:0:0:
256,192,14185,1,8,0:0:0:0:
256,192,14274,1,0,0:0:0:0:
256,192,14362,1,8,0:0:0:0:
256,192,14715,1,8,0:0:0:0:
256,192,14803,1,0,0:0:0:0:
256,192,14891,1,8,0:0:0:0:
256,192,14980,1,0,0:0:0:0:
256,192,15068,1,8,0:0:0:0:
256,192,15244,1,8,0:0:0:0:
256,192,15421,1,0,0:0:0:0:
256,192,15597,1,0,0:0:0:0:
256,192,15685,1,0,0:0:0:0:
256,192,15774,1,8,0:0:0:0:
256,192,15950,1,8,0:0:0:0:
256,192,16127,1,8,0:0:0:0:
256,192,16215,1,0,0:0:0:0:
256,192,16303,1,0,0:0:0:0:
256,192,16391,1,8,0:0:0:0:
256,192,16480,1,0,0:0:0:0:
256,192,16656,1,8,0:0:0:0:
256,192,16832,1,0,0:0:0:0:
256,192,17009,1,8,0:0:0:0:
256,192,17097,1,0,0:0:0:0:
256,192,17185,1,8,0:0:0:0:
256,192,17538,1,8,0:0:0:0:
256,192,17627,1,0,0:0:0:0:
256,192,17715,1,8,0:0:0:0:
256,192,17803,1,8,0:0:0:0:
256,192,17891,1,0,0:0:0:0:
256,192,18068,1,8,0:0:0:0:
256,192,18244,1,0,0:0:0:0:
256,192,18421,1,0,0:0:0:0:
256,192,18509,1,0,0:0:0:0:
256,192,18597,1,8,0:0:0:0:
256,192,18774,1,8,0:0:0:0:
256,192,18950,1,8,0:0:0:0:
256,192,19038,1,0,0:0:0:0:
256,192,19127,1,0,0:0:0:0:
256,192,19215,1,8,0:0:0:0:
256,192,19303,1,0,0:0:0:0:
256,192,19480,1,8,0:0:0:0:
256,192,19656,1,0,0:0:0:0:
256,192,19832,1,8,0:0:0:0:
256,192,19921,1,0,0:0:0:0:
256,192,20009,1,8,0:0:0:0:
256,192,20362,1,8,0:0:0:0:
256,192,20450,1,0,0:0:0:0:
256,192,20538,1,8,0:0:0:0:
256,192,20627,1,0,0:0:0:0:
256,192,20715,1,8,0:0:0:0:
256,192,20891,1,8,0:0:0:0:
256,192,21068,1,0,0:0:0:0:
256,192,21244,1,0,0:0:0:0:
256,192,21332,1,0,0:0:0:0:
256,192,21421,1,8,0:0:0:0:
256,192,21597,1,8,0:0:0:0:
256,192,21774,1,8,0:0:0:0:
256,192,21862,1,0,0:0:0:0:
256,192,21950,1,0,0:0:0:0:
256,192,22038,1,8,0:0:0:0:
256,192,22127,1,0,0:0:0:0:
256,192,22303,1,8,0:0:0:0:
256,192,22480,1,0,0:0:0:0:
256,192,22656,1,8,0:0:0:0:
256,192,22744,1,0,0:0:0:0:
256,192,22832,1,8,0:0:0:0:
256,192,23185,1,8,0:0:0:0:
256,192,23274,1,0,0:0:0:0:
256,192,23362,1,8,0:0:0:0:
256,192,23450,1,8,0:0:0:0:
256,192,23538,1,0,0:0:0:0:
256,192,23715,1,8,0:0:0:0:
256,192,23891,1,0,0:0:0:0:
256,192,24068,1,0,0:0:0:0:
256,192,24156,1,0,0:0:0:0:
256,192,24244,1,8,0:0:0:0:
256,192,24421,1,4,0:0:0:0:
256,192,24597,1,8,0:0:0:0:
256,192,24685,1,0,0:0:0:0:
256,192,24774,1,0,0:0:0:0:
256,192,24862,1,8,0:0:0:0:
256,192,24950,1,0,0:0:0:0:
256,192,25038,1,0,0:0:0:0:
256,192,25127,1,8,0:0:0:0:
256,192,25303,1,0,0:0:0:0:
256,192,25480,1,8,0:0:0:0:
256,192,25568,1,0,0:0:0:0:
256,192,25656,1,8,0:0:0:0:
256,192,25832,1,8,0:0:0:0:
256,192,26009,1,8,0:0:0:0:
256,192,26097,1,0,0:0:0:0:
256,192,26185,1,8,0:0:0:0:
256,192,26274,1,0,0:0:0:0:
256,192,26362,1,8,0:0:0:0:
256,192,26450,1,0,0:0:0:0:
256,192,26538,1,8,0:0:0:0:
256,192,26715,1,0,0:0:0:0:
256,192,26891,1,0,0:0:0:0:
256,192,26980,1,0,0:0:0:0:
256,192,27068,1,8,0:0:0:0:
256,192,27156,1,0,0:0:0:0:
256,192,27244,1,8,0:0:0:0:
256,192,27421,1,8,0:0:0:0:
256,192,27509,1,0,0:0:0:0:
256,192,27597,1,0,0:0:0:0:
256,192,27685,1,8,0:0:0:0:
256,192,27774,1,0,0:0:0:0:
256,192,27862,1,0,0:0:0:0:
256,192,27950,1,8,0:0:0:0:
256,192,28127,1,0,0:0:0:0:
256,192,28303,1,8,0:0:0:0:
256,192,28391,1,0,0:0:0:0:
256,192,28480,1,8,0:0:0:0:
256,192,28656,1,8,0:0:0:0:
256,192,28832,1,8,0:0:0:0:
256,192,28921,1,0,0:0:0:0:
256,192,29009,1,8,0:0:0:0:
256,192,29097,1,8,0:0:0:0:
256,192,29185,1,0,0:0:0:0:
256,192,29274,1,8,0:0:0:0:
256,192,29362,1,8,0:0:0:0:
256,192,29538,1,0,0:0:0:0:
256,192,29715,1,0,0:0:0:0:
256,192,29803,1,0,0:0:0:0:
256,192,29891,1,8,0:0:0:0:
256,192,29980,1,0,0:0:0:0:
256,192,30068,1,8,0:0:0:0:
256,192,30244,1,0,0:0:0:0:
256,192,30332,1,0,0:0:0:0:
256,192,30421,1,8,0:0:0:0:
256,192,30597,1,0,0:0:0:0:
256,192,30685,1,0,0:0:0:0:
256,192,30774,1,8,0:0:0:0:
256,192,30950,1,0,0:0:0:0:
256,192,31038,1,0,0:0:0:0:
256,192,31127,1,8,0:0:0:0:
256,192,31303,1,0,0:0:0:0:
256,192,31391,1,0,0:0:0:0:
256,192,31480,1,8,0:0:0:0:
256,192,31656,1,0,0:0:0:0:
256,192,31744,1,0,0:0:0:0:
256,192,31832,1,8,0:0:0:0:
256,192,32009,1,0,0:0:0:0:
256,192,32097,1,0,0:0:0:0:
256,192,32185,1,8,0:0:0:0:
256,192,32362,1,0,0:0:0:0:
256,192,32450,1,0,0:0:0:0:
256,192,32538,1,8,0:0:0:0:
256,192,32627,1,0,0:0:0:0:
256,192,32715,1,8,0:0:0:0:
256,192,32803,1,0,0:0:0:0:
256,192,32891,1,0,0:0:0:0:
256,192,33068,1,8,0:0:0:0:
256,192,33156,1,0,0:0:0:0:
256,192,33244,1,0,0:0:0:0:
256,192,33421,1,8,0:0:0:0:
256,192,33509,1,0,0:0:0:0:
256,192,33597,1,0,0:0:0:0:
256,192,33774,1,8,0:0:0:0:
256,192,33862,1,0,0:0:0:0:
256,192,33950,1,0,0:0:0:0:
256,192,34127,1,0,0:0:0:0:
256,192,34303,1,8,0:0:0:0:
256,192,34656,1,8,0:0:0:0:
256,192,35009,1,0,0:0:0:0:
256,192,35715,1,4,0:0:0:0:
256,192,35891,1,8,0:0:0:0:
256,192,35980,1,0,0:0:0:0:
256,192,36068,1,0,0:0:0:0:
256,192,36156,1,8,0:0:0:0:
256,192,36244,1,0,0:0:0:0:
256,192,36332,1,0,0:0:0:0:
256,192,36421,1,8,0:0:0:0:
256,192,36509,1,8,0:0:0:0:
256,192,36597,1,0,0:0:0:0:
256,192,36774,1,8,0:0:0:0:
256,192,36862,1,0,0:0:0:0:
256,192,36950,1,8,0:0:0:0:
256,192,37127,1,0,0:0:0:0:
256,192,37303,1,8,0:0:0:0:
256,192,37391,1,0,0:0:0:0:
256,192,37480,1,8,0:0:0:0:
256,192,37568,1,0,0:0:0:0:
256,192,37656,1,8,0:0:0:0:
256,192,37744,1,0,0:0:0:0:
256,192,37832,1,8,0:0:0:0:
256,192,37921,1,0,0:0:0:0:
256,192,38009,1,0,0:0:0:0:
256,192,38185,1,0,0:0:0:0:
256,192,38274,1,0,0:0:0:0:
256,192,38362,1,8,0:0:0:0:
256,192,38538,1,8,0:0:0:0:
256,192,38715,1,8,0:0:0:0:
256,192,38803,1,0,0:0:0:0:
256,192,38891,1,0,0:0:0:0:
256,192,38980,1,8,0:0:0:0:
256,192,39068,1,0,0:0:0:0:
256,192,39156,1,0,0:0:0:0:
256,192,39244,1,8,0:0:0:0:
256,192,39332,1,8,0:0:0:0:
256,192,39421,1,0,0:0:0:0:
256,192,39597,1,8,0:0:0:0:
256,192,39685,1,0,0:0:0:0:
256,192,39774,1,8,0:0:0:0:
256,192,39950,1,0,0:0:0:0:
256,192,40127,1,8,0:0:0:0:
256,192,40215,1,0,0:0:0:0:
256,192,40303,1,8,0:0:0:0:
256,192,40391,1,8,0:0:0:0:
256,192,40480,1,0,0:0:0:0:
256,192,40568,1,8,0:0:0:0:
256,192,40656,1,8,0:0:0:0:
256,192,40744,1,8,0:0:0:0:
256,192,40832,1,0,0:0:0:0:
256,192,41009,1,0,0:0:0:0:
256,192,41097,1,0,0:0:0:0:
256,192,41185,1,8,0:0:0:0:
256,192,41362,1,8,0:0:0:0:
256,192,41538,1,8,0:0:0:0:
256,192,41627,1,0,0:0:0:0:
256,192,41715,1,0,0:0:0:0:
256,192,41803,1,8,0:0:0:0:
256,192,41891,1,0,0:0:0:0:
256,192,41980,1,0,0:0:0:0:
256,192,42068,1,8,0:0:0:0:
256,192,42156,1,8,0:0:0:0:
256,192,42244,1,0,0:0:0:0:
256,192,42421,1,8,0:0:0:0:
256,192,42509,1,0,0:0:0:0:
256,192,42597,1,8,0:0:0:0:
256,192,42774,1,0,0:0:0:0:
256,192,42950,1,8,0:0:0:0:
256,192,43038,1,0,0:0:0:0:
256,192,43127,1,8,0:0:0:0:
256,192,43215,1,0,0:0:0:0:
256,192,43303,1,8,0:0:0:0:
256,192,43391,1,0,0:0:0:0:
256,192,43480,1,8,0:0:0:0:
256,192,43568,1,0,0:0:0:0:
256,192,43656,1,0,0:0:0:0:
256,192,43832,1,0,0:0:0:0:
256,192,43921,1,0,0:0:0:0:
256,192,44009,1,8,0:0:0:0:
256,192,44185,1,8,0:0:0:0:
256,192,44362,1,8,0:0:0:0:
256,192,44450,1,0,0:0:0:0:
256,192,44538,1,0,0:0:0:0:
256,192,44627,1,8,0:0:0:0:
256,192,44715,1,0,0:0:0:0:
256,192,44803,1,0,0:0:0:0:
256,192,44891,1,8,0:0:0:0:
256,192,44980,1,8,0:0:0:0:
256,192,45068,1,0,0:0:0:0:
256,192,45244,1,8,0:0:0:0:
256,192,45332,1,0,0:0:0:0:
256,192,45421,1,8,0:0:0:0:
256,192,45597,1,4,0:0:0:0:
256,192,45774,1,8,0:0:0:0:
256,192,45862,1,0,0:0:0:0:
256,192,45950,1,8,0:0:0:0:
256,192,46038,1,8,0:0:0:0:
256,192,46127,1,0,0:0:0:0:
256,192,46215,1,8,0:0:0:0:
256,192,46303,1,8,0:0:0:0:
256,192,46391,1,8,0:0:0:0:
256,192,46480,1,0,0:0:0:0:
256,192,46568,1,0,0:0:0:0:
256,192,46656,1,8,0:0:0:0:
256,192,46744,1,0,0:0:0:0:
256,192,46832,1,8,0:0:0:0:
256,192,47009,1,4,0:0:0:0:
256,192,47185,1,8,0:0:0:0:
256,192,47362,1,0,0:0:0:0:
256,192,47538,1,8,0:0:0:0:
256,192,47627,1,0,0:0:0:0:
256,192,47803,1,8,0:0:0:0:
256,192,47980,1,0,0:0:0:0:
256,192,48068,1,8,0:0:0:0:
256,192,48244,1,0,0:0:0:0:
256,192,48332,1,0,0:0:0:0:
256,192,48421,1,8,0:0:0:0:
256,192,48597,1,8,0:0:0:0:
256,192,48774,1,0,0:0:0:0:
256,192,48950,1,8,0:0:0:0:
256,192,49038,1,0,0:0:0:0:
256,192,49215,1,8,0:0:0:0:
256,192,49391,1,0,0:0:0:0:
256,192,49480,1,8,0:0:0:0:
256,192,49568,1,0,0:0:0:0:
256,192,49656,1,8,0:0:0:0:
256,192,49744,1,8,0:0:0:0:
256,192,49832,1,0,0:0:0:0:
256,192,50009,1,8,0:0:0:0:
256,192,50185,1,0,0:0:0:0:
256,192,50362,1,8,0:0:0:0:
256,192,50450,1,0,0:0:0:0:
256,192,50627,1,8,0:0:0:0:
256,192,50803,1,0,0:0:0:0:
256,192,50891,1,8,0:0:0:0:
256,192,51068,1,0,0:0:0:0:
256,192,51156,1,0,0:0:0:0:
256,192,51244,1,8,0:0:0:0:
256,192,51421,1,8,0:0:0:0:
256,192,51597,1,0,0:0:0:0:
256,192,51774,1,8,0:0:0:0:
256,192,51862,1,0,0:0:0:0:
256,192,52038,1,8,0:0:0:0:
256,192,52215,1,0,0:0:0:0:
256,192,52303,1,8,0:0:0:0:
256,192,52480,1,0,0:0:0:0:
256,192,52656,1,4,0:0:0:0:
256,192,52832,1,0,0:0:0:0:
256,192,52921,1,0,0:0:0:0:
256,192,53009,1,8,0:0:0:0:
256,192,53097,1,0,0:0:0:0:
256,192,53185,1,0,0:0:0:0:
256,192,53274,1,0,0:0:0:0:
256,192,53362,1,8,0:0:0:0:
256,192,53450,1,0,0:0:0:0:
256,192,53538,1,0,0:0:0:0:
256,192,53627,1,8,0:0:0:0:
256,192,53715,1,0,0:0:0:0:
256,192,53803,1,0,0:0:0:0:
256,192,53891,1,8,0:0:0:0:
256,192,53980,1,0,0:0:0:0:
256,192,54068,1,0,0:0:0:0:
256,192,54156,1,0,0:0:0:0:
256,192,54244,1,8,0:0:0:0:
256,192,54332,1,0,0:0:0:0:
256,192,54421,1,8,0:0:0:0:
256,192,54509,1,8,0:0:0:0:
256,192,54597,1,0,0:0:0:0:
256,192,54685,1,0,0:0:0:0:
256,192,54774,1,8,0:0:0:0:
256,192,54862,1,0,0:0:0:0:
256,192,54950,1,0,0:0:0:0:
256,192,55038,1,8,0:0:0:0:
256,192,55127,1,0,0:0:0:0:
256,192,55215,1,0,0:0:0:0:
256,192,55303,1,8,0:0:0:0:
256,192,55391,1,0,0:0:0:0:
256,192,55480,1,8,0:0:0:0:
256,192,55568,1,8,0:0:0:0:
256,192,55656,1,0,0:0:0:0:
256,192,55744,1,0,0:0:0:0:
256,192,55832,1,8,0:0:0:0:
256,192,55921,1,0,0:0:0:0:
256,192,56009,1,0,0:0:0:0:
256,192,56097,1,0,0:0:0:0:
256,192,56185,1,8,0:0:0:0:
256,192,56274,1,0,0:0:0:0:
256,192,56362,1,0,0:0:0:0:
256,192,56450,1,8,0:0:0:0:
256,192,56538,1,0,0:0:0:0:
256,192,56627,1,0,0:0:0:0:
256,192,56715,1,8,0:0:0:0:
256,192,56891,1,8,0:0:0:0:
256,192,57068,1,0,0:0:0:0:
256,192,57156,1,0,0:0:0:0:
256,192,57244,1,8,0:0:0:0:
256,192,57421,1,0,0:0:0:0:
256,192,57509,1,0,0:0:0:0:
256,192,57597,1,8,0:0:0:0:
256,192,57774,1,0,0:0:0:0:
256,192,57862,1,0,0:0:0:0:
256,192,57950,1,8,0:0:0:0:
256,192,58038,1,8,0:0:0:0:
256,192,58127,1,0,0:0:0:0:
256,192,58215,1,0,0:0:0:0:
256,192,58303,1,8,0:0:0:0:
256,192,59009,1,8,0:0:0:0:
256,192,59715,1,8,0:0:0:0:
256,192,60421,1,8,0:0:0:0:
256,192,60774,1,8,0:0:0:0:
256,192,60862,1,0,0:0:0:0:
256,192,60950,1,8,0:0:0:0:
256,192,61038,1,8,0:0:0:0:
256,192,61127,1,0,0:0:0:0:
256,192,61832,1,0,0:0:0:0:
256,192,62538,1,0,0:0:0:0:
256,192,63244,1,0,0:0:0:0:
256,192,63597,1,8,0:0:0:0:
256,192,63685,1,0,0:0:0:0:
256,192,63774,1,8,0:0:0:0:
256,192,63862,1,0,0:0:0:0:
256,192,63950,1,8,0:0:0:0:
256,192,64656,1,8,0:0:0:0:
256,192,65362,1,8,0:0:0:0:
256,192,66068,1,8,0:0:0:0:
256,192,66421,1,8,0:0:0:0:
256,192,66509,1,0,0:0:0:0:
256,192,66597,1,8,0:0:0:0:
256,192,66685,1,8,0:0:0:0:
256,192,66774,1,0,0:0:0:0:
256,192,67480,1,0,0:0:0:0:
256,192,68185,1,8,0:0:0:0:
256,192,68362,1,8,0:0:0:0:
256,192,68450,1,0,0:0:0:0:
256,192,68538,1,0,0:0:0:0:
256,192,68627,1,8,0:0:0:0:
256,192,68715,1,0,0:0:0:0:
256,192,68803,1,0,0:0:0:0:
256,192,68891,1,8,0:0:0:0:
256,192,68980,1,8,0:0:0:0:
256,192,69068,1,0,0:0:0:0:
256,192,69244,1,8,0:0:0:0:
256,192,69332,1,0,0:0:0:0:
256,192,69421,1,8,0:0:0:0:
256,192,69597,1,4,0:0:0:0:
256,192,69774,1,0,0:0:0:0:
256,192,69950,1,8,0:0:0:0:
256,192,70127,1,0,0:0:0:0:
256,192,70215,1,0,0:0:0:0:
256,192,70303,1,8,0:0:0:0:
256,192,70480,1,0,0:0:0:0:
256,192,70656,1,8,0:0:0:0:
256,192,70832,1,0,0:0:0:0:
256,192,71009,1,8,0:0:0:0:
256,192,71185,1,0,0:0:0:0:
256,192,71362,1,8,0:0:0:0:
256,192,71538,1,0,0:0:0:0:
256,192,71627,1,0,0:0:0:0:
256,192,71715,1,8,0:0:0:0:
256,192,71891,1,0,0:0:0:0:
256,192,72068,1,8,0:0:0:0:
256,192,72156,1,0,0:0:0:0:
256,192,72244,1,8,0:0:0:0:
256,192,72332,1,0,0:0:0:0:
256,192,72421,1,8,0:0:0:0:
256,192,72597,1,0,0:0:0:0:
256,192,72774,1,8,0:0:0:0:
256,192,72950,1,0,0:0:0:0:
256,192,73038,1,0,0:0:0:0:
256,192,73127,1,8,0:0:0:0:
256,192,73303,1,0,0:0:0:0:
256,192,73480,1,8,0:0:0:0:
256,192,73568,1,8,0:0:0:0:
256,192,73656,1,0,0:0:0:0:
256,192,73832,1,8,0:0:0:0:
256,192,74009,1,0,0:0:0:0:
256,192,74097,1,0,0:0:0:0:
256,192,74185,1,8,0:0:0:0:
256,192,74362,1,0,0:0:0:0:
256,192,74450,1,0,0:0:0:0:
256,192,74538,1,8,0:0:0:0:
256,192,74715,1,0,0:0:0:0:
256,192,74803,1,0,0:0:0:0:
256,192,74891,1,8,0:0:0:0:
256,192,74980,1,0,0:0:0:0:
256,192,75068,1,8,0:0:0:0:
256,192,75156,1,8,0:0:0:0:
256,192,75244,1,0,0:0:0:0:
256,192,75421,1,0,0:0:0:0:
256,192,75597,1,8,0:0:0:0:
256,192,75774,1,0,0:0:0:0:
256,192,75862,1,0,0:0:0:0:
256,192,75950,1,8,0:0:0:0:
256,192,76127,1,0,0:0:0:0:
256,192,76303,1,8,0:0:0:0:
256,192,76480,1,0,0:0:0:0:
256,192,76656,1,8,0:0:0:0:
256,192,76832,1,0,0:0:0:0:
256,192,77009,1,8,0:0:0:0:
256,192,77185,1,0,0:0:0:0:
256,192,77274,1,0,0:0:0:0:
256,192,77362,1,8,0:0:0:0:
256,192,77538,1,0,0:0:0:0:
256,192,77715,1,8,0:0:0:0:
256,192,77803,1,0,0:0:0:0:
256,192,77891,1,8,0:0:0:0:
256,192,77980,1,0,0:0:0:0:
256,192,78068,1,8,0:0:0:0:
256,192,78244,1,0,0:0:0:0:
256,192,78421,1,8,0:0:0:0:
256,192,78597,1,0,0:0:0:0:
256,192,78685,1,0,0:0:0:0:
256,192,78774,1,8,0:0:0:0:
256,192,78950,1,0,0:0:0:0:
256,192,79127,1,8,0:0:0:0:
256,192,79215,1,8,0:0:0:0:
256,192,79303,1,0,0:0:0:0:
256,192,79480,1,12,0:0:0:0:
256,192,79656,1,0,0:0:0:0:
256,192,79744,1,0,0:0:0:0:
256,192,79832,1,8,0:0:0:0:
256,192,80009,1,0,0:0:0:0:
256,192,80097,1,0,0:0:0:0:
256,192,80185,1,8,0:0:0:0:
256,192,80274,1,8,0:0:0:0:
256,192,80362,1,0,0:0:0:0:
256,192,80450,1,0,0:0:0:0:
256,192,80538,1,8,0:0:0:0:
256,192,80627,1,0,0:0:0:0:
256,192,80715,1,8,0:0:0:0:
256,192,80803,1,8,0:0:0:0:
256,192,80891,1,0,0:0:0:0:
256,192,81068,1,0,0:0:0:0:
256,192,81244,1,8,0:0:0:0:
256,192,81421,1,0,0:0:0:0:
256,192,81597,1,0,0:0:0:0:
256,192,81774,1,0,0:0:0:0:
256,192,81950,1,8,0:0:0:0:
256,192,82127,1,0,0:0:0:0:
256,192,82215,1,0,0:0:0:0:
256,192,82303,1,0,0:0:0:0:
256,192,82480,1,0,0:0:0:0:
256,192,82656,1,8,0:0:0:0:
256,192,82832,1,0,0:0:0:0:
256,192,83009,1,0,0:0:0:0:
256,192,83185,1,0,0:0:0:0:
256,192,83362,1,8,0:0:0:0:
256,192,83538,1,0,0:0:0:0:
256,192,83627,1,0,0:0:0:0:
256,192,83715,1,0,0:0:0:0:
256,192,83891,1,0,0:0:0:0:
256,192,84068,1,8,0:0:0:0:
256,192,84244,1,0,0:0:0:0:
256,192,84421,1,0,0:0:0:0:
256,192,84597,1,0,0:0:0:0:
256,192,84774,1,8,0:0:0:0:
256,192,84950,1,0,0:0:0:0:
256,192,85038,1,0,0:0:0:0:
256,192,85127,1,0,0:0:0:0:
256,192,85303,1,0,0:0:0:0:
256,192,85480,1,8,0:0:0:0:
256,192,85656,1,0,0:0:0:0:
256,192,85832,1,0,0:0:0:0:
256,192,86009,1,0,0:0:0:0:
256,192,86185,1,8,0:0:0:0:
256,192,86362,1,0,0:0:0:0:
256,192,86450,1,0,0:0:0:0:
256,192,86538,1,0,0:0:0:0:
256,192,86627,1,0,0:0:0:0:
256,192,86715,1,8,0:0:0:0:
256,192,86891,1,0,0:0:0:0:
256,192,86980,1,0,0:0:0:0:
256,192,87068,1,8,0:0:0:0:
256,192,87244,1,0,0:0:0:0:
256,192,87332,1,0,0:0:0:0:
256,192,87421,1,8,0:0:0:0:
256,192,87597,1,0,0:0:0:0:
256,192,87685,1,0,0:0:0:0:
256,192,87774,1,8,0:0:0:0:
256,192,87950,1,0,0:0:0:0:
256,192,88038,1,0,0:0:0:0:
256,192,88127,1,8,0:0:0:0:
256,192,88303,1,0,0:0:0:0:
256,192,88391,1,0,0:0:0:0:
256,192,88480,1,8,0:0:0:0:
256,192,88656,1,0,0:0:0:0:
256,192,88744,1,0,0:0:0:0:
256,192,88832,1,8,0:0:0:0:
256,192,89009,1,0,0:0:0:0:
256,192,89097,1,0,0:0:0:0:
256,192,89185,1,8,0:0:0:0:
256,192,89362,1,0,0:0:0:0:
256,192,89450,1,0,0:0:0:0:
256,192,89538,1,8,0:0:0:0:
256,192,89627,1,0,0:0:0:0:
256,192,89715,1,0,0:0:0:0:
256,192,89803,1,8,0:0:0:0:
256,192,89891,1,8,0:0:0:0:
256,192,89980,1,0,0:0:0:0:
256,192,90068,1,8,0:0:0:0:
256,192,90156,1,8,0:0:0:0:
256,192,90244,1,8,0:0:0:0:
256,192,90332,1,0,0:0:0:0:
256,192,90421,1,8,0:0:0:0:
256,192,90509,1,0,0:0:0:0:
256,192,90597,1,8,0:0:0:0:
256,192,90685,1,8,0:0:0:0:
256,192,90774,1,0,0:0:0:0:
256,192,90862,1,0,0:0:0:0:
256,192,90950,1,8,0:0:0:0:
256,192,91038,1,0,0:0:0:0:
256,192,91127,1,0,0:0:0:0:
256,192,91215,1,8,0:0:0:0:
256,192,91303,1,0,0:0:0:0:
256,192,91391,1,0,0:0:0:0:
256,192,91480,1,8,0:0:0:0:
256,192,91568,1,8,0:0:0:0:
256,192,91656,1,0,0:0:0:0:
256,192,91744,1,0,0:0:0:0:
256,192,91832,1,8,0:0:0:0:
256,192,91921,1,0,0:0:0:0:
256,192,92009,1,8,0:0:0:0:
256,192,92185,1,4,0:0:0:0:
256,192,92362,1,8,0:0:0:0:
256,192,92450,1,0,0:0:0:0:
256,192,92627,1,0,0:0:0:0:
256,192,92715,1,0,0:0:0:0:
256,192,92803,1,0,0:0:0:0:
256,192,92891,1,8,0:0:0:0:
256,192,92980,1,0,0:0:0:0:
256,192,93068,1,8,0:0:0:0:
256,192,93156,1,8,0:0:0:0:
256,192,93244,1,0,0:0:0:0:
256,192,93421,1,0,0:0:0:0:
256,192,93509,1,0,0:0:0:0:
256,192,93597,1,8,0:0:0:0:
256,192,93774,1,0,0:0:0:0:
256,192,93862,1,8,0:0:0:0:
256,192,94038,1,8,0:0:0:0:
256,192,94127,1,0,0:0:0:0:
256,192,94215,1,0,0:0:0:0:
256,192,94303,1,8,0:0:0:0:
256,192,94391,1,0,0:0:0:0:
256,192,94480,1,8,0:0:0:0:
256,192,94568,1,0,0:0:0:0:
256,192,94656,1,8,0:0:0:0:
256,192,94744,1,0,0:0:0:0:
256,192,94832,1,0,0:0:0:0:
256,192,94921,1,8,0:0:0:0:
256,192,95009,1,0,0:0:0:0:
256,192,95185,1,8,0:0:0:0:
256,192,95274,1,0,0:0:0:0:
256,192,95450,1,0,0:0:0:0:
256,192,95538,1,0,0:0:0:0:
256,192,95627,1,0,0:0:0:0:
256,192,95715,1,8,0:0:0:0:
256,192,95803,1,0,0:0:0:0:
256,192,95891,1,8,0:0:0:0:
256,192,95980,1,0,0:0:0:0:
256,192,96068,1,8,0:0:0:0:
256,192,96244,1,0,0:0:0:0:
256,192,96332,1,0,0:0:0:0:
256,192,96421,1,8,0:0:0:0:
256,192,96509,1,8,0:0:0:0:
256,192,96597,1,8,0:0:0:0:
256,192,96685,1,0,0:0:0:0:
256,192,96862,1,8,0:0:0:0:
256,192,96950,1,8,0:0:0:0:
256,192,97038,1,0,0:0:0:0:
256,192,97127,1,0,0:0:0:0:
256,192,97215,1,8,0:0:0:0:
256,192,97303,1,8,0:0:0:0:
256,192,97391,1,0,0:0:0:0:
256,192,97480,1,8,0:0:0:0:
256,192,97568,1,0,0:0:0:0:
256,192,97656,1,8,0:0:0:0:
256,192,97744,1,8,0:0:0:0:
256,192,97832,1,0,0:0:0:0:
256,192,98009,1,8,0:0:0:0:
256,192,98097,1,0,0:0:0:0:
256,192,98274,1,0,0:0:0:0:
256,192,98362,1,0,0:0:0:0:
256,192,98450,1,0,0:0:0:0:
256,192,98538,1,8,0:0:0:0:
256,192,98627,1,0,0:0:0:0:
256,192,98715,1,8,0:0:0:0:
256,192,98803,1,8,0:0:0:0:
256,192,98891,1,0,0:0:0:0:
256,192,99068,1,0,0:0:0:0:
256,192,99156,1,0,0:0:0:0:
256,192,99244,1,8,0:0:0:0:
256,192,99421,1,0,0:0:0:0:
256,192,99509,1,8,0:0:0:0:
256,192,99685,1,8,0:0:0:0:
256,192,99774,1,0,0:0:0:0:
256,192,99862,1,0,0:0:0:0:
256,192,99950,1,8,0:0:0:0:
256,192,100038,1,0,0:0:0:0:
256,192,100127,1,8,0:0:0:0:
256,192,100215,1,0,0:0:0:0:
256,192,100303,1,8,0:0:0:0:
256,192,100391,1,0,0:0:0:0:
256,192,100480,1,0,0:0:0:0:
256,192,100568,1,8,0:0:0:0:
256,192,100656,1,0,0:0:0:0:
256,192,100832,1,8,0:0:0:0:
256,192,100921,1,0,0:0:0:0:
256,192,101097,1,0,0:0:0:0:
256,192,101185,1,0,0:0:0:0:
256,192,101274,1,0,0:0:0:0:
256,192,101362,1,8,0:0:0:0:
256,192,101450,1,0,0:0:0:0:
256,192,101538,1,8,0:0:0:0:
256,192,101627,1,0,0:0:0:0:
256,192,101715,1,8,0:0:0:0:
256,192,101891,1,0,0:0:0:0:
256,192,101980,1,0,0:0:0:0:
256,192,102068,1,8,0:0:0:0:
256,192,102156,1,8,0:0:0:0:
256,192,102244,1,8,0:0:0:0:
256,192,102332,1,0,0:0:0:0:
256,192,102421,1,0,0:0:0:0:
256,192,102509,1,8,0:0:0:0:
256,192,102597,1,8,0:0:0:0:
256,192,102685,1,0,0:0:0:0:
256,192,102774,1,8,0:0:0:0:
256,192,102862,1,0,0:0:0:0:
256,192,102950,1,8,0:0:0:0:
256,192,103038,1,8,0:0:0:0:
256,192,103127,1,0,0:0:0:0:
256,192,103215,1,8,0:0:0:0:
256,192,103303,1,8,0:0:0:0:
256,192,103391,1,8,0:0:0:0:
256,192,103480,1,0,0:0:0:0:
256,192,103656,1,8,0:0:0:0:
256,192,103744,1,0,0:0:0:0:
256,192,103921,1,8,0:0:0:0:
256,192,104009,1,0,0:0:0:0:
256,192,104097,1,0,0:0:0:0:
256,192,104185,1,8,0:0:0:0:
256,192,104274,1,0,0:0:0:0:
256,192,104362,1,8,0:0:0:0:
256,192,104450,1,8,0:0:0:0:
256,192,104538,1,0,0:0:0:0:
256,192,104715,1,8,0:0:0:0:
256,192,104803,1,0,0:0:0:0:
256,192,104891,1,8,0:0:0:0:
256,192,104980,1,8,0:0:0:0:
256,192,105068,1,0,0:0:0:0:
256,192,105156,1,8,0:0:0:0:
256,192,105244,1,8,0:0:0:0:
256,192,105332,1,8,0:0:0:0:
256,192,105421,1,0,0:0:0:0:
256,192,105509,1,8,0:0:0:0:
256,192,105597,1,8,0:0:0:0:
256,192,105685,1,0,0:0:0:0:
256,192,105774,1,8,0:0:0:0:
256,192,105862,1,0,0:0:0:0:
256,192,105950,1,8,0:0:0:0:
256,192,106038,1,0,0:0:0:0:
256,192,106127,1,0,0:0:0:0:
256,192,106215,1,8,0:0:0:0:
256,192,106303,1,0,0:0:0:0:
256,192,106480,1,8,0:0:0:0:
256,192,106568,1,0,0:0:0:0:
256,192,106744,1,8,0:0:0:0:
256,192,106832,1,0,0:0:0:0:
256,192,106921,1,0,0:0:0:0:
256,192,107009,1,8,0:0:0:0:
256,192,107097,1,0,0:0:0:0:
256,192,107185,1,8,0:0:0:0:
256,192,107274,1,8,0:0:0:0:
256,192,107362,1,8,0:0:0:0:
256,192,107538,1,8,0:0:0:0:
256,192,107627,1,0,0:0:0:0:
256,192,107715,1,8,0:0:0:0:
256,192,107803,1,8,0:0:0:0:
256,192,107891,1,8,0:0:0:0:
256,192,107980,1,0,0:0:0:0:
256,192,108156,1,8,0:0:0:0:
256,192,108244,1,8,0:0:0:0:
256,192,108332,1,0,0:0:0:0:
256,192,108421,1,0,0:0:0:0:
256,192,108509,1,8,0:0:0:0:
256,192,108597,1,8,0:0:0:0:
256,192,108685,1,0,0:0:0:0:
256,192,108774,1,8,0:0:0:0:
256,192,108862,1,0,0:0:0:0:
256,192,108950,1,8,0:0:0:0:
256,192,109038,1,8,0:0:0:0:
256,192,109127,1,0,0:0:0:0:
256,192,109303,1,8,0:0:0:0:
256,192,109391,1,0,0:0:0:0:
256,192,109568,1,8,0:0:0:0:
256,192,109656,1,0,0:0:0:0:
256,192,109744,1,0,0:0:0:0:
256,192,109832,1,8,0:0:0:0:
256,192,109921,1,0,0:0:0:0:
256,192,110009,1,8,0:0:0:0:
256,192,110097,1,8,0:0:0:0:
256,192,110185,1,0,0:0:0:0:
256,192,110362,1,8,0:0:0:0:
256,192,110450,1,0,0:0:0:0:
256,192,110538,1,8,0:0:0:0:
256,192,110627,1,8,0:0:0:0:
256,192,110715,1,0,0:0:0:0:
256,192,110803,1,8,0:0:0:0:
256,192,110891,1,8,0:0:0:0:
256,192,110980,1,8,0:0:0:0:
256,192,111068,1,0,0:0:0:0:
256,192,111156,1,8,0:0:0:0:
256,192,111244,1,8,0:0:0:0:
256,192,111332,1,0,0:0:0:0:
256,192,111421,1,8,0:0:0:0:
256,192,111509,1,0,0:0:0:0:
256,192,111597,1,8,0:0:0:0:
256,192,111685,1,0,0:0:0:0:
256,192,111774,1,0,0:0:0:0:
256,192,111862,1,8,0:0:0:0:
256,192,111950,1,0,0:0:0:0:
256,192,112038,1,0,0:0:0:0:
256,192,112127,1,8,0:0:0:0:
256,192,112215,1,0,0:0:0:0:
256,192,112303,1,0,0:0:0:0:
256,192,112391,1,8,0:0:0:0:
256,192,112480,1,8,0:0:0:0:
256,192,112568,1,0,0:0:0:0:
256,192,112656,1,8,0:0:0:0:
256,192,112744,1,0,0:0:0:0:
256,192,112832,1,8,0:0:0:0:
256,192,112921,1,0,0:0:0:0:
256,192,113009,1,8,0:0:0:0:
256,192,113097,1,8,0:0:0:0:
256,192,113185,1,0,0:0:0:0:
256,192,113244,1,0,0:0:0:0:
256,192,113303,1,0,0:0:0:0:
256,192,113362,1,8,0:0:0:0:
256,192,113450,1,0,0:0:0:0:
256,192,113538,1,8,0:0:0:0:
256,192,113627,1,0,0:0:0:0:
256,192,113715,1,0,0:0:0:0:
256,192,113803,1,8,0:0:0:0:
256,192,113891,1,0,0:0:0:0:
256,192,113980,1,0,0:0:0:0:
256,192,114068,1,8,0:0:0:0:
256,192,114156,1,8,0:0:0:0:
256,192,114244,1,0,0:0:0:0:
256,192,114332,1,0,0:0:0:0:
256,192,114421,1,8,0:0:0:0:
256,192,114509,1,0,0:0:0:0:
256,192,114597,1,8,0:0:0:0:
256,192,114774,1,4,0:0:0:0:
