osu file format v14

[General]
AudioFilename: audio.mp3
AudioLeadIn: 0
PreviewTime: 92185
Countdown: 0
SampleSet: Normal
StackLeniency: 0.7
Mode: 1
LetterboxInBreaks: 0
WidescreenStoryboard: 1

[Editor]
DistanceSpacing: 2
BeatDivisor: 4
GridSize: 32
TimelineZoom: 1.700001

[Metadata]
Title:Crazy Jackpot
TitleUnicode:Crazy Jackpot
Artist:Hommarju
ArtistUnicode:Hommarju
Creator:Tofu1222
Version:Futsuu
Source:REFLEC BEAT VOLZZA
Tags:aabc271 Nardoxyribonucleic Ellyu handsome muscle Faputa jack1817 Mayumi Morinaga moimoi
BeatmapID:1517267
BeatmapSetID:717853

[Difficulty]
HPDrainRate:6
CircleSize:2
OverallDifficulty:4
ApproachRate:5
SliderMultiplier:1.4
SliderTickRate:1

[Events]
//Background and Video events
0,0,"bg.png",0,0
//Break Periods
2,58503,66985
//Storyboard Layer 0 (Background)
//Storyboard Layer 1 (Fail)
//Storyboard Layer 2 (Pass)
//Storyboard Layer 3 (Foreground)
//Storyboard Sound Samples

[TimingPoints]
1833,352.941176470588,4,1,0,80,1,0
92185,-100,4,1,0,80,0,1
114774,-100,4,1,0,80,0,0

[HitObjects]
256,192,1832,5,4,0:0:0:0:
256,192,2538,1,2,0:0:0:0:
256,192,2891,1,0,0:0:0:0:
256,192,3244,1,0,0:0:0:0:
256,192,3950,1,2,0:0:0:0:
256,192,4303,1,2,0:0:0:0:
256,192,4656,1,0,0:0:0:0:
256,192,5362,1,2,0:0:0:0:
256,192,5715,1,0,0:0:0:0:
256,192,6068,1,0,0:0:0:0:
256,192,6774,1,2,0:0:0:0:
256,192,7127,1,2,0:0:0:0:
256,192,7480,1,0,0:0:0:0:
256,192,7832,1,2,0:0:0:0:
256,192,8009,1,2,0:0:0:0:
256,192,8185,1,0,0:0:0:0:
256,192,8538,1,2,0:0:0:0:
256,192,8891,1,0,0:0:0:0:
256,192,9244,1,2,0:0:0:0:
256,192,9421,1,2,0:0:0:0:
256,192,9597,1,0,0:0:0:0:
256,192,9950,1,2,0:0:0:0:
256,192,10303,1,0,0:0:0:0:
256,192,11009,1,2,0:0:0:0:
256,192,11715,12,0,13127,0:0:0:0:
256,192,13480,5,2,0:0:0:0:
256,192,13656,1,2,0:0:0:0:
256,192,13832,1,0,0:0:0:0:
256,192,14185,1,2,0:0:0:0:
256,192,14715,1,0,0:0:0:0:
256,192,15068,1,2,0:0:0:0:
256,192,15244,1,0,0:0:0:0:
256,192,15950,1,0,0:0:0:0:
256,192,16303,1,2,0:0:0:0:
256,192,16480,1,2,0:0:0:0:
256,192,16656,1,0,0:0:0:0:
256,192,17009,1,2,0:0:0:0:
256,192,17538,1,0,0:0:0:0:
256,192,17891,1,2,0:0:0:0:
256,192,18068,1,0,0:0:0:0:
256,192,18774,1,0,0:0:0:0:
256,192,19127,1,2,0:0:0:0:
256,192,19303,1,2,0:0:0:0:
256,192,19480,1,0,0:0:0:0:
256,192,19832,1,2,0:0:0:0:
256,192,20362,1,0,0:0:0:0:
256,192,20715,1,2,0:0:0:0:
256,192,20892,1,0,0:0:0:0:
256,192,21597,1,0,0:0:0:0:
256,192,21950,1,2,0:0:0:0:
256,192,22127,1,2,0:0:0:0:
256,192,22303,1,0,0:0:0:0:
256,192,22656,1,2,0:0:0:0:
256,192,23185,1,0,0:0:0:0:
256,192,23538,1,2,0:0:0:0:
256,192,23715,1,0,0:0:0:0:
256,192,24421,1,4,0:0:0:0:
256,192,24774,1,2,0:0:0:0:
256,192,25127,1,2,0:0:0:0:
256,192,25832,1,0,0:0:0:0:
256,192,26185,1,2,0:0:0:0:
256,192,26538,1,2,0:0:0:0:
256,192,27244,1,0,0:0:0:0:
256,192,27597,1,2,0:0:0:0:
256,192,27950,1,2,0:0:0:0:
256,192,28656,1,0,0:0:0:0:
256,192,29009,1,2,0:0:0:0:
256,192,29362,1,2,0:0:0:0:
256,192,30068,5,2,0:0:0:0:
256,192,30421,1,2,0:0:0:0:
256,192,30774,1,2,0:0:0:0:
256,192,31480,1,2,0:0:0:0:
256,192,31832,1,2,0:0:0:0:
256,192,32185,1,2,0:0:0:0:
256,192,32891,1,2,0:0:0:0:
256,192,33244,1,0,0:0:0:0:
256,192,33597,1,2,0:0:0:0:
256,192,33950,1,0,0:0:0:0:
256,192,34303,1,2,0:0:0:0:
256,192,34656,1,0,0:0:0:0:
256,192,35009,1,2,0:0:0:0:
256,192,35715,1,4,0:0:0:0:
256,192,36068,1,2,0:0:0:0:
256,192,36245,1,2,0:0:0:0:
256,192,36421,1,0,0:0:0:0:
256,192,36774,1,2,0:0:0:0:
256,192,37127,1,0,0:0:0:0:
256,192,37303,1,2,0:0:0:0:
256,192,37656,1,2,0:0:0:0:
256,192,37833,1,0,0:0:0:0:
256,192,38539,1,0,0:0:0:0:
256,192,38891,1,2,0:0:0:0:
256,192,39068,1,2,0:0:0:0:
256,192,39245,1,0,0:0:0:0:
256,192,39597,1,2,0:0:0:0:
256,192,39950,1,0,0:0:0:0:
256,192,40127,1,2,0:0:0:0:
256,192,40480,1,2,0:0:0:0:
256,192,40657,1,0,0:0:0:0:
256,192,41362,1,0,0:0:0:0:
256,192,41715,1,2,0:0:0:0:
256,192,41892,1,2,0:0:0:0:
256,192,42068,1,0,0:0:0:0:
256,192,42421,1,2,0:0:0:0:
256,192,42774,1,0,0:0:0:0:
256,192,42950,1,2,0:0:0:0:
256,192,43303,1,2,0:0:0:0:
256,192,43480,1,0,0:0:0:0:
256,192,44185,1,0,0:0:0:0:
256,192,44537,1,2,0:0:0:0:
256,192,44714,1,2,0:0:0:0:
256,192,44891,1,0,0:0:0:0:
256,192,45243,1,2,0:0:0:0:
256,192,45597,1,4,0:0:0:0:
256,192,46303,1,2,0:0:0:0:
256,192,47008,1,0,0:0:0:0:
256,192,47185,1,0,0:0:0:0:
256,192,47361,1,2,0:0:0:0:
256,192,47714,1,0,0:0:0:0:
256,192,48421,1,0,0:0:0:0:
256,192,48596,1,0,0:0:0:0:
256,192,48774,1,2,0:0:0:0:
256,192,49127,1,0,0:0:0:0:
256,192,49832,1,0,0:0:0:0:
256,192,50009,1,0,0:0:0:0:
256,192,50185,1,2,0:0:0:0:
256,192,50538,1,0,0:0:0:0:
256,192,51245,1,0,0:0:0:0:
256,192,51420,1,0,0:0:0:0:
256,192,51598,1,2,0:0:0:0:
256,192,51951,1,0,0:0:0:0:
256,192,52656,1,4,0:0:0:0:
256,192,53009,1,0,0:0:0:0:
256,192,53362,1,2,0:0:0:0:
256,192,53891,1,2,0:0:0:0:
256,192,54421,1,0,0:0:0:0:
256,192,54774,1,0,0:0:0:0:
256,192,55127,1,2,0:0:0:0:
256,192,55480,1,0,0:0:0:0:
256,192,55832,1,0,0:0:0:0:
256,192,56185,1,2,0:0:0:0:
256,192,56715,1,2,0:0:0:0:
256,192,56891,1,0,0:0:0:0:
256,192,57244,1,2,0:0:0:0:
256,192,57597,1,0,0:0:0:0:
256,192,57950,1,2,0:0:0:0:
256,192,58303,1,4,0:0:0:0:
256,192,68185,5,0,0:0:0:0:
256,192,68538,1,2,0:0:0:0:
256,192,68715,1,2,0:0:0:0:
256,192,68891,1,0,0:0:0:0:
256,192,69244,1,2,0:0:0:0:
256,192,69597,1,6,0:0:0:0:
256,192,69950,1,0,0:0:0:0:
256,192,70303,1,2,0:0:0:0:
256,192,70656,1,0,0:0:0:0:
256,192,71009,1,2,0:0:0:0:
256,192,71362,1,2,0:0:0:0:
256,192,71715,1,0,0:0:0:0:
256,192,72068,1,0,0:0:0:0:
256,192,72421,1,2,0:0:0:0:
256,192,72774,1,0,0:0:0:0:
256,192,73127,1,2,0:0:0:0:
256,192,73480,1,0,0:0:0:0:
256,192,73832,1,0,0:0:0:0:
256,192,74009,1,0,0:0:0:0:
256,192,74185,1,0,0:0:0:0:
256,192,74538,1,2,0:0:0:0:
256,192,74715,1,2,0:0:0:0:
256,192,74891,1,2,0:0:0:0:
256,192,75244,1,2,0:0:0:0:
256,192,75597,1,0,0:0:0:0:
256,192,75950,1,2,0:0:0:0:
256,192,76303,1,0,0:0:0:0:
256,192,76656,1,2,0:0:0:0:
256,192,77009,1,2,0:0:0:0:
256,192,77362,1,0,0:0:0:0:
256,192,77715,1,0,0:0:0:0:
256,192,78068,1,2,0:0:0:0:
256,192,78421,1,0,0:0:0:0:
256,192,78774,1,2,0:0:0:0:
256,192,79127,1,0,0:0:0:0:
256,192,79480,1,4,0:0:0:0:
256,192,80891,1,0,0:0:0:0:
256,192,81068,1,0,0:0:0:0:
256,192,81244,1,0,0:0:0:0:
256,192,81597,1,2,0:0:0:0:
256,192,81950,1,2,0:0:0:0:
256,192,82303,1,0,0:0:0:0:
256,192,82480,1,0,0:0:0:0:
256,192,82656,1,0,0:0:0:0:
256,192,83009,1,2,0:0:0:0:
256,192,83362,1,2,0:0:0:0:
256,192,83715,1,0,0:0:0:0:
256,192,83891,1,0,0:0:0:0:
256,192,84068,1,0,0:0:0:0:
256,192,84421,1,2,0:0:0:0:
256,192,84774,1,0,0:0:0:0:
256,192,85127,1,0,0:0:0:0:
256,192,85303,1,0,0:0:0:0:
256,192,85480,1,0,0:0:0:0:
256,192,85833,1,2,0:0:0:0:
256,192,86185,1,0,0:0:0:0:
256,192,86538,1,0,0:0:0:0:
256,192,86891,1,0,0:0:0:0:
256,192,87244,1,2,0:0:0:0:
256,192,87597,1,2,0:0:0:0:
256,192,87950,1,0,0:0:0:0:
256,192,88303,1,0,0:0:0:0:
256,192,88656,1,2,0:0:0:0:
256,192,89009,1,2,0:0:0:0:
256,192,89362,1,2,0:0:0:0:
256,192,89715,1,2,0:0:0:0:
256,192,90068,1,2,0:0:0:0:
256,192,90421,1,0,0:0:0:0:
256,192,90774,1,4,0:0:0:0:
256,192,91480,1,2,0:0:0:0:
256,192,92185,1,4,0:0:0:0:
256,192,92538,1,2,0:0:0:0:
256,192,92891,1,0,0:0:0:0:
256,192,93068,1,2,0:0:0:0:
256,192,93244,1,0,0:0:0:0:
256,192,93597,1,2,0:0:0:0:
256,192,93950,1,0,0:0:0:0:
256,192,94303,1,2,0:0:0:0:
256,192,95009,1,0,0:0:0:0:
256,192,95362,1,2,0:0:0:0:
256,192,95715,1,0,0:0:0:0:
256,192,95892,1,0,0:0:0:0:
256,192,96068,1,2,0:0:0:0:
256,192,96421,1,2,0:0:0:0:
256,192,96597,1,2,0:0:0:0:
256,192,96774,1,0,0:0:0:0:
256,192,97127,1,2,0:0:0:0:
256,192,97832,1,0,0:0:0:0:
256,192,98185,1,2,0:0:0:0:
256,192,98538,1,0,0:0:0:0:
256,192,98715,1,2,0:0:0:0:
256,192,98891,1,0,0:0:0:0:
256,192,99244,1,2,0:0:0:0:
256,192,99597,1,0,0:0:0:0:
256,192,99950,1,2,0:0:0:0:
256,192,100656,1,0,0:0:0:0:
256,192,101009,1,2,0:0:0:0:
256,192,101362,1,0,0:0:0:0:
256,192,101539,1,0,0:0:0:0:
256,192,101715,5,2,0:0:0:0:
256,192,102068,1,2,0:0:0:0:
256,192,102244,1,2,0:0:0:0:
256,192,102421,1,0,0:0:0:0:
256,192,102774,1,2,0:0:0:0:
256,192,103480,1,0,0:0:0:0:
256,192,103833,1,2,0:0:0:0:
256,192,104186,1,0,0:0:0:0:
256,192,104363,1,2,0:0:0:0:
256,192,104539,1,0,0:0:0:0:
256,192,104892,1,2,0:0:0:0:
256,192,105245,1,0,0:0:0:0:
256,192,105598,1,2,0:0:0:0:
256,192,106304,1,0,0:0:0:0:
256,192,106657,1,2,0:0:0:0:
256,192,107010,1,0,0:0:0:0:
256,192,107185,1,0,0:0:0:0:
256,192,107363,1,2,0:0:0:0:
256,192,107716,1,2,0:0:0:0:
256,192,107892,1,2,0:0:0:0:
256,192,108069,5,0,0:0:0:0:
256,192,108422,1,2,0:0:0:0:
256,192,109127,1,0,0:0:0:0:
256,192,109480,1,2,0:0:0:0:
256,192,109832,1,0,0:0:0:0:
256,192,110538,1,2,0:0:0:0:
256,192,110891,1,0,0:0:0:0:
256,192,111244,1,2,0:0:0:0:
256,192,111950,1,0,0:0:0:0:
256,192,112303,1,2,0:0:0:0:
256,192,112656,1,0,0:0:0:0:
256,192,113009,1,2,0:0:0:0:
256,192,113362,1,0,0:0:0:0:
256,192,113715,1,0,0:0:0:0:
256,192,114068,1,2,0:0:0:0:
256,192,114421,1,2,0:0:0:0:
256,192,114774,1,4,0:0:0:0:
