osu file format v14

[General]
AudioFilename: audio.mp3
AudioLeadIn: 0
PreviewTime: 90594
Countdown: 0
SampleSet: Normal
StackLeniency: 0.2
Mode: 3
LetterboxInBreaks: 0
SpecialStyle: 0
WidescreenStoryboard: 1

[Editor]
DistanceSpacing: 2
BeatDivisor: 4
GridSize: 32
TimelineZoom: 2.5

[Metadata]
Title:Crazy Jackpot
TitleUnicode:Crazy Jackpot
Artist:Hommarju
ArtistUnicode:Hommarju
Creator:Stingy
Version:Hard
Source:
Tags:
BeatmapID:2018801
BeatmapSetID:937221

[Difficulty]
HPDrainRate:7.5
CircleSize:4
OverallDifficulty:7.5
ApproachRate:5
SliderMultiplier:1.4
SliderTickRate:1

[Events]
//Background and Video events
0,0,"bg.png",0,0
//Break Periods
//Storyboard Layer 0 (Background)
//Storyboard Layer 1 (Fail)
//Storyboard Layer 2 (Pass)
//Storyboard Layer 3 (Foreground)
//Storyboard Sound Samples

[TimingPoints]
1830,352.941176470588,4,1,0,60,1,0
35712,-100,4,1,0,60,0,1
45594,-100,4,1,0,60,0,0
47006,-100,4,1,0,60,0,1
52653,-100,4,1,0,60,0,0
92182,-100,4,1,0,60,0,1
109124,-100,4,1,0,60,0,0

[HitObjects]
64,192,1829,5,0,0:0:0:0:
448,192,1829,1,0,0:0:0:0:
320,192,2094,1,0,0:0:0:0:
448,192,2182,1,0,0:0:0:0:
64,192,2182,1,0,0:0:0:0:
320,192,2359,1,0,0:0:0:0:
448,192,2535,1,0,0:0:0:0:
64,192,2535,1,0,0:0:0:0:
320,192,2624,1,0,0:0:0:0:
448,192,2888,1,0,0:0:0:0:
64,192,2888,1,0,0:0:0:0:
320,192,3065,1,0,0:0:0:0:
64,192,3241,1,0,0:0:0:0:
448,192,3241,1,0,0:0:0:0:
320,192,3506,1,0,0:0:0:0:
448,192,3594,1,0,0:0:0:0:
64,192,3594,1,0,0:0:0:0:
320,192,3771,1,0,0:0:0:0:
448,192,3947,1,0,0:0:0:0:
64,192,3947,1,0,0:0:0:0:
320,192,4035,1,0,0:0:0:0:
448,192,4300,1,0,0:0:0:0:
64,192,4300,128,0,4565:0:0:0:0:
448,192,4653,5,0,0:0:0:0:
64,192,4653,1,0,0:0:0:0:
192,192,4918,1,0,0:0:0:0:
448,192,5006,1,0,0:0:0:0:
64,192,5006,1,0,0:0:0:0:
192,192,5182,1,0,0:0:0:0:
448,192,5359,1,0,0:0:0:0:
64,192,5359,1,0,0:0:0:0:
192,192,5447,1,0,0:0:0:0:
448,192,5712,1,0,0:0:0:0:
64,192,5712,1,0,0:0:0:0:
192,192,5888,1,0,0:0:0:0:
64,192,6065,1,0,0:0:0:0:
448,192,6065,1,0,0:0:0:0:
192,192,6329,1,0,0:0:0:0:
448,192,6418,1,0,0:0:0:0:
64,192,6418,1,0,0:0:0:0:
192,192,6594,1,0,0:0:0:0:
448,192,6771,1,0,0:0:0:0:
64,192,6771,1,0,0:0:0:0:
192,192,6859,1,0,0:0:0:0:
64,192,7124,1,0,0:0:0:0:
448,192,7124,1,0,0:0:0:0:
192,192,7300,128,0,7388:0:0:0:0:
448,192,7477,1,0,0:0:0:0:
64,192,7477,1,0,0:0:0:0:
320,192,7477,1,0,0:0:0:0:
448,192,7653,1,0,0:0:0:0:
320,192,7741,1,0,0:0:0:0:
64,192,7829,1,0,0:0:0:0:
192,192,7918,1,0,0:0:0:0:
320,192,8006,1,0,0:0:0:0:
320,192,8182,1,0,0:0:0:0:
64,192,8182,1,0,0:0:0:0:
64,192,8359,1,0,0:0:0:0:
192,192,8447,1,0,0:0:0:0:
448,192,8535,1,0,0:0:0:0:
320,192,8624,1,0,0:0:0:0:
192,192,8712,1,0,0:0:0:0:
448,192,8888,1,0,0:0:0:0:
192,192,8888,1,0,0:0:0:0:
448,192,9065,1,0,0:0:0:0:
320,192,9153,1,0,0:0:0:0:
192,192,9241,1,0,0:0:0:0:
320,192,9329,1,0,0:0:0:0:
448,192,9418,1,0,0:0:0:0:
64,192,9594,1,0,0:0:0:0:
448,192,9594,1,0,0:0:0:0:
64,192,9771,1,0,0:0:0:0:
192,192,9859,1,0,0:0:0:0:
448,192,9947,1,0,0:0:0:0:
320,192,10035,1,0,0:0:0:0:
192,192,10124,1,0,0:0:0:0:
192,192,10300,1,0,0:0:0:0:
64,192,10300,1,0,0:0:0:0:
320,192,10388,1,0,0:0:0:0:
448,192,10477,1,0,0:0:0:0:
320,192,10565,1,0,0:0:0:0:
64,192,10653,1,0,0:0:0:0:
192,192,10741,1,0,0:0:0:0:
448,192,10829,1,0,0:0:0:0:
320,192,10918,1,0,0:0:0:0:
64,192,11006,1,0,0:0:0:0:
192,192,11094,1,0,0:0:0:0:
320,192,11182,1,0,0:0:0:0:
448,192,11271,1,0,0:0:0:0:
64,192,11359,1,0,0:0:0:0:
192,192,11447,1,0,0:0:0:0:
320,192,11535,1,0,0:0:0:0:
448,192,11624,1,0,0:0:0:0:
64,192,11712,128,0,11800:0:0:0:0:
192,192,11888,128,0,11977:0:0:0:0:
320,192,12065,128,0,12153:0:0:0:0:
448,192,12241,128,0,12329:0:0:0:0:
64,192,12418,128,0,12771:0:0:0:0:
192,192,12771,128,0,13124:0:0:0:0:
64,192,13124,1,0,0:0:0:0:
320,192,13124,1,0,0:0:0:0:
448,192,13124,1,0,0:0:0:0:
448,192,13300,1,0,0:0:0:0:
320,192,13388,1,0,0:0:0:0:
64,192,13477,1,0,0:0:0:0:
192,192,13565,1,0,0:0:0:0:
320,192,13653,1,0,0:0:0:0:
448,192,13741,1,0,0:0:0:0:
192,192,13829,1,0,0:0:0:0:
320,192,13918,1,0,0:0:0:0:
448,192,14006,1,0,0:0:0:0:
448,192,14182,1,0,0:0:0:0:
320,192,14271,1,0,0:0:0:0:
64,192,14359,128,0,14712:0:0:0:0:
448,192,14712,1,0,0:0:0:0:
320,192,14800,1,0,0:0:0:0:
64,192,14888,1,0,0:0:0:0:
192,192,14977,1,0,0:0:0:0:
448,192,15065,1,0,0:0:0:0:
320,192,15153,1,0,0:0:0:0:
192,192,15241,1,0,0:0:0:0:
320,192,15329,1,0,0:0:0:0:
448,192,15418,128,0,15594:0:0:0:0:
64,192,15594,1,0,0:0:0:0:
192,192,15682,1,0,0:0:0:0:
320,192,15771,1,0,0:0:0:0:
448,192,15947,1,0,0:0:0:0:
448,192,16124,1,0,0:0:0:0:
320,192,16212,1,0,0:0:0:0:
64,192,16300,1,0,0:0:0:0:
192,192,16388,1,0,0:0:0:0:
448,192,16477,1,0,0:0:0:0:
320,192,16565,1,0,0:0:0:0:
192,192,16653,1,0,0:0:0:0:
320,192,16741,1,0,0:0:0:0:
448,192,16829,1,0,0:0:0:0:
448,192,17006,1,0,0:0:0:0:
320,192,17094,1,0,0:0:0:0:
64,192,17182,128,0,17535:0:0:0:0:
448,192,17535,1,0,0:0:0:0:
320,192,17624,1,0,0:0:0:0:
64,192,17712,1,0,0:0:0:0:
192,192,17800,1,0,0:0:0:0:
448,192,17888,1,0,0:0:0:0:
320,192,17977,1,0,0:0:0:0:
64,192,18065,1,0,0:0:0:0:
192,192,18153,1,0,0:0:0:0:
320,192,18241,128,0,18418:0:0:0:0:
192,192,18418,1,0,0:0:0:0:
320,192,18506,1,0,0:0:0:0:
448,192,18594,128,0,18771:0:0:0:0:
64,192,18771,1,0,0:0:0:0:
64,192,18947,1,0,0:0:0:0:
192,192,19035,1,0,0:0:0:0:
448,192,19124,1,0,0:0:0:0:
320,192,19212,1,0,0:0:0:0:
192,192,19300,1,0,0:0:0:0:
64,192,19388,1,0,0:0:0:0:
320,192,19477,1,0,0:0:0:0:
192,192,19565,1,0,0:0:0:0:
64,192,19653,1,0,0:0:0:0:
64,192,19829,1,0,0:0:0:0:
192,192,19918,1,0,0:0:0:0:
448,192,20006,128,0,20359:0:0:0:0:
64,192,20359,1,0,0:0:0:0:
192,192,20447,1,0,0:0:0:0:
448,192,20535,1,0,0:0:0:0:
320,192,20624,1,0,0:0:0:0:
64,192,20712,1,0,0:0:0:0:
192,192,20800,1,0,0:0:0:0:
320,192,20888,1,0,0:0:0:0:
192,192,20977,1,0,0:0:0:0:
64,192,21065,128,0,21241:0:0:0:0:
448,192,21241,1,0,0:0:0:0:
320,192,21329,1,0,0:0:0:0:
64,192,21418,1,0,0:0:0:0:
64,192,21594,1,0,0:0:0:0:
64,192,21771,1,0,0:0:0:0:
192,192,21859,1,0,0:0:0:0:
448,192,21947,1,0,0:0:0:0:
320,192,22035,1,0,0:0:0:0:
64,192,22124,1,0,0:0:0:0:
192,192,22212,1,0,0:0:0:0:
320,192,22300,1,0,0:0:0:0:
192,192,22388,1,0,0:0:0:0:
64,192,22477,1,0,0:0:0:0:
64,192,22653,1,0,0:0:0:0:
192,192,22741,1,0,0:0:0:0:
448,192,22829,128,0,23182:0:0:0:0:
64,192,23182,1,0,0:0:0:0:
192,192,23271,1,0,0:0:0:0:
448,192,23359,1,0,0:0:0:0:
320,192,23447,1,0,0:0:0:0:
64,192,23535,1,0,0:0:0:0:
192,192,23624,1,0,0:0:0:0:
448,192,23712,1,0,0:0:0:0:
320,192,23800,1,0,0:0:0:0:
192,192,23888,128,0,24065:0:0:0:0:
320,192,24065,1,0,0:0:0:0:
192,192,24153,1,0,0:0:0:0:
64,192,24241,128,0,24418:0:0:0:0:
448,192,24418,1,0,0:0:0:0:
320,192,24418,1,0,0:0:0:0:
192,192,24418,1,0,0:0:0:0:
64,192,24594,1,0,0:0:0:0:
192,192,24682,1,0,0:0:0:0:
320,192,24771,1,0,0:0:0:0:
448,192,24859,1,0,0:0:0:0:
320,192,24947,1,0,0:0:0:0:
192,192,25035,1,0,0:0:0:0:
64,192,25124,1,0,0:0:0:0:
192,192,25212,1,0,0:0:0:0:
320,192,25300,1,0,0:0:0:0:
320,192,25477,1,0,0:0:0:0:
192,192,25565,1,0,0:0:0:0:
64,192,25653,1,0,0:0:0:0:
448,192,25829,1,0,0:0:0:0:
64,192,25829,1,0,0:0:0:0:
448,192,26006,1,0,0:0:0:0:
320,192,26094,1,0,0:0:0:0:
192,192,26182,1,0,0:0:0:0:
64,192,26271,1,0,0:0:0:0:
192,192,26359,1,0,0:0:0:0:
320,192,26447,1,0,0:0:0:0:
448,192,26535,1,0,0:0:0:0:
320,192,26624,1,0,0:0:0:0:
192,192,26712,1,0,0:0:0:0:
192,192,26888,1,0,0:0:0:0:
320,192,26977,1,0,0:0:0:0:
192,192,27065,1,0,0:0:0:0:
320,192,27153,1,0,0:0:0:0:
448,192,27241,1,0,0:0:0:0:
64,192,27241,1,0,0:0:0:0:
64,192,27418,1,0,0:0:0:0:
192,192,27506,1,0,0:0:0:0:
448,192,27594,1,0,0:0:0:0:
320,192,27682,1,0,0:0:0:0:
64,192,27771,1,0,0:0:0:0:
192,192,27859,1,0,0:0:0:0:
320,192,27947,1,0,0:0:0:0:
192,192,28035,1,0,0:0:0:0:
64,192,28124,1,0,0:0:0:0:
64,192,28300,1,0,0:0:0:0:
192,192,28388,1,0,0:0:0:0:
320,192,28477,1,0,0:0:0:0:
448,192,28653,1,0,0:0:0:0:
64,192,28653,1,0,0:0:0:0:
448,192,28829,1,0,0:0:0:0:
320,192,28918,1,0,0:0:0:0:
64,192,29006,1,0,0:0:0:0:
192,192,29094,1,0,0:0:0:0:
448,192,29182,1,0,0:0:0:0:
320,192,29271,1,0,0:0:0:0:
192,192,29359,1,0,0:0:0:0:
320,192,29447,1,0,0:0:0:0:
448,192,29535,1,0,0:0:0:0:
448,192,29712,1,0,0:0:0:0:
320,192,29800,1,0,0:0:0:0:
448,192,29888,1,0,0:0:0:0:
320,192,29977,1,0,0:0:0:0:
64,192,30065,1,0,0:0:0:0:
192,192,30065,1,0,0:0:0:0:
448,192,30241,1,0,0:0:0:0:
320,192,30329,1,0,0:0:0:0:
192,192,30418,1,0,0:0:0:0:
64,192,30506,1,0,0:0:0:0:
192,192,30594,1,0,0:0:0:0:
320,192,30771,1,0,0:0:0:0:
448,192,30771,1,0,0:0:0:0:
64,192,30947,1,0,0:0:0:0:
192,192,31035,1,0,0:0:0:0:
320,192,31124,1,0,0:0:0:0:
448,192,31212,1,0,0:0:0:0:
320,192,31300,1,0,0:0:0:0:
64,192,31477,1,0,0:0:0:0:
448,192,31477,1,0,0:0:0:0:
448,192,31653,1,0,0:0:0:0:
320,192,31741,1,0,0:0:0:0:
64,192,31829,1,0,0:0:0:0:
192,192,31918,1,0,0:0:0:0:
320,192,32006,1,0,0:0:0:0:
448,192,32182,1,0,0:0:0:0:
64,192,32182,1,0,0:0:0:0:
64,192,32359,1,0,0:0:0:0:
192,192,32447,1,0,0:0:0:0:
448,192,32535,1,0,0:0:0:0:
320,192,32624,1,0,0:0:0:0:
192,192,32712,1,0,0:0:0:0:
320,192,32800,1,0,0:0:0:0:
192,192,32888,1,0,0:0:0:0:
64,192,32888,1,0,0:0:0:0:
448,192,32977,1,0,0:0:0:0:
320,192,33065,1,0,0:0:0:0:
192,192,33153,1,0,0:0:0:0:
64,192,33241,1,0,0:0:0:0:
448,192,33241,1,0,0:0:0:0:
320,192,33329,1,0,0:0:0:0:
192,192,33418,1,0,0:0:0:0:
64,192,33506,1,0,0:0:0:0:
448,192,33594,1,0,0:0:0:0:
320,192,33594,1,0,0:0:0:0:
192,192,33682,1,0,0:0:0:0:
64,192,33771,1,0,0:0:0:0:
192,192,33859,1,0,0:0:0:0:
320,192,33947,1,0,0:0:0:0:
448,192,33947,1,0,0:0:0:0:
64,192,34035,1,0,0:0:0:0:
192,192,34124,1,0,0:0:0:0:
320,192,34212,1,0,0:0:0:0:
448,192,34300,1,0,0:0:0:0:
64,192,34300,1,0,0:0:0:0:
448,192,34653,1,0,0:0:0:0:
192,192,34653,1,0,0:0:0:0:
448,192,35006,1,0,0:0:0:0:
320,192,35006,1,0,0:0:0:0:
448,192,35712,128,0,35888:0:0:0:0:
320,192,35712,1,0,0:0:0:0:
64,192,35888,1,0,0:0:0:0:
192,192,35977,1,0,0:0:0:0:
320,192,36065,1,0,0:0:0:0:
448,192,36065,1,0,0:0:0:0:
64,192,36153,1,0,0:0:0:0:
192,192,36241,1,0,0:0:0:0:
320,192,36329,1,0,0:0:0:0:
64,192,36418,1,0,0:0:0:0:
448,192,36418,1,0,0:0:0:0:
320,192,36506,1,0,0:0:0:0:
192,192,36594,128,0,36771:0:0:0:0:
64,192,36771,1,0,0:0:0:0:
448,192,36771,1,0,0:0:0:0:
320,192,36859,1,0,0:0:0:0:
192,192,36947,128,0,37124:0:0:0:0:
320,192,37124,1,0,0:0:0:0:
448,192,37124,1,0,0:0:0:0:
64,192,37300,1,0,0:0:0:0:
192,192,37388,1,0,0:0:0:0:
320,192,37477,1,0,0:0:0:0:
448,192,37477,1,0,0:0:0:0:
64,192,37565,1,0,0:0:0:0:
192,192,37653,1,0,0:0:0:0:
320,192,37741,1,0,0:0:0:0:
448,192,37829,1,0,0:0:0:0:
64,192,37829,1,0,0:0:0:0:
320,192,37918,1,0,0:0:0:0:
192,192,38006,128,0,38182:0:0:0:0:
448,192,38182,1,0,0:0:0:0:
64,192,38182,1,0,0:0:0:0:
192,192,38271,1,0,0:0:0:0:
320,192,38359,128,0,38535:0:0:0:0:
64,192,38535,128,0,38712:0:0:0:0:
192,192,38535,1,0,0:0:0:0:
448,192,38712,1,0,0:0:0:0:
320,192,38800,1,0,0:0:0:0:
192,192,38888,1,0,0:0:0:0:
64,192,38888,1,0,0:0:0:0:
448,192,38977,1,0,0:0:0:0:
320,192,39065,1,0,0:0:0:0:
192,192,39153,1,0,0:0:0:0:
448,192,39241,1,0,0:0:0:0:
64,192,39241,1,0,0:0:0:0:
192,192,39329,1,0,0:0:0:0:
320,192,39418,128,0,39594:0:0:0:0:
448,192,39594,1,0,0:0:0:0:
64,192,39594,1,0,0:0:0:0:
192,192,39682,1,0,0:0:0:0:
320,192,39771,128,0,39947:0:0:0:0:
192,192,39947,1,0,0:0:0:0:
64,192,39947,1,0,0:0:0:0:
448,192,40124,1,0,0:0:0:0:
320,192,40212,1,0,0:0:0:0:
192,192,40300,1,0,0:0:0:0:
64,192,40300,1,0,0:0:0:0:
448,192,40388,1,0,0:0:0:0:
320,192,40477,1,0,0:0:0:0:
192,192,40565,1,0,0:0:0:0:
64,192,40653,1,0,0:0:0:0:
448,192,40653,1,0,0:0:0:0:
192,192,40741,1,0,0:0:0:0:
320,192,40829,128,0,41006:0:0:0:0:
64,192,41006,1,0,0:0:0:0:
448,192,41006,1,0,0:0:0:0:
320,192,41094,1,0,0:0:0:0:
192,192,41182,128,0,41359:0:0:0:0:
448,192,41359,128,0,41535:0:0:0:0:
320,192,41359,1,0,0:0:0:0:
64,192,41535,1,0,0:0:0:0:
192,192,41624,1,0,0:0:0:0:
320,192,41712,1,0,0:0:0:0:
448,192,41712,1,0,0:0:0:0:
64,192,41800,1,0,0:0:0:0:
320,192,41888,1,0,0:0:0:0:
192,192,41977,1,0,0:0:0:0:
64,192,42065,1,0,0:0:0:0:
448,192,42065,1,0,0:0:0:0:
320,192,42153,1,0,0:0:0:0:
192,192,42241,128,0,42418:0:0:0:0:
64,192,42418,1,0,0:0:0:0:
448,192,42418,1,0,0:0:0:0:
320,192,42506,1,0,0:0:0:0:
192,192,42594,128,0,42771:0:0:0:0:
320,192,42771,1,0,0:0:0:0:
448,192,42771,1,0,0:0:0:0:
64,192,42947,1,0,0:0:0:0:
192,192,43035,1,0,0:0:0:0:
320,192,43124,1,0,0:0:0:0:
448,192,43124,1,0,0:0:0:0:
64,192,43212,1,0,0:0:0:0:
320,192,43300,1,0,0:0:0:0:
192,192,43388,1,0,0:0:0:0:
448,192,43477,1,0,0:0:0:0:
64,192,43477,1,0,0:0:0:0:
320,192,43565,1,0,0:0:0:0:
192,192,43653,128,0,43829:0:0:0:0:
448,192,43829,1,0,0:0:0:0:
64,192,43829,1,0,0:0:0:0:
192,192,43918,1,0,0:0:0:0:
320,192,44006,128,0,44182:0:0:0:0:
64,192,44182,128,0,44359:0:0:0:0:
192,192,44182,1,0,0:0:0:0:
448,192,44359,1,0,0:0:0:0:
320,192,44447,1,0,0:0:0:0:
192,192,44535,1,0,0:0:0:0:
64,192,44535,1,0,0:0:0:0:
448,192,44624,1,0,0:0:0:0:
192,192,44712,1,0,0:0:0:0:
320,192,44800,1,0,0:0:0:0:
448,192,44888,1,0,0:0:0:0:
64,192,44888,1,0,0:0:0:0:
192,192,44977,1,0,0:0:0:0:
320,192,45065,128,0,45241:0:0:0:0:
448,192,45241,1,0,0:0:0:0:
64,192,45241,1,0,0:0:0:0:
192,192,45329,1,0,0:0:0:0:
320,192,45418,128,0,45594:0:0:0:0:
192,192,45594,1,0,0:0:0:0:
64,192,45594,1,0,0:0:0:0:
64,192,45771,1,0,0:0:0:0:
192,192,45859,1,0,0:0:0:0:
448,192,45947,1,0,0:0:0:0:
320,192,46035,1,0,0:0:0:0:
64,192,46124,1,0,0:0:0:0:
192,192,46212,1,0,0:0:0:0:
448,192,46300,1,0,0:0:0:0:
320,192,46388,1,0,0:0:0:0:
448,192,46477,128,0,46653:0:0:0:0:
64,192,46653,1,0,0:0:0:0:
192,192,46741,1,0,0:0:0:0:
64,192,46829,128,0,47006:0:0:0:0:
448,192,47006,1,0,0:0:0:0:
320,192,47006,1,0,0:0:0:0:
192,192,47006,1,0,0:0:0:0:
448,192,47182,1,0,0:0:0:0:
64,192,47359,1,0,0:0:0:0:
192,192,47359,1,0,0:0:0:0:
64,192,47535,1,0,0:0:0:0:
320,192,47624,1,0,0:0:0:0:
192,192,47712,1,0,0:0:0:0:
448,192,47712,1,0,0:0:0:0:
320,192,47800,1,0,0:0:0:0:
320,192,47977,1,0,0:0:0:0:
448,192,48065,1,0,0:0:0:0:
192,192,48065,1,0,0:0:0:0:
64,192,48241,1,0,0:0:0:0:
192,192,48329,1,0,0:0:0:0:
448,192,48418,1,0,0:0:0:0:
320,192,48418,1,0,0:0:0:0:
448,192,48594,1,0,0:0:0:0:
64,192,48771,1,0,0:0:0:0:
192,192,48771,1,0,0:0:0:0:
64,192,48947,1,0,0:0:0:0:
320,192,49035,1,0,0:0:0:0:
448,192,49124,1,0,0:0:0:0:
192,192,49124,1,0,0:0:0:0:
320,192,49212,1,0,0:0:0:0:
320,192,49388,1,0,0:0:0:0:
192,192,49477,1,0,0:0:0:0:
448,192,49477,1,0,0:0:0:0:
320,192,49565,1,0,0:0:0:0:
448,192,49653,1,0,0:0:0:0:
320,192,49741,1,0,0:0:0:0:
64,192,49829,1,0,0:0:0:0:
192,192,49829,1,0,0:0:0:0:
64,192,50006,1,0,0:0:0:0:
448,192,50182,1,0,0:0:0:0:
320,192,50182,1,0,0:0:0:0:
448,192,50359,1,0,0:0:0:0:
192,192,50447,1,0,0:0:0:0:
320,192,50535,1,0,0:0:0:0:
64,192,50535,1,0,0:0:0:0:
192,192,50624,1,0,0:0:0:0:
192,192,50800,1,0,0:0:0:0:
64,192,50888,1,0,0:0:0:0:
320,192,50888,1,0,0:0:0:0:
448,192,51065,1,0,0:0:0:0:
320,192,51153,1,0,0:0:0:0:
64,192,51241,1,0,0:0:0:0:
192,192,51241,1,0,0:0:0:0:
64,192,51418,1,0,0:0:0:0:
448,192,51594,1,0,0:0:0:0:
320,192,51594,1,0,0:0:0:0:
448,192,51771,1,0,0:0:0:0:
192,192,51859,1,0,0:0:0:0:
64,192,51947,1,0,0:0:0:0:
320,192,51947,1,0,0:0:0:0:
192,192,52035,1,0,0:0:0:0:
192,192,52212,1,0,0:0:0:0:
64,192,52300,1,0,0:0:0:0:
320,192,52300,128,0,52477:0:0:0:0:
192,192,52477,1,0,0:0:0:0:
448,192,52653,1,0,0:0:0:0:
320,192,52653,1,0,0:0:0:0:
64,192,52653,1,0,0:0:0:0:
320,192,52829,1,0,0:0:0:0:
192,192,52918,1,0,0:0:0:0:
64,192,53006,1,0,0:0:0:0:
192,192,53094,1,0,0:0:0:0:
320,192,53182,1,0,0:0:0:0:
192,192,53359,1,0,0:0:0:0:
192,192,53535,1,0,0:0:0:0:
320,192,53624,1,0,0:0:0:0:
448,192,53712,1,0,0:0:0:0:
192,192,53800,1,0,0:0:0:0:
320,192,53888,1,0,0:0:0:0:
448,192,54065,1,0,0:0:0:0:
448,192,54241,1,0,0:0:0:0:
320,192,54329,1,0,0:0:0:0:
192,192,54418,1,0,0:0:0:0:
320,192,54506,1,0,0:0:0:0:
448,192,54594,1,0,0:0:0:0:
64,192,54771,1,0,0:0:0:0:
64,192,54947,1,0,0:0:0:0:
192,192,55035,1,0,0:0:0:0:
320,192,55124,1,0,0:0:0:0:
64,192,55212,1,0,0:0:0:0:
192,192,55300,1,0,0:0:0:0:
448,192,55477,1,0,0:0:0:0:
320,192,55565,1,0,0:0:0:0:
192,192,55653,1,0,0:0:0:0:
64,192,55741,1,0,0:0:0:0:
448,192,55829,1,0,0:0:0:0:
320,192,55918,1,0,0:0:0:0:
192,192,56006,1,0,0:0:0:0:
64,192,56094,1,0,0:0:0:0:
448,192,56182,1,0,0:0:0:0:
320,192,56271,1,0,0:0:0:0:
192,192,56359,1,0,0:0:0:0:
448,192,56447,1,0,0:0:0:0:
320,192,56535,1,0,0:0:0:0:
192,192,56624,1,0,0:0:0:0:
448,192,56712,128,0,56888:0:0:0:0:
64,192,56888,128,0,57065:0:0:0:0:
448,192,57065,1,0,0:0:0:0:
320,192,57153,1,0,0:0:0:0:
192,192,57241,128,0,57418:0:0:0:0:
64,192,57418,1,0,0:0:0:0:
192,192,57506,1,0,0:0:0:0:
320,192,57594,128,0,57771:0:0:0:0:
64,192,57771,1,0,0:0:0:0:
192,192,57859,1,0,0:0:0:0:
448,192,57947,128,0,58124:0:0:0:0:
192,192,58124,1,0,0:0:0:0:
320,192,58212,1,0,0:0:0:0:
448,192,58300,1,0,0:0:0:0:
64,192,58300,1,0,0:0:0:0:
192,192,58477,1,0,0:0:0:0:
320,192,58653,1,0,0:0:0:0:
192,192,58829,1,0,0:0:0:0:
448,192,59006,1,0,0:0:0:0:
192,192,59182,1,0,0:0:0:0:
320,192,59359,1,0,0:0:0:0:
192,192,59535,1,0,0:0:0:0:
448,192,59712,1,0,0:0:0:0:
192,192,59888,1,0,0:0:0:0:
320,192,60065,1,0,0:0:0:0:
192,192,60241,1,0,0:0:0:0:
448,192,60418,1,0,0:0:0:0:
192,192,60594,1,0,0:0:0:0:
320,192,60771,1,0,0:0:0:0:
192,192,60859,1,0,0:0:0:0:
320,192,60947,1,0,0:0:0:0:
192,192,61035,1,0,0:0:0:0:
64,192,61124,1,0,0:0:0:0:
320,192,61300,1,0,0:0:0:0:
192,192,61477,1,0,0:0:0:0:
320,192,61653,1,0,0:0:0:0:
64,192,61829,1,0,0:0:0:0:
320,192,62006,1,0,0:0:0:0:
192,192,62182,1,0,0:0:0:0:
320,192,62359,1,0,0:0:0:0:
64,192,62535,1,0,0:0:0:0:
320,192,62712,1,0,0:0:0:0:
192,192,62888,1,0,0:0:0:0:
320,192,63065,1,0,0:0:0:0:
64,192,63241,1,0,0:0:0:0:
320,192,63418,1,0,0:0:0:0:
192,192,63594,1,0,0:0:0:0:
320,192,63682,1,0,0:0:0:0:
192,192,63771,1,0,0:0:0:0:
320,192,63859,1,0,0:0:0:0:
448,192,63947,1,0,0:0:0:0:
64,192,64124,1,0,0:0:0:0:
192,192,64300,1,0,0:0:0:0:
64,192,64477,1,0,0:0:0:0:
448,192,64653,1,0,0:0:0:0:
64,192,64829,1,0,0:0:0:0:
192,192,65006,1,0,0:0:0:0:
64,192,65182,1,0,0:0:0:0:
448,192,65359,1,0,0:0:0:0:
64,192,65535,1,0,0:0:0:0:
192,192,65712,1,0,0:0:0:0:
64,192,65888,1,0,0:0:0:0:
448,192,66065,1,0,0:0:0:0:
64,192,66241,1,0,0:0:0:0:
192,192,66418,1,0,0:0:0:0:
320,192,66506,1,0,0:0:0:0:
448,192,66594,1,0,0:0:0:0:
320,192,66682,1,0,0:0:0:0:
64,192,66771,1,0,0:0:0:0:
448,192,66947,1,0,0:0:0:0:
320,192,67124,1,0,0:0:0:0:
448,192,67300,1,0,0:0:0:0:
64,192,67477,1,0,0:0:0:0:
448,192,67653,1,0,0:0:0:0:
320,192,67829,1,0,0:0:0:0:
448,192,68006,1,0,0:0:0:0:
64,192,68182,128,0,68359:0:0:0:0:
448,192,68359,1,0,0:0:0:0:
320,192,68447,1,0,0:0:0:0:
64,192,68535,1,0,0:0:0:0:
192,192,68624,1,0,0:0:0:0:
320,192,68712,1,0,0:0:0:0:
192,192,68800,1,0,0:0:0:0:
448,192,68888,1,0,0:0:0:0:
320,192,68977,1,0,0:0:0:0:
192,192,69065,128,0,69241:0:0:0:0:
64,192,69241,1,0,0:0:0:0:
192,192,69329,1,0,0:0:0:0:
64,192,69418,1,0,0:0:0:0:
192,192,69506,1,0,0:0:0:0:
320,192,69594,1,0,0:0:0:0:
448,192,69594,1,0,0:0:0:0:
64,192,69594,1,0,0:0:0:0:
448,192,69771,1,0,0:0:0:0:
64,192,69947,1,0,0:0:0:0:
192,192,69947,1,0,0:0:0:0:
64,192,70124,1,0,0:0:0:0:
448,192,70300,1,0,0:0:0:0:
320,192,70300,1,0,0:0:0:0:
448,192,70477,1,0,0:0:0:0:
192,192,70653,1,0,0:0:0:0:
64,192,70653,1,0,0:0:0:0:
64,192,70829,1,0,0:0:0:0:
448,192,71006,1,0,0:0:0:0:
192,192,71006,1,0,0:0:0:0:
448,192,71182,1,0,0:0:0:0:
320,192,71359,1,0,0:0:0:0:
64,192,71359,1,0,0:0:0:0:
64,192,71535,1,0,0:0:0:0:
448,192,71712,1,0,0:0:0:0:
192,192,71712,1,0,0:0:0:0:
448,192,71888,1,0,0:0:0:0:
64,192,72065,1,0,0:0:0:0:
320,192,72065,1,0,0:0:0:0:
64,192,72241,1,0,0:0:0:0:
320,192,72418,1,0,0:0:0:0:
448,192,72418,1,0,0:0:0:0:
320,192,72594,1,0,0:0:0:0:
64,192,72771,1,0,0:0:0:0:
192,192,72771,1,0,0:0:0:0:
192,192,72947,1,0,0:0:0:0:
320,192,73124,1,0,0:0:0:0:
448,192,73124,1,0,0:0:0:0:
320,192,73300,1,0,0:0:0:0:
192,192,73477,1,0,0:0:0:0:
64,192,73477,1,0,0:0:0:0:
192,192,73653,1,0,0:0:0:0:
448,192,73829,1,0,0:0:0:0:
64,192,73829,1,0,0:0:0:0:
192,192,74006,1,0,0:0:0:0:
320,192,74094,1,0,0:0:0:0:
448,192,74182,1,0,0:0:0:0:
64,192,74182,1,0,0:0:0:0:
320,192,74359,1,0,0:0:0:0:
192,192,74447,1,0,0:0:0:0:
448,192,74535,1,0,0:0:0:0:
64,192,74535,1,0,0:0:0:0:
192,192,74712,1,0,0:0:0:0:
320,192,74800,1,0,0:0:0:0:
64,192,74888,1,0,0:0:0:0:
448,192,74888,1,0,0:0:0:0:
192,192,74977,1,0,0:0:0:0:
64,192,75065,1,0,0:0:0:0:
192,192,75153,1,0,0:0:0:0:
448,192,75241,1,0,0:0:0:0:
320,192,75241,1,0,0:0:0:0:
64,192,75418,1,0,0:0:0:0:
448,192,75594,1,0,0:0:0:0:
192,192,75594,1,0,0:0:0:0:
320,192,75771,1,0,0:0:0:0:
64,192,75947,1,0,0:0:0:0:
192,192,75947,1,0,0:0:0:0:
448,192,76124,1,0,0:0:0:0:
64,192,76300,1,0,0:0:0:0:
320,192,76300,1,0,0:0:0:0:
192,192,76477,1,0,0:0:0:0:
448,192,76653,1,0,0:0:0:0:
320,192,76653,1,0,0:0:0:0:
192,192,76829,1,0,0:0:0:0:
64,192,77006,1,0,0:0:0:0:
448,192,77006,1,0,0:0:0:0:
320,192,77182,1,0,0:0:0:0:
64,192,77359,1,0,0:0:0:0:
192,192,77359,1,0,0:0:0:0:
320,192,77535,1,0,0:0:0:0:
448,192,77712,1,0,0:0:0:0:
64,192,77712,1,0,0:0:0:0:
192,192,77888,1,0,0:0:0:0:
64,192,78065,1,0,0:0:0:0:
320,192,78065,1,0,0:0:0:0:
448,192,78241,1,0,0:0:0:0:
320,192,78418,1,0,0:0:0:0:
192,192,78418,1,0,0:0:0:0:
64,192,78594,1,0,0:0:0:0:
448,192,78771,1,0,0:0:0:0:
192,192,78771,1,0,0:0:0:0:
64,192,78947,1,0,0:0:0:0:
320,192,79124,1,0,0:0:0:0:
192,192,79124,1,0,0:0:0:0:
448,192,79300,1,0,0:0:0:0:
320,192,79477,1,0,0:0:0:0:
192,192,79477,1,0,0:0:0:0:
64,192,79477,1,0,0:0:0:0:
448,192,80888,1,0,0:0:0:0:
320,192,80888,1,0,0:0:0:0:
192,192,80888,1,0,0:0:0:0:
448,192,81065,1,0,0:0:0:0:
320,192,81153,1,0,0:0:0:0:
192,192,81241,1,0,0:0:0:0:
320,192,81329,1,0,0:0:0:0:
448,192,81418,1,0,0:0:0:0:
64,192,81594,1,0,0:0:0:0:
192,192,81594,1,0,0:0:0:0:
64,192,81771,1,0,0:0:0:0:
192,192,81859,1,0,0:0:0:0:
448,192,81947,1,0,0:0:0:0:
320,192,82035,1,0,0:0:0:0:
192,192,82124,1,0,0:0:0:0:
64,192,82300,1,0,0:0:0:0:
320,192,82300,1,0,0:0:0:0:
64,192,82477,1,0,0:0:0:0:
192,192,82565,1,0,0:0:0:0:
320,192,82653,1,0,0:0:0:0:
192,192,82741,1,0,0:0:0:0:
64,192,82829,1,0,0:0:0:0:
448,192,83006,1,0,0:0:0:0:
192,192,83006,1,0,0:0:0:0:
448,192,83182,1,0,0:0:0:0:
320,192,83271,1,0,0:0:0:0:
64,192,83359,1,0,0:0:0:0:
192,192,83447,1,0,0:0:0:0:
320,192,83535,1,0,0:0:0:0:
64,192,83712,1,0,0:0:0:0:
192,192,83712,1,0,0:0:0:0:
448,192,83888,1,0,0:0:0:0:
320,192,83977,1,0,0:0:0:0:
64,192,84065,1,0,0:0:0:0:
192,192,84153,1,0,0:0:0:0:
320,192,84241,1,0,0:0:0:0:
64,192,84418,1,0,0:0:0:0:
448,192,84418,1,0,0:0:0:0:
192,192,84594,1,0,0:0:0:0:
320,192,84594,1,0,0:0:0:0:
64,192,84771,1,0,0:0:0:0:
448,192,84771,1,0,0:0:0:0:
320,192,84859,1,0,0:0:0:0:
192,192,84947,1,0,0:0:0:0:
448,192,85124,1,0,0:0:0:0:
320,192,85124,1,0,0:0:0:0:
64,192,85300,1,0,0:0:0:0:
192,192,85388,1,0,0:0:0:0:
448,192,85477,1,0,0:0:0:0:
320,192,85565,1,0,0:0:0:0:
192,192,85653,1,0,0:0:0:0:
448,192,85829,1,0,0:0:0:0:
64,192,85829,1,0,0:0:0:0:
320,192,86006,1,0,0:0:0:0:
192,192,86006,1,0,0:0:0:0:
448,192,86182,1,0,0:0:0:0:
64,192,86182,1,0,0:0:0:0:
192,192,86271,1,0,0:0:0:0:
320,192,86359,1,0,0:0:0:0:
448,192,86535,1,0,0:0:0:0:
64,192,86535,1,0,0:0:0:0:
320,192,86624,1,0,0:0:0:0:
192,192,86712,1,0,0:0:0:0:
448,192,86888,1,0,0:0:0:0:
64,192,86888,1,0,0:0:0:0:
320,192,86977,1,0,0:0:0:0:
192,192,87065,1,0,0:0:0:0:
64,192,87241,1,0,0:0:0:0:
448,192,87241,1,0,0:0:0:0:
192,192,87329,1,0,0:0:0:0:
320,192,87418,1,0,0:0:0:0:
448,192,87594,1,0,0:0:0:0:
64,192,87594,1,0,0:0:0:0:
192,192,87682,1,0,0:0:0:0:
320,192,87771,1,0,0:0:0:0:
64,192,87947,1,0,0:0:0:0:
192,192,87947,1,0,0:0:0:0:
320,192,88035,1,0,0:0:0:0:
448,192,88124,1,0,0:0:0:0:
64,192,88300,1,0,0:0:0:0:
192,192,88300,1,0,0:0:0:0:
320,192,88388,1,0,0:0:0:0:
448,192,88477,1,0,0:0:0:0:
448,192,88653,1,0,0:0:0:0:
320,192,88653,1,0,0:0:0:0:
192,192,88741,1,0,0:0:0:0:
64,192,88829,1,0,0:0:0:0:
448,192,89006,1,0,0:0:0:0:
320,192,89006,1,0,0:0:0:0:
192,192,89094,1,0,0:0:0:0:
64,192,89182,1,0,0:0:0:0:
64,192,89359,1,0,0:0:0:0:
192,192,89359,1,0,0:0:0:0:
320,192,89447,1,0,0:0:0:0:
64,192,89535,1,0,0:0:0:0:
192,192,89535,1,0,0:0:0:0:
320,192,89624,1,0,0:0:0:0:
64,192,89712,1,0,0:0:0:0:
192,192,89712,1,0,0:0:0:0:
448,192,89800,1,0,0:0:0:0:
192,192,89888,1,0,0:0:0:0:
64,192,89888,1,0,0:0:0:0:
448,192,89977,1,0,0:0:0:0:
320,192,90065,1,0,0:0:0:0:
192,192,90065,1,0,0:0:0:0:
64,192,90153,1,0,0:0:0:0:
192,192,90241,1,0,0:0:0:0:
320,192,90329,1,0,0:0:0:0:
448,192,90418,1,0,0:0:0:0:
64,192,90418,1,0,0:0:0:0:
192,192,90506,1,0,0:0:0:0:
320,192,90594,1,0,0:0:0:0:
448,192,90682,1,0,0:0:0:0:
64,192,90771,1,0,0:0:0:0:
192,192,90771,1,0,0:0:0:0:
320,192,90771,1,0,0:0:0:0:
192,192,92182,1,0,0:0:0:0:
448,192,92182,1,0,0:0:0:0:
64,192,92182,128,0,92359:0:0:0:0:
320,192,92359,1,0,0:0:0:0:
64,192,92447,1,0,0:0:0:0:
64,192,92624,1,0,0:0:0:0:
192,192,92712,1,0,0:0:0:0:
320,192,92800,1,0,0:0:0:0:
448,192,92888,1,0,0:0:0:0:
320,192,92977,1,0,0:0:0:0:
64,192,93065,1,0,0:0:0:0:
192,192,93153,1,0,0:0:0:0:
448,192,93241,128,0,93594:0:0:0:0:
64,192,93594,1,0,0:0:0:0:
192,192,93594,128,0,93771:0:0:0:0:
448,192,93771,1,0,0:0:0:0:
320,192,93859,1,0,0:0:0:0:
320,192,94035,1,0,0:0:0:0:
64,192,94124,1,0,0:0:0:0:
192,192,94212,1,0,0:0:0:0:
448,192,94300,1,0,0:0:0:0:
320,192,94388,1,0,0:0:0:0:
64,192,94477,1,0,0:0:0:0:
192,192,94565,1,0,0:0:0:0:
448,192,94653,1,0,0:0:0:0:
320,192,94741,1,0,0:0:0:0:
192,192,94829,1,0,0:0:0:0:
64,192,94918,1,0,0:0:0:0:
448,192,95006,128,0,95182:0:0:0:0:
320,192,95006,1,0,0:0:0:0:
192,192,95182,1,0,0:0:0:0:
448,192,95271,1,0,0:0:0:0:
448,192,95447,1,0,0:0:0:0:
320,192,95535,1,0,0:0:0:0:
192,192,95624,1,0,0:0:0:0:
64,192,95712,1,0,0:0:0:0:
192,192,95800,1,0,0:0:0:0:
448,192,95888,1,0,0:0:0:0:
320,192,95977,1,0,0:0:0:0:
64,192,96065,128,0,96418:0:0:0:0:
448,192,96418,1,0,0:0:0:0:
320,192,96418,1,0,0:0:0:0:
192,192,96506,1,0,0:0:0:0:
64,192,96594,1,0,0:0:0:0:
448,192,96682,1,0,0:0:0:0:
448,192,96859,1,0,0:0:0:0:
320,192,96947,1,0,0:0:0:0:
192,192,97035,1,0,0:0:0:0:
64,192,97124,1,0,0:0:0:0:
192,192,97212,1,0,0:0:0:0:
448,192,97300,1,0,0:0:0:0:
320,192,97388,1,0,0:0:0:0:
64,192,97477,1,0,0:0:0:0:
192,192,97565,1,0,0:0:0:0:
320,192,97653,1,0,0:0:0:0:
192,192,97741,1,0,0:0:0:0:
448,192,97829,1,0,0:0:0:0:
64,192,97829,128,0,98006:0:0:0:0:
320,192,98006,1,0,0:0:0:0:
64,192,98094,1,0,0:0:0:0:
64,192,98271,1,0,0:0:0:0:
192,192,98359,1,0,0:0:0:0:
320,192,98447,1,0,0:0:0:0:
448,192,98535,1,0,0:0:0:0:
320,192,98624,1,0,0:0:0:0:
64,192,98712,1,0,0:0:0:0:
192,192,98800,1,0,0:0:0:0:
448,192,98888,128,0,99241:0:0:0:0:
320,192,99241,1,0,0:0:0:0:
64,192,99241,128,0,99418:0:0:0:0:
192,192,99418,1,0,0:0:0:0:
320,192,99506,1,0,0:0:0:0:
320,192,99682,1,0,0:0:0:0:
64,192,99771,1,0,0:0:0:0:
192,192,99859,1,0,0:0:0:0:
448,192,99947,1,0,0:0:0:0:
320,192,100035,1,0,0:0:0:0:
64,192,100124,1,0,0:0:0:0:
192,192,100212,1,0,0:0:0:0:
448,192,100300,1,0,0:0:0:0:
320,192,100388,1,0,0:0:0:0:
192,192,100477,1,0,0:0:0:0:
64,192,100565,1,0,0:0:0:0:
192,192,100653,1,0,0:0:0:0:
448,192,100653,128,0,100829:0:0:0:0:
320,192,100829,1,0,0:0:0:0:
448,192,100918,1,0,0:0:0:0:
448,192,101094,1,0,0:0:0:0:
320,192,101182,1,0,0:0:0:0:
192,192,101271,1,0,0:0:0:0:
64,192,101359,1,0,0:0:0:0:
192,192,101447,1,0,0:0:0:0:
448,192,101535,1,0,0:0:0:0:
320,192,101624,1,0,0:0:0:0:
64,192,101712,128,0,102065:0:0:0:0:
320,192,102065,1,0,0:0:0:0:
448,192,102065,128,0,102153:0:0:0:0:
320,192,102241,128,0,102329:0:0:0:0:
192,192,102241,1,0,0:0:0:0:
192,192,102418,1,0,0:0:0:0:
64,192,102418,128,0,102506:0:0:0:0:
320,192,102594,1,0,0:0:0:0:
192,192,102594,128,0,102682:0:0:0:0:
448,192,102771,128,0,102947:0:0:0:0:
64,192,102771,1,0,0:0:0:0:
320,192,102947,1,0,0:0:0:0:
64,192,103124,128,0,103300:0:0:0:0:
448,192,103124,1,0,0:0:0:0:
192,192,103300,1,0,0:0:0:0:
64,192,103477,1,0,0:0:0:0:
320,192,103477,1,0,0:0:0:0:
448,192,103477,1,0,0:0:0:0:
448,192,103653,1,0,0:0:0:0:
320,192,103741,1,0,0:0:0:0:
320,192,103918,1,0,0:0:0:0:
192,192,104006,1,0,0:0:0:0:
64,192,104182,1,0,0:0:0:0:
192,192,104271,1,0,0:0:0:0:
192,192,104447,1,0,0:0:0:0:
320,192,104535,1,0,0:0:0:0:
448,192,104712,1,0,0:0:0:0:
320,192,104800,1,0,0:0:0:0:
64,192,104977,1,0,0:0:0:0:
192,192,105065,1,0,0:0:0:0:
448,192,105241,1,0,0:0:0:0:
320,192,105329,1,0,0:0:0:0:
64,192,105506,1,0,0:0:0:0:
448,192,105594,1,0,0:0:0:0:
320,192,105682,1,0,0:0:0:0:
64,192,105771,1,0,0:0:0:0:
192,192,105859,1,0,0:0:0:0:
448,192,105947,128,0,106035:0:0:0:0:
320,192,105947,1,0,0:0:0:0:
64,192,106124,128,0,106212:0:0:0:0:
192,192,106124,1,0,0:0:0:0:
320,192,106300,1,0,0:0:0:0:
448,192,106300,1,0,0:0:0:0:
448,192,106477,1,0,0:0:0:0:
320,192,106565,1,0,0:0:0:0:
320,192,106741,1,0,0:0:0:0:
192,192,106829,1,0,0:0:0:0:
64,192,107006,1,0,0:0:0:0:
192,192,107094,1,0,0:0:0:0:
192,192,107271,1,0,0:0:0:0:
320,192,107359,1,0,0:0:0:0:
448,192,107535,1,0,0:0:0:0:
320,192,107624,1,0,0:0:0:0:
64,192,107712,1,0,0:0:0:0:
192,192,107800,1,0,0:0:0:0:
320,192,107888,1,0,0:0:0:0:
448,192,107977,1,0,0:0:0:0:
64,192,108065,1,0,0:0:0:0:
192,192,108153,1,0,0:0:0:0:
320,192,108241,1,0,0:0:0:0:
448,192,108329,1,0,0:0:0:0:
64,192,108418,128,0,108594:0:0:0:0:
320,192,108418,1,0,0:0:0:0:
192,192,108594,1,0,0:0:0:0:
64,192,108771,1,0,0:0:0:0:
448,192,108771,128,0,108947:0:0:0:0:
320,192,108947,1,0,0:0:0:0:
448,192,109124,1,0,0:0:0:0:
64,192,109124,1,0,0:0:0:0:
192,192,109124,1,0,0:0:0:0:
448,192,109300,1,0,0:0:0:0:
320,192,109388,1,0,0:0:0:0:
320,192,109565,1,0,0:0:0:0:
448,192,109653,1,0,0:0:0:0:
320,192,109829,1,0,0:0:0:0:
64,192,109829,1,0,0:0:0:0:
64,192,110006,1,0,0:0:0:0:
192,192,110094,1,0,0:0:0:0:
448,192,110182,1,0,0:0:0:0:
320,192,110271,1,0,0:0:0:0:
192,192,110359,1,0,0:0:0:0:
448,192,110535,1,0,0:0:0:0:
192,192,110535,1,0,0:0:0:0:
320,192,110712,1,0,0:0:0:0:
192,192,110800,1,0,0:0:0:0:
192,192,110977,1,0,0:0:0:0:
320,192,111065,1,0,0:0:0:0:
64,192,111241,1,0,0:0:0:0:
448,192,111241,1,0,0:0:0:0:
320,192,111329,1,0,0:0:0:0:
64,192,111418,1,0,0:0:0:0:
192,192,111506,1,0,0:0:0:0:
448,192,111594,128,0,111682:0:0:0:0:
320,192,111594,1,0,0:0:0:0:
64,192,111771,128,0,111859:0:0:0:0:
192,192,111771,1,0,0:0:0:0:
320,192,111947,1,0,0:0:0:0:
448,192,111947,1,0,0:0:0:0:
192,192,112035,1,0,0:0:0:0:
64,192,112124,1,0,0:0:0:0:
192,192,112212,1,0,0:0:0:0:
448,192,112300,1,0,0:0:0:0:
320,192,112388,1,0,0:0:0:0:
64,192,112477,1,0,0:0:0:0:
192,192,112565,1,0,0:0:0:0:
448,192,112653,1,0,0:0:0:0:
320,192,112741,1,0,0:0:0:0:
192,192,112829,1,0,0:0:0:0:
64,192,112918,1,0,0:0:0:0:
448,192,113006,1,0,0:0:0:0:
320,192,113094,1,0,0:0:0:0:
192,192,113182,1,0,0:0:0:0:
64,192,113271,1,0,0:0:0:0:
448,192,113359,128,0,113447:0:0:0:0:
192,192,113359,1,0,0:0:0:0:
320,192,113359,1,0,0:0:0:0:
64,192,113535,128,0,113624:0:0:0:0:
192,192,113712,128,0,113800:0:0:0:0:
320,192,113888,128,0,113977:0:0:0:0:
448,192,114065,128,0,114418:0:0:0:0:
320,192,114418,128,0,114771:0:0:0:0:
64,192,114771,1,0,0:0:0:0:
192,192,114771,1,0,0:0:0:0:
448,192,114771,1,0,0:0:0:0:
