osu file format v14

[General]
AudioFilename: audio.mp3
AudioLeadIn: 0
PreviewTime: 92170
Countdown: 0
SampleSet: Soft
StackLeniency: 0.7
Mode: 3
LetterboxInBreaks: 0
SpecialStyle: 0
WidescreenStoryboard: 0

[Editor]
Bookmarks: 35715,47009,58303,92170
DistanceSpacing: 1.2
BeatDivisor: 4
GridSize: 8
TimelineZoom: 1.7

[Metadata]
Title:Crazy Jackpot
TitleUnicode:Crazy Jackpot
Artist:Hommarju
ArtistUnicode:Hommarju
Creator:CrewK
Version:JACKPOT
Source:REFLEC BEAT VOLZZA
Tags:mayumi morinaga 森永真由美 MM iidx beatmania 28 BISTROVER Konami コミックマーケット92 92 Comic market comiket92 HYENA THE NOIZE NO1Z-0001 All that is. Is that all? EDP EXIT TUNES DANCE PRODUCTION エグジットチューンズ QWCE-90018 Electronic English Dance UK Happy Hardcore
BeatmapID:2900330
BeatmapSetID:1406561

[Difficulty]
HPDrainRate:8
CircleSize:4
OverallDifficulty:8
ApproachRate:5
SliderMultiplier:1.4
SliderTickRate:1

[Events]
//Background and Video events
0,0,"jackpot.jpg",0,0
//Break Periods
//Storyboard Layer 0 (Background)
//Storyboard Layer 1 (Fail)
//Storyboard Layer 2 (Pass)
//Storyboard Layer 3 (Foreground)
//Storyboard Layer 4 (Overlay)
//Storyboard Sound Samples

[TimingPoints]
1817.82834130226,352.941176470588,4,2,1,59,1,0
92170,-100,4,2,1,59,0,1
114759,-100,4,2,1,59,0,0

[HitObjects]
320,192,1817,5,2,0:0:0:0:
448,192,1817,128,0,1994:0:0:0:70:normal-hitnormal2.wav
64,192,1817,128,0,1906:0:0:0:0:
192,192,1817,128,4,1906:0:0:0:0:
192,192,1994,1,0,0:0:0:0:
64,192,2082,128,0,2259:0:0:0:70:normal-hitnormal2.wav
192,192,2170,1,2,0:0:0:0:
320,192,2170,1,0,0:0:0:0:
448,192,2347,128,0,2523:0:0:0:70:normal-hitnormal2.wav
320,192,2347,1,0,0:0:0:0:
192,192,2523,1,0,0:0:0:0:
320,192,2523,1,2,0:0:0:0:
64,192,2611,128,0,2788:0:0:0:70:normal-hitnormal2.wav
192,192,2700,1,0,0:0:0:0:
320,192,2876,1,2,0:0:0:0:
448,192,2876,128,0,2964:0:0:0:70:normal-hitnormal2.wav
192,192,2876,1,0,0:0:0:0:
448,192,3053,128,0,3141:0:0:0:70:normal-hitnormal2.wav
64,192,3053,1,0,0:0:0:0:
448,192,3229,128,0,3406:0:0:0:70:normal-hitnormal2.wav
192,192,3229,1,0,0:0:0:0:
320,192,3229,1,2,0:0:0:0:
192,192,3406,1,0,0:0:0:0:
64,192,3494,128,0,3670:0:0:0:70:normal-hitnormal2.wav
192,192,3582,1,2,0:0:0:0:
320,192,3582,1,0,0:0:0:0:
448,192,3759,128,0,3935:0:0:0:70:normal-hitnormal2.wav
320,192,3759,1,0,0:0:0:0:
320,192,3935,1,2,0:0:0:0:
192,192,3935,1,0,0:0:0:0:
64,192,4023,128,0,4200:0:0:0:70:normal-hitnormal2.wav
192,192,4111,1,0,0:0:0:0:
192,192,4288,1,2,0:0:0:0:
320,192,4288,1,0,0:0:0:0:
64,192,4464,1,0,0:0:0:0:
320,192,4641,1,2,0:0:0:0:
192,192,4641,1,0,0:0:0:0:
448,192,4641,128,0,4817:0:0:0:70:normal-hitnormal2.wav
192,192,4817,1,0,0:0:0:0:
64,192,4906,128,0,5082:0:0:0:70:normal-hitnormal2.wav
320,192,4994,1,0,0:0:0:0:
192,192,4994,1,2,0:0:0:0:
448,192,5170,128,0,5347:0:0:0:70:normal-hitnormal2.wav
320,192,5170,1,0,0:0:0:0:
320,192,5347,1,2,0:0:0:0:
192,192,5347,1,0,0:0:0:0:
64,192,5435,128,0,5611:0:0:0:70:normal-hitnormal2.wav
192,192,5523,1,0,0:0:0:0:
320,192,5700,1,0,0:0:0:0:
192,192,5700,1,2,0:0:0:0:
448,192,5700,128,0,5788:0:0:0:70:normal-hitnormal2.wav
448,192,5876,128,0,5964:0:0:0:70:normal-hitnormal2.wav
64,192,5876,1,0,0:0:0:0:
448,192,6053,128,0,6229:0:0:0:70:normal-hitnormal2.wav
320,192,6053,1,2,0:0:0:0:
192,192,6053,1,0,0:0:0:0:
192,192,6229,1,0,0:0:0:0:
64,192,6317,128,0,6494:0:0:0:70:normal-hitnormal2.wav
320,192,6406,1,0,0:0:0:0:
192,192,6406,1,2,0:0:0:0:
448,192,6582,128,0,6759:0:0:0:70:normal-hitnormal2.wav
320,192,6582,1,0,0:0:0:0:
192,192,6759,1,0,0:0:0:0:
320,192,6759,1,2,0:0:0:0:
64,192,6847,128,0,7023:0:0:0:70:normal-hitnormal2.wav
192,192,6935,1,0,0:0:0:0:
320,192,7111,1,0,0:0:0:0:
192,192,7111,1,2,0:0:0:0:
64,192,7288,128,0,7376:0:0:0:0:
448,192,7288,128,0,7376:0:0:0:0:
448,192,7464,1,0,0:0:0:0:
192,192,7464,128,8,7553:0:0:0:0:
64,192,7464,128,0,7553:0:0:0:0:
448,192,7641,1,0,0:0:0:0:
320,192,7641,1,8,0:0:0:0:
192,192,7729,1,8,0:0:0:0:
64,192,7817,1,8,0:0:0:0:
448,192,7817,1,0,0:0:0:0:
192,192,7906,1,8,0:0:0:0:
320,192,7906,1,0,0:0:0:0:
64,192,7994,1,0,0:0:0:0:
448,192,7994,1,8,0:0:0:0:
448,192,8170,1,0,0:0:0:0:
192,192,8170,1,8,0:0:0:0:
64,192,8347,1,0,0:0:0:0:
448,192,8347,1,8,0:0:0:0:
320,192,8435,1,8,0:0:0:0:
192,192,8523,1,8,0:0:0:0:
64,192,8523,1,0,0:0:0:0:
448,192,8611,1,0,0:0:0:0:
320,192,8611,1,8,0:0:0:0:
192,192,8700,1,8,0:0:0:0:
64,192,8700,1,0,0:0:0:0:
448,192,8876,1,0,0:0:0:0:
320,192,8876,1,8,0:0:0:0:
192,192,9053,1,8,0:0:0:0:
64,192,9053,1,0,0:0:0:0:
448,192,9141,1,8,0:0:0:0:
192,192,9229,1,8,0:0:0:0:
320,192,9229,1,0,0:0:0:0:
64,192,9317,1,0,0:0:0:0:
448,192,9317,1,8,0:0:0:0:
320,192,9406,1,8,0:0:0:0:
192,192,9406,1,0,0:0:0:0:
192,192,9582,1,8,0:0:0:0:
448,192,9582,1,0,0:0:0:0:
64,192,9759,1,0,0:0:0:0:
320,192,9759,1,8,0:0:0:0:
448,192,9847,1,8,0:0:0:0:
64,192,9935,1,0,0:0:0:0:
192,192,9935,1,8,0:0:0:0:
320,192,10023,1,8,0:0:0:0:
448,192,10023,1,0,0:0:0:0:
64,192,10111,1,0,0:0:0:0:
192,192,10111,1,8,0:0:0:0:
64,192,10288,1,8,0:0:0:0:
448,192,10288,128,0,10553:0:0:0:0:
192,192,10376,1,8,0:0:0:0:
320,192,10464,128,8,10553:0:0:0:0:
64,192,10464,1,0,0:0:0:0:
192,192,10553,1,8,0:0:0:0:
64,192,10641,128,0,10906:0:0:0:0:
448,192,10641,1,8,0:0:0:0:
320,192,10729,1,8,0:0:0:0:
192,192,10817,128,8,10906:0:0:0:0:
448,192,10817,1,0,0:0:0:0:
320,192,10906,128,8,11170:0:0:0:0:
192,192,10994,128,0,11082:0:0:0:0:
448,192,10994,128,8,11170:0:0:0:0:
64,192,11082,128,8,11259:0:0:0:0:
192,192,11170,128,8,11347:0:0:0:0:
320,192,11259,128,8,11347:0:0:0:0:
448,192,11347,128,8,11523:0:0:0:0:
64,192,11347,1,0,0:0:0:0:
320,192,11435,128,8,11567:0:0:0:0:
192,192,11523,128,8,11611:0:0:0:0:
64,192,11523,128,0,11611:0:0:0:0:
448,192,11611,1,8,0:0:0:0:
64,192,11700,128,0,11876:0:0:0:0:
192,192,11788,128,0,11920:0:0:0:0:
320,192,11876,128,0,11964:0:0:0:0:
448,192,11876,128,0,11964:0:0:0:0:
448,192,12053,128,0,12229:0:0:0:0:
320,192,12141,128,0,12273:0:0:0:0:
192,192,12229,128,0,12317:0:0:0:0:
64,192,12229,128,0,12317:0:0:0:0:
64,192,12406,128,0,12670:0:0:0:0:
448,192,12406,128,0,12670:0:0:0:0:
192,192,12759,128,0,13023:0:0:0:0:
320,192,12759,128,0,13023:0:0:0:0:
448,192,13111,128,0,13817:0:0:0:0:
64,192,13111,128,2,13288:0:0:0:0:
192,192,13111,128,4,13200:0:0:0:0:
320,192,13111,128,0,13200:0:0:0:0:
320,192,13288,128,0,13376:0:0:0:0:
192,192,13376,128,0,13464:0:0:0:0:
320,192,13464,128,0,13553:0:0:0:0:
192,192,13553,128,0,13641:0:0:0:0:
320,192,13641,128,0,13729:0:0:0:0:
192,192,13729,128,0,13817:0:0:0:0:
64,192,13817,128,0,13906:0:0:0:0:
320,192,13817,128,0,13906:0:0:0:0:
192,192,13906,128,0,13994:0:0:0:0:
64,192,13994,128,0,14523:0:0:0:0:
320,192,13994,128,0,14082:0:0:0:0:
448,192,14170,128,0,14259:0:0:0:0:
192,192,14170,128,0,14259:0:0:0:0:
320,192,14259,128,0,14347:0:0:0:0:
448,192,14347,128,0,15141:0:0:0:0:
192,192,14347,128,0,14523:0:0:0:0:
192,192,14700,128,0,14788:0:0:0:0:
320,192,14788,128,0,14876:0:0:0:0:
192,192,14876,128,0,14964:0:0:0:0:
320,192,14964,128,0,15053:0:0:0:0:
192,192,15053,128,0,15141:0:0:0:0:
320,192,15141,128,0,15229:0:0:0:0:
64,192,15229,128,0,15406:0:0:0:0:
448,192,15229,128,0,15317:0:0:0:0:
192,192,15317,128,0,15406:0:0:0:0:
320,192,15406,128,0,15582:0:0:0:0:
448,192,15406,128,0,15582:0:0:0:0:
192,192,15582,1,0,0:0:0:0:
192,192,15670,128,0,15759:0:0:0:0:
448,192,15759,128,0,15847:0:0:0:0:
64,192,15759,128,0,15847:0:0:0:0:
64,192,15935,128,0,16641:0:0:0:0:
448,192,15935,128,0,16111:0:0:0:0:
192,192,16111,128,0,16200:0:0:0:0:
320,192,16200,128,0,16288:0:0:0:0:
192,192,16288,128,0,16376:0:0:0:0:
320,192,16376,128,0,16464:0:0:0:0:
192,192,16464,128,0,16553:0:0:0:0:
320,192,16553,128,0,16641:0:0:0:0:
192,192,16641,128,0,16729:0:0:0:0:
448,192,16641,128,0,16729:0:0:0:0:
320,192,16729,128,0,16817:0:0:0:0:
448,192,16817,128,0,17347:0:0:0:0:
192,192,16817,128,0,16906:0:0:0:0:
64,192,16994,128,0,17082:0:0:0:0:
320,192,16994,128,0,17082:0:0:0:0:
192,192,17082,128,0,17170:0:0:0:0:
64,192,17170,128,0,17964:0:0:0:0:
320,192,17170,128,0,17347:0:0:0:0:
320,192,17523,128,0,17611:0:0:0:0:
192,192,17611,128,0,17700:0:0:0:0:
320,192,17700,128,0,17788:0:0:0:0:
192,192,17788,128,0,17876:0:0:0:0:
320,192,17876,128,0,17964:0:0:0:0:
192,192,17964,128,0,18053:0:0:0:0:
448,192,18053,128,0,18141:0:0:0:0:
320,192,18053,128,0,18229:0:0:0:0:
64,192,18141,128,0,18229:0:0:0:0:
192,192,18229,128,0,18406:0:0:0:0:
448,192,18229,128,0,18406:0:0:0:0:
320,192,18406,1,0,0:0:0:0:
320,192,18494,128,0,18582:0:0:0:0:
64,192,18582,128,0,18759:0:0:0:0:
192,192,18582,128,0,18670:0:0:0:0:
320,192,18759,128,0,19464:0:0:0:0:
192,192,18759,128,0,18847:0:0:0:0:
448,192,18759,128,0,18935:0:0:0:0:
192,192,18935,128,0,19023:0:0:0:0:
64,192,19023,128,0,19111:0:0:0:0:
192,192,19111,128,0,19200:0:0:0:0:
64,192,19200,128,0,19288:0:0:0:0:
192,192,19288,128,0,19376:0:0:0:0:
64,192,19376,128,0,19464:0:0:0:0:
192,192,19464,128,0,19553:0:0:0:0:
448,192,19464,128,0,19553:0:0:0:0:
320,192,19553,128,0,19641:0:0:0:0:
448,192,19641,128,0,20170:0:0:0:0:
192,192,19641,128,0,19729:0:0:0:0:
64,192,19817,128,0,19906:0:0:0:0:
320,192,19817,128,0,19906:0:0:0:0:
192,192,19906,128,0,19994:0:0:0:0:
64,192,19994,128,0,20876:0:0:0:0:
320,192,19994,128,0,20170:0:0:0:0:
448,192,20347,128,0,20435:0:0:0:0:
320,192,20435,128,0,20523:0:0:0:0:
448,192,20523,128,0,20611:0:0:0:0:
320,192,20611,128,0,20700:0:0:0:0:
448,192,20700,128,0,20788:0:0:0:0:
320,192,20788,128,0,20876:0:0:0:0:
192,192,20876,128,0,21053:0:0:0:0:
448,192,20876,128,0,21053:0:0:0:0:
64,192,20964,128,0,21053:0:0:0:0:
320,192,21053,128,0,21229:0:0:0:0:
192,192,21229,1,0,0:0:0:0:
192,192,21317,128,0,21406:0:0:0:0:
448,192,21406,128,0,21494:0:0:0:0:
320,192,21406,128,0,21494:0:0:0:0:
320,192,21582,128,0,22288:0:0:0:0:
448,192,21582,128,0,21759:0:0:0:0:
192,192,21759,128,0,21847:0:0:0:0:
64,192,21847,128,0,21935:0:0:0:0:
192,192,21935,128,0,22023:0:0:0:0:
64,192,22023,128,0,22111:0:0:0:0:
192,192,22111,128,0,22200:0:0:0:0:
64,192,22200,128,0,22288:0:0:0:0:
192,192,22288,128,0,22376:0:0:0:0:
448,192,22288,128,0,22376:0:0:0:0:
320,192,22376,128,0,22464:0:0:0:0:
192,192,22464,128,0,22553:0:0:0:0:
448,192,22464,128,0,22994:0:0:0:0:
320,192,22641,128,0,22729:0:0:0:0:
64,192,22641,128,0,22729:0:0:0:0:
192,192,22729,128,0,22817:0:0:0:0:
64,192,22817,128,0,23700:0:0:0:0:
320,192,22817,128,0,22994:0:0:0:0:
448,192,23170,128,0,23259:0:0:0:0:
320,192,23259,128,0,23347:0:0:0:0:
448,192,23347,128,0,23435:0:0:0:0:
320,192,23435,128,0,23523:0:0:0:0:
448,192,23523,128,0,23611:0:0:0:0:
320,192,23611,128,0,23700:0:0:0:0:
448,192,23700,128,0,24317:0:0:0:0:
192,192,23700,128,0,23876:0:0:0:0:
64,192,23788,128,0,23876:0:0:0:0:
320,192,23876,128,0,24053:0:0:0:0:
192,192,24053,1,0,0:0:0:0:
192,192,24141,128,0,24229:0:0:0:0:
320,192,24229,128,0,24317:0:0:0:0:
64,192,24229,128,0,24406:0:0:0:0:
448,192,24406,128,8,24759:0:0:0:0:
320,192,24406,1,4,0:0:0:0:
192,192,24406,128,2,24582:0:0:0:0:
320,192,24582,128,0,24670:0:0:0:0:
192,192,24670,128,0,24759:0:0:0:0:
64,192,24759,128,8,25111:0:0:0:0:
320,192,24759,128,0,24847:0:0:0:0:
192,192,24847,128,0,24935:0:0:0:0:
320,192,24935,128,0,25023:0:0:0:0:
192,192,25023,128,0,25111:0:0:0:0:
448,192,25111,128,8,25464:0:0:0:0:
320,192,25111,1,0,0:0:0:0:
320,192,25200,1,0,0:0:0:0:
192,192,25288,128,0,25376:0:0:0:0:
64,192,25464,128,8,25817:0:0:0:0:
192,192,25464,1,0,0:0:0:0:
192,192,25553,1,0,0:0:0:0:
320,192,25641,128,0,25817:0:0:0:0:
448,192,25817,128,8,26170:0:0:0:0:
192,192,25817,128,0,25994:0:0:0:0:
320,192,25994,128,0,26082:0:0:0:0:
192,192,26082,128,0,26170:0:0:0:0:
64,192,26170,128,8,26523:0:0:0:0:
320,192,26170,128,0,26259:0:0:0:0:
192,192,26259,128,0,26347:0:0:0:0:
320,192,26347,128,0,26435:0:0:0:0:
192,192,26435,128,0,26523:0:0:0:0:
448,192,26523,128,8,26876:0:0:0:0:
320,192,26523,1,0,0:0:0:0:
320,192,26611,1,0,0:0:0:0:
192,192,26700,128,0,26788:0:0:0:0:
64,192,26876,128,8,27229:0:0:0:0:
192,192,26876,1,0,0:0:0:0:
192,192,26964,1,0,0:0:0:0:
320,192,27053,128,0,27229:0:0:0:0:
448,192,27229,128,8,27582:0:0:0:0:
192,192,27229,128,0,27406:0:0:0:0:
320,192,27406,128,0,27494:0:0:0:0:
192,192,27494,128,0,27582:0:0:0:0:
64,192,27582,128,8,27935:0:0:0:0:
320,192,27582,128,0,27670:0:0:0:0:
192,192,27670,128,0,27759:0:0:0:0:
320,192,27759,128,0,27847:0:0:0:0:
192,192,27847,128,0,27935:0:0:0:0:
448,192,27935,128,8,28288:0:0:0:0:
320,192,27935,1,0,0:0:0:0:
320,192,28023,1,0,0:0:0:0:
192,192,28111,128,0,28200:0:0:0:0:
64,192,28288,128,8,28641:0:0:0:0:
192,192,28288,1,0,0:0:0:0:
192,192,28376,1,0,0:0:0:0:
320,192,28464,128,0,28641:0:0:0:0:
448,192,28641,128,8,28994:0:0:0:0:
192,192,28641,128,0,28817:0:0:0:0:
320,192,28817,128,0,28906:0:0:0:0:
192,192,28906,128,0,28994:0:0:0:0:
64,192,28994,128,8,29347:0:0:0:0:
320,192,28994,128,0,29082:0:0:0:0:
192,192,29082,128,0,29170:0:0:0:0:
320,192,29170,128,0,29259:0:0:0:0:
192,192,29259,128,0,29347:0:0:0:0:
448,192,29347,128,8,29700:0:0:0:0:
320,192,29347,1,0,0:0:0:0:
320,192,29435,1,0,0:0:0:0:
192,192,29523,128,0,29611:0:0:0:0:
64,192,29700,128,8,29876:0:0:0:0:
320,192,29700,1,0,0:0:0:0:
192,192,29788,128,0,29876:0:0:0:0:
320,192,29876,128,0,30053:0:0:0:0:
64,192,30053,128,0,30229:0:0:0:0:
192,192,30053,128,8,30229:0:0:0:0:
448,192,30053,128,0,30229:0:0:0:0:
320,192,30229,128,0,30317:0:0:0:0:
192,192,30406,128,0,30582:0:0:0:0:
64,192,30406,128,8,30582:0:0:0:0:
448,192,30406,128,0,30582:0:0:0:0:
320,192,30582,128,0,30670:0:0:0:0:
64,192,30759,128,0,30935:0:0:0:0:
192,192,30759,128,8,30935:0:0:0:0:
448,192,30759,128,0,30935:0:0:0:0:
320,192,30935,128,0,31023:0:0:0:0:
64,192,31111,128,8,31288:0:0:0:0:
448,192,31111,128,0,31288:0:0:0:0:
192,192,31111,128,0,31288:0:0:0:0:
320,192,31288,128,0,31376:0:0:0:0:
64,192,31464,128,0,31641:0:0:0:0:
192,192,31464,128,8,31641:0:0:0:0:
448,192,31464,128,0,31641:0:0:0:0:
320,192,31641,128,0,31729:0:0:0:0:
192,192,31817,128,0,31994:0:0:0:0:
64,192,31817,128,8,31994:0:0:0:0:
448,192,31817,128,0,31994:0:0:0:0:
320,192,31994,128,0,32082:0:0:0:0:
64,192,32170,128,0,32347:0:0:0:0:
192,192,32170,128,8,32347:0:0:0:0:
448,192,32170,128,0,32347:0:0:0:0:
320,192,32347,128,0,32435:0:0:0:0:
448,192,32523,128,0,32611:0:0:0:0:
192,192,32523,128,8,32700:0:0:0:0:
64,192,32523,128,0,32700:0:0:0:0:
320,192,32611,128,0,32700:0:0:0:0:
448,192,32700,128,0,32788:0:0:0:0:
320,192,32788,128,0,32876:0:0:0:0:
192,192,32876,128,0,33141:0:0:0:0:
64,192,32876,128,0,33053:0:0:0:0:
448,192,32876,128,8,32964:0:0:0:0:
320,192,32964,1,8,0:0:0:0:
448,192,33053,128,8,33141:0:0:0:0:
64,192,33141,1,8,0:0:0:0:
320,192,33229,128,8,33494:0:0:0:0:
448,192,33229,128,0,33406:0:0:0:0:
192,192,33229,128,0,33317:0:0:0:0:
64,192,33317,1,8,0:0:0:0:
192,192,33406,128,8,33494:0:0:0:0:
448,192,33494,1,8,0:0:0:0:
320,192,33582,128,0,33847:0:0:0:0:
192,192,33582,128,8,33847:0:0:0:0:
64,192,33582,128,0,33670:0:0:0:0:
448,192,33670,1,8,0:0:0:0:
64,192,33759,128,8,33847:0:0:0:0:
448,192,33847,1,8,0:0:0:0:
192,192,33935,128,8,34111:0:0:0:0:
64,192,33935,128,0,34200:0:0:0:0:
320,192,33935,128,0,34023:0:0:0:0:
448,192,34023,1,8,0:0:0:0:
320,192,34111,128,8,34200:0:0:0:0:
192,192,34200,1,8,0:0:0:0:
448,192,34288,128,0,34464:0:0:0:0:
320,192,34288,128,8,34464:0:0:0:0:
64,192,34288,1,0,0:0:0:0:
192,192,34641,128,8,34817:0:0:0:0:
320,192,34641,128,0,34817:0:0:0:0:
448,192,34641,1,0,0:0:0:0:
192,192,34994,128,0,35170:0:0:0:0:
64,192,34994,128,8,35170:0:0:0:0:
320,192,34994,1,0,0:0:0:0:
448,192,35347,128,0,35435:0:0:0:0:
192,192,35347,128,0,35435:0:0:0:0:
64,192,35523,128,0,35611:0:0:0:0:
320,192,35523,128,0,35611:0:0:0:0:
320,192,35700,128,0,35876:0:0:0:0:
192,192,35700,1,0,0:0:0:0:
448,192,35700,1,4,0:0:0:0:
64,192,35700,1,2,0:0:0:0:
448,192,35876,128,0,35964:0:0:0:0:
192,192,35876,128,0,36053:0:0:0:0:
320,192,35964,128,0,36053:0:0:0:0:
448,192,36053,128,8,36141:0:0:0:0:
64,192,36053,1,2,0:0:0:0:
320,192,36141,128,0,36229:0:0:0:0:
448,192,36229,128,0,36317:0:0:0:0:
64,192,36229,128,0,36406:0:0:0:0:
320,192,36317,128,0,36406:0:0:0:0:
192,192,36406,128,0,36494:0:0:0:0:
448,192,36406,1,2,0:0:0:0:
64,192,36494,128,0,36582:0:0:0:0:
192,192,36582,128,0,36759:0:0:0:0:
448,192,36582,128,0,36759:0:0:0:0:
320,192,36759,128,8,36847:0:0:0:0:
64,192,36759,1,2,0:0:0:0:
448,192,36847,128,0,36935:0:0:0:0:
64,192,36935,128,0,37111:0:0:0:0:
320,192,36935,128,0,37111:0:0:0:0:
192,192,37111,1,2,0:0:0:0:
448,192,37111,1,0,0:0:0:0:
448,192,37288,128,0,37376:0:0:0:0:
192,192,37288,128,0,37464:0:0:0:0:
320,192,37376,128,0,37464:0:0:0:0:
448,192,37464,128,2,37553:0:0:0:0:
64,192,37464,1,8,0:0:0:0:
320,192,37553,128,0,37641:0:0:0:0:
448,192,37641,128,0,37729:0:0:0:0:
64,192,37641,128,0,37817:0:0:0:0:
320,192,37729,128,0,37817:0:0:0:0:
192,192,37817,128,2,37906:0:0:0:0:
448,192,37906,128,0,37994:0:0:0:0:
192,192,37994,128,0,38082:0:0:0:0:
320,192,37994,128,0,38170:0:0:0:0:
64,192,38170,1,8,0:0:0:0:
448,192,38170,128,2,38347:0:0:0:0:
64,192,38259,1,0,0:0:0:0:
192,192,38347,128,0,38523:0:0:0:0:
320,192,38347,128,0,38523:0:0:0:0:
64,192,38523,1,2,0:0:0:0:
448,192,38523,128,0,38700:0:0:0:0:
64,192,38700,128,0,38788:0:0:0:0:
320,192,38700,128,0,38876:0:0:0:0:
192,192,38788,128,0,38876:0:0:0:0:
64,192,38876,128,8,38964:0:0:0:0:
448,192,38876,1,2,0:0:0:0:
192,192,38964,128,0,39053:0:0:0:0:
64,192,39053,128,0,39141:0:0:0:0:
448,192,39053,128,0,39229:0:0:0:0:
192,192,39141,128,0,39229:0:0:0:0:
320,192,39229,128,2,39317:0:0:0:0:
64,192,39229,1,0,0:0:0:0:
448,192,39317,128,0,39406:0:0:0:0:
320,192,39406,128,0,39582:0:0:0:0:
64,192,39406,128,0,39582:0:0:0:0:
192,192,39582,128,2,39670:0:0:0:0:
448,192,39582,1,8,0:0:0:0:
64,192,39670,128,0,39759:0:0:0:0:
448,192,39759,128,0,39935:0:0:0:0:
192,192,39759,128,0,39935:0:0:0:0:
320,192,39935,1,2,0:0:0:0:
64,192,39935,1,0,0:0:0:0:
64,192,40111,128,0,40200:0:0:0:0:
320,192,40111,128,0,40288:0:0:0:0:
192,192,40200,128,0,40288:0:0:0:0:
64,192,40288,128,8,40376:0:0:0:0:
448,192,40288,1,2,0:0:0:0:
192,192,40376,128,0,40464:0:0:0:0:
64,192,40464,128,0,40553:0:0:0:0:
448,192,40464,128,0,40641:0:0:0:0:
192,192,40553,128,0,40641:0:0:0:0:
320,192,40641,128,2,40729:0:0:0:0:
64,192,40729,128,0,40817:0:0:0:0:
320,192,40817,128,0,40906:0:0:0:0:
192,192,40817,128,0,40994:0:0:0:0:
448,192,40994,1,8,0:0:0:0:
64,192,40994,128,2,41170:0:0:0:0:
448,192,41082,1,0,0:0:0:0:
192,192,41170,128,0,41347:0:0:0:0:
320,192,41170,128,0,41347:0:0:0:0:
448,192,41347,1,2,0:0:0:0:
64,192,41347,128,0,41523:0:0:0:0:
448,192,41523,128,0,41611:0:0:0:0:
192,192,41523,128,0,41700:0:0:0:0:
320,192,41611,128,0,41700:0:0:0:0:
448,192,41700,128,2,41788:0:0:0:0:
64,192,41700,1,8,0:0:0:0:
320,192,41788,128,0,41876:0:0:0:0:
448,192,41876,128,0,41964:0:0:0:0:
64,192,41876,128,0,42053:0:0:0:0:
320,192,41964,128,0,42053:0:0:0:0:
192,192,42053,128,2,42141:0:0:0:0:
448,192,42053,1,0,0:0:0:0:
64,192,42141,128,0,42229:0:0:0:0:
192,192,42229,128,0,42406:0:0:0:0:
448,192,42229,128,0,42406:0:0:0:0:
320,192,42406,128,2,42494:0:0:0:0:
64,192,42406,1,8,0:0:0:0:
448,192,42494,128,0,42582:0:0:0:0:
64,192,42582,128,0,42759:0:0:0:0:
320,192,42582,128,0,42759:0:0:0:0:
192,192,42759,1,2,0:0:0:0:
448,192,42759,1,0,0:0:0:0:
448,192,42935,128,0,43023:0:0:0:0:
192,192,42935,128,0,43111:0:0:0:0:
320,192,43023,128,0,43111:0:0:0:0:
448,192,43111,128,2,43200:0:0:0:0:
64,192,43111,1,8,0:0:0:0:
320,192,43200,128,0,43288:0:0:0:0:
448,192,43288,128,0,43376:0:0:0:0:
64,192,43288,128,0,43464:0:0:0:0:
320,192,43376,128,0,43464:0:0:0:0:
192,192,43464,128,2,43553:0:0:0:0:
448,192,43553,128,0,43641:0:0:0:0:
192,192,43641,128,0,43729:0:0:0:0:
320,192,43641,128,0,43817:0:0:0:0:
64,192,43817,1,8,0:0:0:0:
448,192,43817,128,2,43994:0:0:0:0:
64,192,43906,1,0,0:0:0:0:
192,192,43994,128,0,44170:0:0:0:0:
320,192,43994,128,0,44170:0:0:0:0:
64,192,44170,1,2,0:0:0:0:
448,192,44170,128,0,44347:0:0:0:0:
64,192,44347,128,0,44435:0:0:0:0:
320,192,44347,128,0,44523:0:0:0:0:
192,192,44435,128,0,44523:0:0:0:0:
64,192,44523,128,8,44611:0:0:0:0:
448,192,44523,1,2,0:0:0:0:
192,192,44611,128,0,44700:0:0:0:0:
64,192,44700,128,0,44788:0:0:0:0:
448,192,44700,128,0,44876:0:0:0:0:
192,192,44788,128,0,44876:0:0:0:0:
320,192,44876,128,2,44964:0:0:0:0:
64,192,44876,1,0,0:0:0:0:
448,192,44964,128,0,45053:0:0:0:0:
320,192,45053,128,0,45229:0:0:0:0:
64,192,45053,128,0,45229:0:0:0:0:
192,192,45229,128,2,45317:0:0:0:0:
448,192,45229,1,8,0:0:0:0:
64,192,45317,128,0,45406:0:0:0:0:
448,192,45406,128,0,45494:0:0:0:0:
192,192,45406,128,0,45494:0:0:0:0:
320,192,45582,1,4,0:0:0:0:
64,192,45582,1,0,0:0:0:0:
192,192,45582,1,0,0:0:0:0:
448,192,45582,1,2,0:0:0:0:
64,192,45759,128,0,45847:0:0:0:0:
320,192,45759,128,0,45935:0:0:0:0:
192,192,45847,128,0,45935:0:0:0:0:
64,192,45935,128,0,46023:0:0:0:0:
448,192,45935,1,8,0:0:0:0:
192,192,46023,128,0,46111:0:0:0:0:
64,192,46111,128,0,46200:0:0:0:0:
448,192,46111,128,0,46288:0:0:0:0:
192,192,46200,128,0,46288:0:0:0:0:
320,192,46288,128,0,46376:0:0:0:0:
64,192,46376,128,0,46464:0:0:0:0:
192,192,46464,128,0,46641:0:0:0:0:
64,192,46641,1,8,0:0:0:0:
64,192,46729,1,0,0:0:0:0:
320,192,46817,128,0,46994:0:0:0:0:
192,192,46994,128,0,47082:0:0:0:0:
64,192,46994,128,2,47082:0:0:0:0:
448,192,46994,128,0,47082:0:0:0:0:
192,192,47170,128,0,47259:0:0:0:0:
64,192,47170,128,0,47347:0:0:0:0:
448,192,47170,128,0,47347:0:0:0:0:
192,192,47347,128,0,47523:0:0:0:0:
320,192,47347,128,2,47523:0:0:0:0:
64,192,47523,128,0,47611:0:0:0:0:
448,192,47523,128,0,47611:0:0:0:0:
320,192,47611,128,0,47700:0:0:0:0:
192,192,47611,128,0,47700:0:0:0:0:
448,192,47700,1,2,0:0:0:0:
192,192,47788,128,0,47876:0:0:0:0:
64,192,47788,128,0,47876:0:0:0:0:
320,192,47964,128,0,48053:0:0:0:0:
64,192,47964,128,0,48053:0:0:0:0:
192,192,48053,128,2,48141:0:0:0:0:
448,192,48053,128,0,48141:0:0:0:0:
448,192,48229,128,0,48317:0:0:0:0:
320,192,48229,128,0,48317:0:0:0:0:
192,192,48317,128,0,48406:0:0:0:0:
64,192,48406,128,2,48494:0:0:0:0:
320,192,48406,128,0,48494:0:0:0:0:
448,192,48406,128,0,48494:0:0:0:0:
448,192,48582,128,0,48759:0:0:0:0:
64,192,48582,128,0,48759:0:0:0:0:
320,192,48582,128,0,48670:0:0:0:0:
320,192,48759,128,2,48935:0:0:0:0:
192,192,48759,128,0,48935:0:0:0:0:
64,192,48935,128,0,49023:0:0:0:0:
448,192,48935,128,0,49023:0:0:0:0:
320,192,49023,128,0,49111:0:0:0:0:
192,192,49023,128,0,49111:0:0:0:0:
448,192,49111,1,2,0:0:0:0:
192,192,49200,128,0,49288:0:0:0:0:
64,192,49200,128,0,49288:0:0:0:0:
320,192,49376,128,0,49464:0:0:0:0:
64,192,49376,128,0,49464:0:0:0:0:
448,192,49464,128,2,49641:0:0:0:0:
192,192,49464,128,0,49641:0:0:0:70:soft-hitfinish2.wav
320,192,49553,1,0,0:0:0:0:
64,192,49641,1,0,0:0:0:0:
320,192,49729,1,0,0:0:0:0:
448,192,49817,128,2,49906:0:0:0:0:
64,192,49817,128,0,49906:0:0:0:0:
192,192,49817,128,0,49906:0:0:0:0:
448,192,49994,128,0,50170:0:0:0:0:
64,192,49994,128,0,50170:0:0:0:0:
192,192,49994,128,0,50082:0:0:0:0:
320,192,50170,128,0,50347:0:0:0:0:
192,192,50170,128,2,50347:0:0:0:0:
448,192,50347,128,0,50435:0:0:0:0:
64,192,50347,128,0,50435:0:0:0:0:
192,192,50435,128,0,50523:0:0:0:0:
320,192,50435,128,0,50523:0:0:0:0:
448,192,50523,1,2,0:0:0:0:
64,192,50611,128,0,50700:0:0:0:0:
192,192,50611,128,0,50700:0:0:0:0:
64,192,50788,128,0,50876:0:0:0:0:
320,192,50788,128,0,50876:0:0:0:0:
448,192,50876,128,0,50964:0:0:0:0:
192,192,50876,128,2,50964:0:0:0:0:
320,192,51053,128,0,51141:0:0:0:0:
448,192,51053,128,0,51141:0:0:0:0:
192,192,51141,128,0,51229:0:0:0:0:
448,192,51229,128,0,51317:0:0:0:0:
320,192,51229,128,0,51317:0:0:0:0:
64,192,51229,128,2,51317:0:0:0:0:
64,192,51406,128,0,51582:0:0:0:0:
320,192,51406,128,0,51494:0:0:0:0:
448,192,51406,128,0,51582:0:0:0:0:
192,192,51582,128,0,51759:0:0:0:0:
320,192,51582,128,2,51759:0:0:0:0:
448,192,51759,128,0,51847:0:0:0:0:
64,192,51759,128,0,51847:0:0:0:0:
192,192,51847,128,0,51935:0:0:0:0:
320,192,51847,128,0,51935:0:0:0:0:
448,192,51935,1,2,0:0:0:0:
64,192,52023,128,0,52111:0:0:0:0:
192,192,52023,128,0,52111:0:0:0:0:
64,192,52200,128,0,52464:0:0:0:0:
320,192,52200,128,0,52464:0:0:0:0:
448,192,52288,128,2,52464:0:0:0:0:
192,192,52288,128,0,52464:0:0:0:70:soft-hitfinish2.wav
320,192,52641,1,4,0:0:0:0:
192,192,52641,128,0,52817:0:0:0:0:
448,192,52641,128,0,52817:0:0:0:0:
64,192,52641,128,2,52729:0:0:0:0:
320,192,52994,128,0,53259:0:0:0:0:
64,192,52994,128,0,53259:0:0:0:0:
448,192,52994,128,0,53170:0:0:0:0:
192,192,53347,128,0,53523:0:0:0:0:
64,192,53347,128,0,53523:0:0:0:0:
320,192,53347,128,0,53435:0:0:0:0:
64,192,53611,128,0,53700:0:0:0:0:
192,192,53611,128,0,53700:0:0:0:0:
320,192,53611,1,0,0:0:0:0:
320,192,53876,128,0,54053:0:0:0:0:
448,192,53876,128,0,54053:0:0:0:0:
64,192,53876,128,0,54053:0:0:0:0:
448,192,54229,128,0,54317:0:0:0:0:
192,192,54229,128,0,54317:0:0:0:0:
64,192,54229,1,0,0:0:0:0:
64,192,54406,128,0,54670:0:0:0:0:
320,192,54406,128,0,54670:0:0:0:0:
448,192,54406,128,0,54582:0:0:0:0:
192,192,54759,128,0,54935:0:0:0:0:
64,192,54759,128,0,54935:0:0:0:0:
320,192,54759,128,0,54847:0:0:0:0:
64,192,55023,128,0,55111:0:0:0:0:
192,192,55023,128,0,55111:0:0:0:0:
320,192,55023,1,0,0:0:0:0:
192,192,55288,128,0,55376:0:0:0:0:
320,192,55288,128,0,55376:0:0:0:0:
448,192,55288,1,0,0:0:0:0:
192,192,55464,128,0,55729:0:0:0:0:
448,192,55464,128,0,55641:0:0:0:0:
64,192,55464,1,8,0:0:0:0:
320,192,55553,1,8,0:0:0:0:
64,192,55641,1,8,0:0:0:0:
448,192,55729,1,8,0:0:0:0:
320,192,55817,128,0,55994:0:0:0:0:
64,192,55817,128,0,56082:0:0:0:0:
192,192,55817,1,8,0:0:0:0:
448,192,55906,1,8,0:0:0:0:
192,192,55994,1,8,0:0:0:0:
448,192,56082,1,8,0:0:0:0:
192,192,56170,128,0,56347:0:0:0:0:
64,192,56170,128,0,56347:0:0:0:0:
320,192,56170,1,8,0:0:0:0:
448,192,56259,1,8,0:0:0:0:
320,192,56347,1,8,0:0:0:0:
64,192,56435,128,0,56523:0:0:0:0:
192,192,56435,128,0,56523:0:0:0:0:
448,192,56435,1,8,0:0:0:0:
320,192,56523,1,8,0:0:0:0:
192,192,56611,1,8,0:0:0:0:
320,192,56700,128,0,56876:0:0:0:0:
448,192,56700,128,0,56876:0:0:0:0:
64,192,56700,1,8,0:0:0:0:
192,192,56788,1,8,0:0:0:0:
64,192,56876,128,0,57053:0:0:0:0:
320,192,57053,1,0,0:0:0:0:
320,192,57141,5,0,0:0:0:0:
192,192,57229,1,0,0:0:0:0:
448,192,57229,128,0,57406:0:0:0:0:
192,192,57406,1,0,0:0:0:0:
192,192,57494,1,0,0:0:0:0:
64,192,57582,128,0,57759:0:0:0:0:
320,192,57582,1,0,0:0:0:0:
320,192,57759,1,0,0:0:0:0:
320,192,57847,1,0,0:0:0:0:
448,192,57935,128,0,58111:0:0:0:0:
192,192,57935,1,0,0:0:0:0:
192,192,58111,1,0,0:0:0:0:
192,192,58200,1,0,0:0:0:0:
448,192,58288,1,0,0:0:0:0:
64,192,58288,128,2,58641:0:0:0:0:
320,192,58288,128,4,58376:0:0:0:0:
192,192,58641,1,0,0:0:0:0:
448,192,58641,128,2,58994:0:0:0:0:
320,192,58994,128,0,59082:0:0:0:0:
64,192,58994,128,2,59347:0:0:0:0:
192,192,59347,1,0,0:0:0:0:
448,192,59347,128,2,59700:0:0:0:0:
320,192,59700,128,0,59788:0:0:0:0:
64,192,59700,128,2,60053:0:0:0:0:
192,192,60053,1,0,0:0:0:0:
448,192,60053,128,2,60406:0:0:0:0:
320,192,60406,128,0,60494:0:0:0:0:
64,192,60406,128,2,60759:0:0:0:0:
448,192,60759,128,0,60847:0:0:0:0:
192,192,60759,1,2,0:0:0:0:
320,192,60847,128,0,60935:0:0:0:0:
448,192,60935,128,0,61023:0:0:0:0:
320,192,61023,128,0,61111:0:0:0:0:
64,192,61111,128,0,61200:0:0:0:0:
192,192,61111,128,0,61464:0:0:0:0:
448,192,61464,1,0,0:0:0:0:
320,192,61464,128,2,61817:0:0:0:0:
64,192,61817,128,0,61906:0:0:0:0:
192,192,61817,128,2,62170:0:0:0:0:
448,192,62170,1,0,0:0:0:0:
320,192,62170,128,2,62523:0:0:0:0:
64,192,62523,128,0,62611:0:0:0:0:
192,192,62523,128,2,62876:0:0:0:0:
448,192,62876,1,0,0:0:0:0:
320,192,62876,128,2,63229:0:0:0:0:
64,192,63229,128,0,63317:0:0:0:0:
192,192,63229,128,2,63582:0:0:0:0:
448,192,63582,128,0,63670:0:0:0:0:
64,192,63582,1,2,0:0:0:0:
320,192,63670,128,0,63759:0:0:0:0:
448,192,63759,128,0,63847:0:0:0:0:
320,192,63847,128,0,63935:0:0:0:0:
64,192,63935,128,0,64288:0:0:0:0:
192,192,63935,128,0,64023:0:0:0:0:
320,192,64288,128,2,64641:0:0:0:0:
448,192,64288,1,0,0:0:0:0:
64,192,64641,128,2,64994:0:0:0:0:
192,192,64641,128,0,64729:0:0:0:0:
320,192,64994,128,2,65347:0:0:0:0:
448,192,64994,1,0,0:0:0:0:
64,192,65347,128,2,65700:0:0:0:0:
192,192,65347,128,0,65435:0:0:0:0:
320,192,65700,128,2,66053:0:0:0:0:
448,192,65700,1,0,0:0:0:0:
64,192,66053,128,2,66406:0:0:0:0:
192,192,66053,128,0,66141:0:0:0:0:
448,192,66406,128,0,66494:0:0:0:0:
192,192,66406,1,2,0:0:0:0:
320,192,66494,128,0,66582:0:0:0:0:
448,192,66582,128,0,66670:0:0:0:0:
320,192,66670,128,0,66759:0:0:0:0:
192,192,66759,128,2,67111:0:0:0:0:
64,192,66759,128,0,66847:0:0:0:0:
320,192,67111,128,2,67464:0:0:0:0:
448,192,67111,1,0,0:0:0:0:
192,192,67464,128,2,67817:0:0:0:0:
64,192,67464,128,0,67553:0:0:0:0:
320,192,67817,128,2,68170:0:0:0:0:
448,192,67817,1,0,0:0:0:0:
192,192,68170,128,2,68259:0:0:0:0:
448,192,68170,128,0,68259:0:0:0:0:
448,192,68347,128,0,68435:0:0:0:0:
192,192,68347,128,0,68435:0:0:0:0:
64,192,68435,128,0,68523:0:0:0:0:
320,192,68435,128,0,68523:0:0:0:0:
192,192,68523,128,2,68611:0:0:0:0:
448,192,68523,128,0,68611:0:0:0:0:
64,192,68611,128,0,68700:0:0:0:0:
320,192,68611,128,0,68700:0:0:0:0:
192,192,68700,128,0,68788:0:0:0:0:
448,192,68700,128,0,68788:0:0:0:0:
320,192,68788,128,0,68876:0:0:0:0:
64,192,68788,128,0,68876:0:0:0:0:
192,192,68876,1,2,0:0:0:0:
448,192,68876,1,0,0:0:0:0:
192,192,68964,1,0,0:0:0:0:
448,192,68964,1,0,0:0:0:0:
64,192,69053,128,0,69141:0:0:0:0:
320,192,69053,128,0,69141:0:0:0:0:
64,192,69229,1,0,0:0:0:0:
320,192,69229,1,2,0:0:0:0:
64,192,69317,1,0,0:0:0:0:
320,192,69317,1,0,0:0:0:0:
192,192,69406,128,0,69494:0:0:0:0:
448,192,69406,128,0,69494:0:0:0:0:
64,192,69582,1,4,0:0:0:0:
448,192,69582,1,0,0:0:0:0:
320,192,69582,1,0,0:0:0:0:
192,192,69582,1,8,0:0:0:0:
448,192,69759,128,0,69935:0:0:0:0:
320,192,69935,1,0,0:0:0:0:
192,192,69935,1,8,0:0:0:0:
64,192,69935,1,0,0:0:0:0:
320,192,70111,128,0,70288:0:0:0:0:
192,192,70288,1,8,0:0:0:0:
64,192,70288,1,0,0:0:0:0:
448,192,70288,1,0,0:0:0:0:
192,192,70464,128,0,70641:0:0:0:0:
64,192,70641,1,0,0:0:0:0:
320,192,70641,1,0,0:0:0:0:
448,192,70641,1,8,0:0:0:0:
64,192,70817,128,0,70994:0:0:0:0:
192,192,70994,1,0,0:0:0:0:
320,192,70994,1,8,0:0:0:0:
448,192,70994,1,0,0:0:0:0:
448,192,71170,128,0,71347:0:0:0:0:
320,192,71347,1,8,0:0:0:0:
192,192,71347,1,0,0:0:0:0:
64,192,71347,1,0,0:0:0:0:
320,192,71523,128,0,71700:0:0:0:0:
192,192,71700,1,0,0:0:0:0:
64,192,71700,1,0,0:0:0:0:
448,192,71700,1,8,0:0:0:0:
192,192,71876,128,0,72053:0:0:0:0:
64,192,72053,1,0,0:0:0:0:
448,192,72053,128,8,72141:0:0:0:0:
320,192,72141,128,0,72229:0:0:0:0:
64,192,72229,128,0,72406:0:0:0:0:
448,192,72229,128,0,72317:0:0:0:0:
320,192,72317,128,0,72406:0:0:0:0:
192,192,72406,1,8,0:0:0:0:
448,192,72406,1,0,0:0:0:0:
448,192,72582,128,0,72759:0:0:0:0:
64,192,72759,1,0,0:0:0:0:
192,192,72759,1,0,0:0:0:0:
320,192,72759,1,8,0:0:0:0:
320,192,72935,128,0,73111:0:0:0:0:
448,192,73111,1,0,0:0:0:0:
64,192,73111,1,8,0:0:0:0:
192,192,73111,1,0,0:0:0:0:
192,192,73288,128,0,73464:0:0:0:0:
448,192,73464,1,0,0:0:0:0:
320,192,73464,1,8,0:0:0:0:
64,192,73464,1,0,0:0:0:0:
64,192,73641,128,0,73817:0:0:0:0:
448,192,73817,1,8,0:0:0:0:
320,192,73817,1,0,0:0:0:0:
192,192,73817,1,0,0:0:0:0:
64,192,73994,1,0,0:0:0:0:
64,192,74082,1,0,0:0:0:0:
192,192,74170,1,0,0:0:0:0:
320,192,74170,1,8,0:0:0:0:
448,192,74170,1,0,0:0:0:0:
192,192,74347,1,0,0:0:0:0:
192,192,74435,1,0,0:0:0:0:
64,192,74523,1,8,0:0:0:0:
320,192,74523,1,0,0:0:0:0:
448,192,74523,1,0,0:0:0:0:
320,192,74700,1,0,0:0:0:0:
320,192,74788,1,0,0:0:0:0:
192,192,74876,1,8,0:0:0:0:
64,192,74876,1,0,0:0:0:0:
448,192,74876,128,0,74964:0:0:0:0:
320,192,74964,128,0,75053:0:0:0:0:
448,192,75053,128,0,75141:0:0:0:0:
320,192,75141,128,0,75229:0:0:0:0:
192,192,75229,1,8,0:0:0:0:
64,192,75229,1,0,0:0:0:0:
448,192,75229,1,0,0:0:0:0:
448,192,75406,128,0,75582:0:0:0:0:
64,192,75582,1,0,0:0:0:0:
192,192,75582,1,0,0:0:0:0:
320,192,75582,1,8,0:0:0:0:
320,192,75759,128,0,75935:0:0:0:0:
448,192,75935,1,0,0:0:0:0:
64,192,75935,1,8,0:0:0:0:
192,192,75935,1,0,0:0:0:0:
192,192,76111,128,0,76288:0:0:0:0:
448,192,76288,1,0,0:0:0:0:
320,192,76288,1,8,0:0:0:0:
64,192,76288,1,0,0:0:0:0:
64,192,76464,128,0,76641:0:0:0:0:
448,192,76641,1,0,0:0:0:0:
320,192,76641,1,8,0:0:0:0:
192,192,76641,1,0,0:0:0:0:
448,192,76817,128,0,76994:0:0:0:0:
320,192,76994,1,0,0:0:0:0:
192,192,76994,1,8,0:0:0:0:
64,192,76994,1,0,0:0:0:0:
320,192,77170,128,0,77347:0:0:0:0:
192,192,77347,1,0,0:0:0:0:
64,192,77347,1,0,0:0:0:0:
448,192,77347,1,8,0:0:0:0:
192,192,77523,128,0,77700:0:0:0:0:
64,192,77700,1,0,0:0:0:0:
448,192,77700,128,0,77788:0:0:0:0:
320,192,77788,128,0,77876:0:0:0:0:
64,192,77876,128,0,78053:0:0:0:0:
448,192,77876,128,0,77964:0:0:0:0:
320,192,77964,128,0,78053:0:0:0:0:
192,192,78053,1,8,0:0:0:0:
448,192,78053,1,0,0:0:0:0:
448,192,78229,128,0,78406:0:0:0:0:
64,192,78406,1,0,0:0:0:0:
192,192,78406,1,8,0:0:0:0:
320,192,78406,1,0,0:0:0:0:
320,192,78582,128,0,78759:0:0:0:0:
448,192,78759,1,0,0:0:0:0:
64,192,78759,1,0,0:0:0:0:
192,192,78759,1,8,0:0:0:0:
192,192,78935,128,0,79111:0:0:0:0:
448,192,79111,1,0,0:0:0:0:
320,192,79111,1,8,0:0:0:0:
64,192,79111,1,0,0:0:0:0:
64,192,79288,128,0,79376:0:0:0:0:
448,192,79464,1,0,0:0:0:0:
320,192,79464,1,2,0:0:0:0:
192,192,79464,1,4,0:0:0:0:
64,192,79464,1,0,0:0:0:0:
64,192,79641,1,0,0:0:0:0:
64,192,79729,5,0,0:0:0:0:
320,192,79817,1,0,0:0:0:0:
448,192,79817,1,0,0:0:0:0:
192,192,79994,1,0,0:0:0:0:
192,192,80082,1,0,0:0:0:0:
448,192,80170,1,0,0:0:0:0:
64,192,80170,1,0,0:0:0:0:
320,192,80347,1,0,0:0:0:0:
320,192,80435,1,0,0:0:0:0:
448,192,80523,1,0,0:0:0:0:
64,192,80523,128,0,80611:0:0:0:0:
192,192,80611,128,0,80700:0:0:0:0:
64,192,80700,128,0,80788:0:0:0:0:
192,192,80788,128,0,80876:0:0:0:0:
64,192,80876,128,4,81053:0:0:0:0:
320,192,80876,1,0,0:0:0:0:
448,192,80876,1,2,0:0:0:0:
192,192,81053,128,0,81229:0:0:0:0:
320,192,81053,1,2,0:0:0:0:
64,192,81141,1,0,0:0:0:0:
320,192,81229,128,0,81406:0:0:0:0:
448,192,81229,1,2,0:0:0:0:
64,192,81317,1,0,0:0:0:0:
448,192,81406,128,0,81582:0:0:0:0:
192,192,81406,1,2,0:0:0:0:
320,192,81582,128,0,81935:0:0:0:0:
64,192,81582,1,2,0:0:0:0:
192,192,81759,1,2,0:0:0:0:
64,192,81759,1,0,0:0:0:0:
448,192,81847,128,0,81935:0:0:0:0:
64,192,81935,128,0,82111:0:0:0:0:
192,192,81935,1,2,0:0:0:0:
320,192,82023,1,0,0:0:0:0:
192,192,82111,1,0,0:0:0:0:
448,192,82111,1,2,0:0:0:0:
64,192,82288,128,0,82464:0:0:0:0:
448,192,82288,1,2,0:0:0:0:
192,192,82464,128,0,82641:0:0:0:0:
320,192,82464,1,2,0:0:0:0:
448,192,82553,1,0,0:0:0:0:
320,192,82641,128,0,82817:0:0:0:0:
64,192,82641,1,2,0:0:0:0:
192,192,82729,1,0,0:0:0:0:
448,192,82817,128,0,82994:0:0:0:0:
64,192,82817,1,2,0:0:0:0:
320,192,82994,128,0,83347:0:0:0:0:
192,192,82994,1,2,0:0:0:0:
192,192,83170,1,2,0:0:0:0:
64,192,83170,1,0,0:0:0:0:
448,192,83259,128,0,83347:0:0:0:0:
64,192,83347,128,0,83523:0:0:0:0:
192,192,83347,1,2,0:0:0:0:
320,192,83435,128,0,83523:0:0:0:0:
448,192,83523,1,2,0:0:0:0:
192,192,83523,1,0,0:0:0:0:
448,192,83700,1,2,0:0:0:0:
64,192,83700,128,0,83876:0:0:0:0:
320,192,83876,1,2,0:0:0:0:
192,192,83876,128,0,84053:0:0:0:0:
448,192,83964,1,0,0:0:0:0:
64,192,84053,1,2,0:0:0:0:
320,192,84053,128,0,84229:0:0:0:0:
192,192,84141,1,0,0:0:0:0:
64,192,84229,1,2,0:0:0:0:
448,192,84229,128,0,84406:0:0:0:0:
192,192,84406,128,0,84582:0:0:0:0:
64,192,84406,1,2,0:0:0:0:
320,192,84582,128,0,84759:0:0:0:0:
448,192,84582,1,2,0:0:0:0:
192,192,84670,128,0,84759:0:0:0:0:
448,192,84759,1,2,0:0:0:0:
64,192,84759,128,0,84935:0:0:0:0:
192,192,84847,128,0,84935:0:0:0:0:
320,192,84935,1,2,0:0:0:0:
448,192,84935,1,0,0:0:0:0:
448,192,85111,1,2,0:0:0:0:
64,192,85111,128,0,85288:0:0:0:0:
320,192,85288,1,2,0:0:0:0:
192,192,85288,128,0,85464:0:0:0:0:
448,192,85376,1,0,0:0:0:0:
64,192,85464,1,2,0:0:0:0:
320,192,85464,128,0,85641:0:0:0:0:
192,192,85553,1,0,0:0:0:0:
64,192,85641,1,2,0:0:0:0:
448,192,85641,128,0,85817:0:0:0:0:
192,192,85817,128,0,85994:0:0:0:0:
64,192,85817,1,0,0:0:0:0:
320,192,85817,1,2,0:0:0:0:
320,192,85994,128,0,86170:0:0:0:0:
448,192,85994,1,2,0:0:0:0:
192,192,86082,128,0,86170:0:0:0:0:
448,192,86170,1,2,0:0:0:0:
64,192,86170,128,0,86347:0:0:0:0:
192,192,86259,128,0,86347:0:0:0:0:
320,192,86347,1,2,0:0:0:0:
448,192,86347,1,0,0:0:0:0:
192,192,86523,128,2,86611:0:0:0:0:
320,192,86523,1,8,0:0:0:0:
448,192,86611,1,0,0:0:0:0:
64,192,86611,1,8,0:0:0:0:
320,192,86700,128,10,86876:0:0:0:0:
192,192,86700,1,0,0:0:0:0:
64,192,86876,128,2,86964:0:0:0:0:
448,192,86876,1,8,0:0:0:0:
192,192,86964,1,0,0:0:0:0:
320,192,86964,1,8,0:0:0:0:
448,192,87053,128,10,87229:0:0:0:0:
64,192,87053,1,0,0:0:0:0:
320,192,87229,128,2,87317:0:0:0:0:
64,192,87229,1,8,0:0:0:0:
448,192,87317,1,0,0:0:0:0:
192,192,87317,128,8,87406:0:0:0:0:
320,192,87406,1,8,0:0:0:0:
64,192,87406,128,0,87582:0:0:0:0:
448,192,87582,128,2,87759:0:0:0:0:
192,192,87582,128,8,87670:0:0:0:0:
64,192,87670,128,0,87759:0:0:0:0:
320,192,87670,128,8,87759:0:0:0:0:
192,192,87759,1,10,0:0:0:0:
192,192,87935,128,2,88023:0:0:0:0:
320,192,87935,1,8,0:0:0:0:
448,192,88023,1,0,0:0:0:0:
64,192,88023,1,8,0:0:0:0:
320,192,88111,128,10,88288:0:0:0:0:
192,192,88111,1,0,0:0:0:0:
448,192,88288,1,8,0:0:0:0:
64,192,88288,128,2,88376:0:0:0:0:
320,192,88376,1,0,0:0:0:0:
192,192,88376,1,8,0:0:0:0:
448,192,88464,128,10,88641:0:0:0:0:
64,192,88464,1,0,0:0:0:0:
320,192,88641,128,2,88729:0:0:0:0:
64,192,88641,1,8,0:0:0:0:
448,192,88729,1,0,0:0:0:0:
192,192,88729,128,8,88817:0:0:0:0:
320,192,88817,1,8,0:0:0:0:
64,192,88817,128,0,88994:0:0:0:0:
448,192,88994,128,2,89170:0:0:0:0:
192,192,88994,128,8,89082:0:0:0:0:
64,192,89082,128,0,89170:0:0:0:0:
320,192,89082,128,8,89347:0:0:0:0:
192,192,89170,128,10,89347:0:0:0:0:
448,192,89347,128,0,89435:0:0:0:0:
64,192,89347,128,2,89435:0:0:0:0:
192,192,89435,128,2,89523:0:0:0:0:
320,192,89435,128,0,89523:0:0:0:0:
64,192,89523,128,2,89611:0:0:0:0:
448,192,89523,128,0,89611:0:0:0:0:
320,192,89611,128,2,89700:0:0:0:0:
192,192,89611,128,0,89700:0:0:0:0:
448,192,89700,128,2,89788:0:0:0:0:
64,192,89700,128,0,89788:0:0:0:0:
192,192,89788,128,0,89876:0:0:0:0:
320,192,89788,128,2,89876:0:0:0:0:
64,192,89876,128,2,89964:0:0:0:0:
448,192,89876,128,0,89964:0:0:0:0:
192,192,89964,128,2,90053:0:0:0:0:
320,192,90053,128,0,90317:0:0:0:0:
64,192,90053,1,0,0:0:0:0:
192,192,90141,128,0,90229:0:0:0:0:
448,192,90141,128,0,90317:0:0:0:0:
64,192,90229,128,0,90406:0:0:0:0:
192,192,90317,128,0,90494:0:0:0:0:
320,192,90406,128,0,90494:0:0:0:0:
448,192,90494,128,0,90670:0:0:0:0:
64,192,90494,1,0,0:0:0:0:
320,192,90582,128,0,90759:0:0:0:0:
192,192,90670,128,0,90759:0:0:0:0:
64,192,90759,128,4,90935:0:0:0:0:
448,192,90759,1,2,0:0:0:0:
192,192,90847,128,0,90979:0:0:0:0:
320,192,90935,128,0,91023:0:0:0:0:
448,192,90935,128,0,91023:0:0:0:0:
448,192,91111,128,0,91288:0:0:0:0:
320,192,91200,128,0,91332:0:0:0:0:
192,192,91288,128,0,91376:0:0:0:0:
64,192,91288,128,0,91376:0:0:0:0:
64,192,91464,128,0,91729:0:0:0:0:
448,192,91464,128,0,91729:0:0:0:0:
192,192,91817,128,0,92082:0:0:0:0:
320,192,91817,128,0,92082:0:0:0:0:
320,192,92170,128,0,92347:0:0:0:0:
192,192,92170,128,0,92347:0:0:0:0:
64,192,92170,1,2,0:0:0:0:
448,192,92170,1,4,0:0:0:0:
64,192,92347,128,0,92435:0:0:0:0:
448,192,92347,128,0,92435:0:0:0:0:
192,192,92435,128,0,92523:0:0:0:0:
320,192,92435,128,0,92523:0:0:0:0:
448,192,92523,1,10,0:0:0:0:
64,192,92611,128,0,92700:0:0:0:0:
320,192,92700,128,0,92788:0:0:0:0:
64,192,92788,128,0,92876:0:0:0:0:
448,192,92876,128,0,92964:0:0:0:0:
320,192,92876,128,2,92935:0:0:0:0:
192,192,92964,128,0,93053:0:0:0:0:
64,192,92964,128,0,93023:0:0:0:0:
448,192,93053,128,0,93111:0:0:0:0:
320,192,93053,128,0,93141:0:0:0:0:
192,192,93141,128,0,93229:0:0:0:0:
64,192,93229,128,8,93494:0:0:0:0:
448,192,93229,128,2,93406:0:0:0:0:
320,192,93317,128,0,93494:0:0:0:0:
192,192,93406,128,0,93582:0:0:0:0:
448,192,93494,128,0,93582:0:0:0:0:
320,192,93582,128,2,93759:0:0:0:0:
64,192,93582,128,0,93759:0:0:0:0:
192,192,93759,128,0,93847:0:0:0:0:
448,192,93759,128,0,93847:0:0:0:0:
64,192,93847,128,0,93935:0:0:0:0:
320,192,93847,128,0,93935:0:0:0:0:
448,192,93935,1,10,0:0:0:0:
192,192,94023,128,0,94111:0:0:0:0:
64,192,94111,128,0,94200:0:0:0:0:
320,192,94200,128,0,94288:0:0:0:0:
448,192,94288,128,0,94376:0:0:0:0:
64,192,94288,128,2,94553:0:0:0:0:
320,192,94376,128,0,94464:0:0:0:0:
448,192,94464,128,0,94553:0:0:0:0:
192,192,94464,128,0,94553:0:0:0:0:
320,192,94553,128,0,94641:0:0:0:0:
448,192,94641,128,2,94817:0:0:0:0:
192,192,94641,128,8,94729:0:0:0:0:
64,192,94729,128,0,94817:0:0:0:0:
192,192,94817,128,0,94906:0:0:0:0:
320,192,94817,128,0,94906:0:0:0:0:
64,192,94906,128,0,94994:0:0:0:0:
448,192,94906,128,0,94994:0:0:0:0:
192,192,94994,128,0,95170:0:0:0:0:
320,192,94994,128,2,95170:0:0:0:0:
64,192,95170,128,0,95259:0:0:0:0:
448,192,95170,128,0,95259:0:0:0:0:
192,192,95259,128,0,95347:0:0:0:0:
320,192,95259,128,0,95347:0:0:0:0:
448,192,95347,1,10,0:0:0:0:
64,192,95435,128,0,95523:0:0:0:0:
320,192,95523,128,0,95611:0:0:0:0:
64,192,95611,128,0,95700:0:0:0:0:
448,192,95700,128,0,95759:0:0:0:0:
192,192,95700,128,2,95788:0:0:0:0:
320,192,95788,128,0,95876:0:0:0:0:
64,192,95788,128,0,95847:0:0:0:0:
448,192,95876,128,0,95935:0:0:0:0:
192,192,95876,128,0,95964:0:0:0:0:
320,192,95964,128,0,96053:0:0:0:0:
192,192,96053,128,2,96317:0:0:0:0:
448,192,96053,128,8,96229:0:0:0:0:
64,192,96141,128,0,96317:0:0:0:0:
320,192,96229,128,0,96406:0:0:0:0:
448,192,96317,128,0,96406:0:0:0:0:
192,192,96406,1,2,0:0:0:0:
64,192,96406,1,0,0:0:0:0:
64,192,96494,1,0,0:0:0:0:
64,192,96582,128,0,96670:0:0:0:0:
448,192,96582,1,0,0:0:0:0:
320,192,96670,128,0,96759:0:0:0:0:
448,192,96759,1,8,0:0:0:0:
192,192,96759,1,2,0:0:0:0:
64,192,96847,128,0,96935:0:0:0:0:
320,192,96935,128,0,97023:0:0:0:0:
192,192,97023,128,0,97111:0:0:0:0:
448,192,97111,128,2,97200:0:0:0:0:
64,192,97111,128,0,97288:0:0:0:0:
320,192,97200,128,0,97288:0:0:0:0:
192,192,97288,1,0,0:0:0:0:
448,192,97288,128,0,97376:0:0:0:0:
320,192,97376,128,0,97464:0:0:0:0:
448,192,97464,128,2,97641:0:0:0:0:
192,192,97464,128,8,97553:0:0:0:0:
64,192,97553,128,0,97641:0:0:0:0:
320,192,97641,1,0,0:0:0:0:
192,192,97641,128,0,97729:0:0:0:0:
64,192,97729,128,0,97817:0:0:0:0:
192,192,97817,128,0,97994:0:0:0:0:
320,192,97817,128,0,97994:0:0:0:0:
448,192,97817,1,2,0:0:0:0:
64,192,97994,128,0,98082:0:0:0:0:
448,192,97994,128,0,98082:0:0:0:0:
192,192,98082,128,0,98170:0:0:0:0:
320,192,98082,128,0,98170:0:0:0:0:
448,192,98170,1,10,0:0:0:0:
64,192,98259,128,0,98347:0:0:0:0:
320,192,98347,128,0,98435:0:0:0:0:
64,192,98435,128,0,98523:0:0:0:0:
448,192,98523,128,0,98611:0:0:0:0:
320,192,98523,128,2,98582:0:0:0:0:
192,192,98611,128,0,98700:0:0:0:0:
64,192,98611,128,0,98670:0:0:0:0:
448,192,98700,128,0,98759:0:0:0:0:
320,192,98700,128,0,98788:0:0:0:0:
192,192,98788,128,0,98876:0:0:0:0:
64,192,98876,128,8,99141:0:0:0:0:
448,192,98876,128,2,99053:0:0:0:0:
320,192,98964,128,0,99141:0:0:0:0:
192,192,99053,128,0,99229:0:0:0:0:
448,192,99141,128,0,99229:0:0:0:0:
64,192,99229,128,2,99406:0:0:0:0:
320,192,99229,128,0,99406:0:0:0:0:
192,192,99406,128,0,99494:0:0:0:0:
448,192,99406,128,0,99494:0:0:0:0:
64,192,99494,128,0,99582:0:0:0:0:
320,192,99494,128,0,99582:0:0:0:0:
448,192,99582,1,10,0:0:0:0:
192,192,99670,128,0,99759:0:0:0:0:
64,192,99759,128,0,99847:0:0:0:0:
320,192,99847,128,0,99935:0:0:0:0:
448,192,99935,128,0,100023:0:0:0:0:
64,192,99935,128,2,100200:0:0:0:0:
320,192,100023,128,0,100111:0:0:0:0:
448,192,100111,128,0,100200:0:0:0:0:
192,192,100111,128,0,100200:0:0:0:0:
320,192,100200,128,0,100288:0:0:0:0:
192,192,100288,128,8,100376:0:0:0:0:
448,192,100288,128,2,100464:0:0:0:0:
64,192,100376,128,0,100464:0:0:0:0:
192,192,100464,128,0,100553:0:0:0:0:
320,192,100464,128,0,100553:0:0:0:0:
64,192,100553,128,0,100641:0:0:0:0:
448,192,100553,128,0,100641:0:0:0:0:
192,192,100641,128,2,100817:0:0:0:0:
320,192,100641,128,0,100817:0:0:0:0:
64,192,100817,128,0,100906:0:0:0:0:
448,192,100817,128,0,100906:0:0:0:0:
192,192,100906,128,0,100994:0:0:0:0:
320,192,100906,128,0,100994:0:0:0:0:
448,192,100994,1,10,0:0:0:0:
64,192,101082,128,0,101170:0:0:0:0:
320,192,101170,128,0,101259:0:0:0:0:
64,192,101259,128,0,101347:0:0:0:0:
448,192,101347,128,0,101406:0:0:0:0:
192,192,101347,128,2,101435:0:0:0:0:
64,192,101435,128,0,101494:0:0:0:0:
320,192,101435,128,0,101523:0:0:0:0:
448,192,101523,128,0,101582:0:0:0:0:
192,192,101523,128,0,101611:0:0:0:0:
320,192,101611,128,0,101700:0:0:0:0:
192,192,101700,128,2,102053:0:0:0:0:
448,192,101700,128,8,101876:0:0:0:0:
64,192,101788,128,0,101964:0:0:0:0:
320,192,101876,128,0,101964:0:0:0:0:
448,192,101964,128,0,102053:0:0:0:0:
64,192,102053,128,2,102229:0:0:0:0:
320,192,102053,1,0,0:0:0:0:
192,192,102141,128,0,102273:0:0:0:0:
320,192,102229,128,0,102317:0:0:0:0:
448,192,102229,128,0,102317:0:0:0:0:
64,192,102317,1,0,0:0:0:0:
448,192,102406,128,2,102582:0:0:0:0:
192,192,102406,1,8,0:0:0:0:
320,192,102494,128,0,102611:0:0:0:0:
192,192,102582,128,0,102670:0:0:0:0:
64,192,102582,128,0,102670:0:0:0:0:
320,192,102670,1,0,0:0:0:0:
64,192,102759,128,2,102935:0:0:0:0:
448,192,102759,128,0,102935:0:0:0:0:
192,192,102759,1,0,0:0:0:0:
320,192,102847,1,0,0:0:0:0:
192,192,102935,1,0,0:0:0:0:
448,192,103023,1,0,0:0:0:0:
320,192,103111,128,2,103288:0:0:0:0:
192,192,103111,128,0,103288:0:0:0:0:
64,192,103111,1,8,0:0:0:0:
448,192,103200,1,0,0:0:0:0:
64,192,103288,1,0,0:0:0:0:
448,192,103376,1,0,0:0:0:0:
192,192,103464,128,10,103641:0:0:0:0:
320,192,103464,128,4,103641:0:0:0:0:
64,192,103464,1,0,0:0:0:0:
448,192,103641,128,0,103729:0:0:0:0:
64,192,103641,128,0,103729:0:0:0:70:normal-hitnormal2.wav
192,192,103729,128,0,103817:0:0:0:0:
320,192,103729,128,0,103817:0:0:0:0:
448,192,103817,1,10,0:0:0:0:
64,192,103906,128,0,103994:0:0:0:0:
192,192,103906,128,0,103994:0:0:0:70:normal-hitnormal2.wav
320,192,103994,128,0,104082:0:0:0:0:
64,192,104082,128,0,104170:0:0:0:0:
448,192,104170,128,0,104259:0:0:0:70:normal-hitnormal2.wav
320,192,104170,128,10,104229:0:0:0:0:
192,192,104259,128,0,104347:0:0:0:0:
64,192,104259,128,0,104317:0:0:0:0:
320,192,104347,128,0,104435:0:0:0:0:
448,192,104347,128,0,104406:0:0:0:0:
192,192,104435,128,0,104523:0:0:0:70:normal-hitnormal2.wav
64,192,104523,128,8,104788:0:0:0:0:
448,192,104523,128,2,104700:0:0:0:0:
320,192,104611,128,0,104876:0:0:0:0:
192,192,104700,128,0,104788:0:0:0:70:normal-hitnormal2.wav
448,192,104788,128,0,104876:0:0:0:0:
64,192,104876,128,2,105053:0:0:0:0:
192,192,104876,1,8,0:0:0:0:
320,192,104964,128,0,105053:0:0:0:70:normal-hitnormal2.wav
192,192,105053,128,0,105141:0:0:0:0:
448,192,105053,128,0,105141:0:0:0:0:
64,192,105141,128,0,105229:0:0:0:0:
320,192,105141,128,0,105229:0:0:0:0:
192,192,105229,1,10,0:0:0:0:
448,192,105229,1,0,0:0:0:70:normal-hitnormal2.wav
64,192,105317,128,0,105406:0:0:0:0:
192,192,105406,128,0,105494:0:0:0:0:
320,192,105494,128,0,105582:0:0:0:70:normal-hitnormal2.wav
64,192,105582,128,2,105670:0:0:0:0:
448,192,105582,128,8,105847:0:0:0:0:
192,192,105670,128,0,105759:0:0:0:0:
64,192,105759,128,0,105847:0:0:0:0:
320,192,105759,128,0,105847:0:0:0:70:normal-hitnormal2.wav
192,192,105847,128,0,105935:0:0:0:0:
448,192,105935,128,2,106111:0:0:0:0:
64,192,105935,1,8,0:0:0:0:
320,192,106023,128,0,106156:0:0:0:0:
192,192,106111,128,0,106200:0:0:0:0:
64,192,106111,128,0,106200:0:0:0:0:
192,192,106288,128,8,106464:0:0:0:0:
320,192,106288,128,2,106464:0:0:0:0:
64,192,106464,128,0,106553:0:0:0:70:normal-hitnormal2.wav
448,192,106464,128,0,106553:0:0:0:0:
192,192,106553,128,0,106641:0:0:0:0:
320,192,106553,128,0,106641:0:0:0:0:
448,192,106641,1,10,0:0:0:0:
64,192,106729,128,0,106817:0:0:0:0:
192,192,106729,128,0,106817:0:0:0:70:normal-hitnormal2.wav
320,192,106817,128,0,106906:0:0:0:0:
64,192,106906,128,0,106994:0:0:0:0:
448,192,106994,128,0,107053:0:0:0:70:normal-hitnormal2.wav
192,192,106994,128,10,107082:0:0:0:0:
64,192,107082,128,0,107141:0:0:0:0:
320,192,107082,128,0,107170:0:0:0:0:
192,192,107170,128,0,107259:0:0:0:0:
448,192,107170,128,0,107229:0:0:0:0:
320,192,107259,128,0,107347:0:0:0:70:normal-hitnormal2.wav
192,192,107347,128,2,107700:0:0:0:0:
448,192,107347,128,8,107523:0:0:0:0:
64,192,107435,128,0,107611:0:0:0:0:
320,192,107523,128,0,107611:0:0:0:70:normal-hitnormal2.wav
448,192,107611,128,0,107700:0:0:0:0:
64,192,107700,128,10,107876:0:0:0:0:
320,192,107700,1,0,0:0:0:0:
192,192,107788,128,0,107906:0:0:0:0:
320,192,107876,128,0,107964:0:0:0:0:
448,192,107876,128,0,107964:0:0:0:0:
192,192,107964,1,0,0:0:0:0:
64,192,108053,128,0,108229:0:0:0:0:
448,192,108053,1,10,0:0:0:0:
192,192,108141,128,0,108259:0:0:0:0:
320,192,108229,128,0,108317:0:0:0:0:
448,192,108229,128,0,108317:0:0:0:0:
192,192,108317,1,0,0:0:0:0:
64,192,108406,128,0,108582:0:0:0:0:
448,192,108406,128,0,108582:0:0:0:0:
320,192,108406,1,10,0:0:0:0:
192,192,108494,1,0,0:0:0:0:
320,192,108582,1,0,0:0:0:0:
64,192,108670,1,0,0:0:0:0:
320,192,108759,128,0,108935:0:0:0:0:
192,192,108759,128,0,108935:0:0:0:0:
448,192,108759,1,10,0:0:0:0:
64,192,108847,1,0,0:0:0:0:
448,192,108935,1,0,0:0:0:0:
320,192,109023,1,0,0:0:0:0:
448,192,109111,1,2,0:0:0:0:
192,192,109111,128,0,109288:0:0:0:0:
64,192,109111,128,4,109288:0:0:0:0:
320,192,109288,128,0,109376:0:0:0:0:
448,192,109288,128,0,109376:0:0:0:70:normal-hitnormal2.wav
192,192,109376,128,0,109464:0:0:0:0:
64,192,109376,128,0,109464:0:0:0:0:
192,192,109553,128,0,109641:0:0:0:0:
64,192,109553,128,0,109641:0:0:0:70:normal-hitnormal2.wav
320,192,109641,128,0,109729:0:0:0:0:
192,192,109729,128,0,109817:0:0:0:0:
448,192,109817,128,0,109906:0:0:0:0:
320,192,109817,128,0,109906:0:0:0:70:normal-hitnormal2.wav
64,192,109906,128,0,109994:0:0:0:0:
448,192,109994,128,0,110082:0:0:0:0:
320,192,110082,128,0,110170:0:0:0:0:
192,192,110082,128,0,110170:0:0:0:70:normal-hitnormal2.wav
64,192,110170,128,0,110523:0:0:0:0:
320,192,110347,1,0,0:0:0:0:
448,192,110347,128,0,110435:0:0:0:70:normal-hitnormal2.wav
192,192,110523,128,0,110700:0:0:0:0:
320,192,110611,1,0,0:0:0:70:normal-hitnormal2.wav
448,192,110611,128,0,110700:0:0:0:0:
64,192,110700,128,0,110788:0:0:0:0:
320,192,110788,128,0,110876:0:0:0:0:
192,192,110876,1,0,0:0:0:0:
448,192,110876,128,0,110964:0:0:0:70:normal-hitnormal2.wav
320,192,110964,128,0,111053:0:0:0:0:
64,192,111053,128,0,111141:0:0:0:0:
192,192,111141,128,0,111229:0:0:0:70:normal-hitnormal2.wav
320,192,111141,128,0,111229:0:0:0:0:
448,192,111229,128,0,111317:0:0:0:0:
192,192,111317,1,0,0:0:0:0:
448,192,111406,128,0,111494:0:0:0:0:
64,192,111406,128,0,111494:0:0:0:70:normal-hitnormal2.wav
192,192,111494,1,0,0:0:0:0:
64,192,111582,128,0,111759:0:0:0:0:
448,192,111582,1,0,0:0:0:0:
192,192,111670,128,0,111803:0:0:0:0:
320,192,111759,128,0,111847:0:0:0:0:
448,192,111759,128,0,111847:0:0:0:0:
64,192,111935,1,8,0:0:0:0:
448,192,111935,128,0,112200:0:0:0:0:
192,192,112023,1,8,0:0:0:0:
320,192,112111,128,8,112200:0:0:0:0:
64,192,112111,1,0,0:0:0:0:
192,192,112200,1,8,0:0:0:0:
64,192,112288,128,8,112553:0:0:0:0:
448,192,112288,1,0,0:0:0:0:
320,192,112376,1,8,0:0:0:0:
192,192,112464,128,8,112553:0:0:0:0:
448,192,112464,1,0,0:0:0:0:
320,192,112553,128,8,112817:0:0:0:0:
192,192,112641,128,0,112729:0:0:0:0:
448,192,112641,128,8,112817:0:0:0:0:
64,192,112729,128,8,112906:0:0:0:0:
192,192,112817,128,8,112994:0:0:0:0:
320,192,112906,128,8,112994:0:0:0:0:
448,192,112994,128,8,113170:0:0:0:0:
64,192,112994,1,0,0:0:0:0:
320,192,113082,128,8,113214:0:0:0:0:
64,192,113170,128,8,113259:0:0:0:0:
192,192,113259,1,8,0:0:0:0:
320,192,113347,1,0,0:0:0:0:
64,192,113347,128,6,113523:0:0:0:0:
448,192,113347,1,0,0:0:0:0:
192,192,113435,128,0,113567:0:0:0:0:
320,192,113523,128,0,113611:0:0:0:0:
448,192,113523,128,0,113611:0:0:0:0:
64,192,113611,1,0,0:0:0:0:
448,192,113700,128,0,113876:0:0:0:0:
320,192,113788,128,0,113906:0:0:0:0:
192,192,113876,128,0,113964:0:0:0:0:
64,192,113876,128,0,113964:0:0:0:0:
320,192,113964,1,0,0:0:0:0:
64,192,114053,128,0,114317:0:0:0:0:
448,192,114053,128,0,114317:0:0:0:0:
192,192,114053,1,0,0:0:0:0:
320,192,114141,1,0,0:0:0:0:
192,192,114229,1,0,0:0:0:0:
192,192,114406,128,0,114670:0:0:0:0:
320,192,114406,128,0,114670:0:0:0:0:
448,192,114406,1,0,0:0:0:0:
64,192,114494,1,0,0:0:0:0:
448,192,114582,1,0,0:0:0:0:
320,192,114759,128,2,114935:0:0:0:0:
448,192,114759,128,0,114891:0:0:0:0:
192,192,114759,128,4,115023:0:0:0:0:
64,192,114759,128,0,114979:0:0:0:0:
