osu file format v14

[General]
AudioFilename: audio.mp3
AudioLeadIn: 0
PreviewTime: 70133
Countdown: 1
SampleSet: Normal
StackLeniency: 0.7
Mode: 1
LetterboxInBreaks: 0
WidescreenStoryboard: 0

[Editor]
DistanceSpacing: 0.9
BeatDivisor: 16
GridSize: 8
TimelineZoom: 1.4

[Metadata]
Title:Beat Juggling Mix
TitleUnicode:Beat Juggling Mix
Artist:Hommarju
ArtistUnicode:Hommarju
Creator:Ney
Version:Inner Oni
Source:beatmania IIDX 25 CANNON BALLERS
Tags:konami
BeatmapID:2065896
BeatmapSetID:987578

[Difficulty]
HPDrainRate:5.5
CircleSize:4
OverallDifficulty:7
ApproachRate:2.5
SliderMultiplier:1.4
SliderTickRate:1

[Events]
//Background and Video events
0,0,"weed.jpg",0,0
//Break Periods
//Storyboard Layer 0 (Background)
//Storyboard Layer 1 (Fail)
//Storyboard Layer 2 (Pass)
//Storyboard Layer 3 (Foreground)
//Storyboard Layer 4 (Overlay)
//Storyboard Sound Samples

[TimingPoints]
2222,571.428571428571,4,1,0,75,1,0
2222,-86.9565217391304,4,1,0,75,0,0
4507,-76.9230769230769,4,1,0,80,0,0
8793,-80,4,1,0,80,0,0
9064,571.428571428571,4,1,0,80,1,0
9064,-76.9230769230769,4,1,0,80,0,0
9349,-81.3008130081301,4,1,0,80,0,0
9635,-83.3333333333333,4,1,0,80,0,0
13635,-76.9230769230769,4,1,0,80,0,0
13921,-81.3008130081301,4,1,0,80,0,0
14206,-86.9565217391304,4,1,0,80,0,0
18206,-76.9230769230769,4,1,0,80,0,0
18492,-81.3008130081301,4,1,0,80,0,0
18635,-81.9672131147541,4,1,0,80,0,0
18706,-82.6446280991736,4,1,0,80,0,0
18778,-83.3333333333333,4,1,0,80,0,0
22778,-76.9230769230769,4,1,0,80,0,0
23064,-81.3008130081301,4,1,0,80,0,0
23921,-76.9230769230769,4,1,0,80,0,0
24206,-81.3008130081301,4,1,0,80,0,0
25063,-76.9230769230769,4,1,0,80,0,0
25349,-81.3008130081301,4,1,0,80,0,0
25635,-76.9230769230769,4,1,0,80,0,0
25921,-81.3008130081301,4,1,0,80,0,0
26206,-76.9230769230769,4,1,0,80,0,0
26492,-81.3008130081301,4,1,0,80,0,0
26778,-76.9230769230769,4,1,0,80,0,0
27349,-81.3008130081301,4,1,0,80,0,0
27635,-83.3333333333333,4,1,0,80,0,0
29064,-90.9090909090909,4,1,0,80,0,0
29445,-105.263157894737,4,1,0,80,0,0
29625,571.428571428571,4,1,0,80,1,8
31910,638.297872340426,4,1,0,80,1,0
31910,-111.111111111111,4,1,0,80,0,0
33718,-100,4,1,0,80,0,0
33824,-98.0392156862745,4,1,0,80,0,0
34037,-95.2380952380952,4,1,0,80,0,0
34144,-93.4579439252336,4,1,0,80,0,0
34463,-83.3333333333333,4,1,0,80,0,1
39144,-79.3650793650794,4,1,0,80,0,1
39250,-78.7401574803149,4,1,0,80,0,1
39463,-77.5193798449612,4,1,0,80,0,1
39569,-76.9230769230769,4,1,0,80,0,1
39888,-80,4,1,0,80,0,1
41803,-79.3650793650794,4,1,0,80,0,1
42016,-78.125,4,1,0,80,0,1
42122,-76.9230769230769,4,1,0,80,0,1
42441,-75.187969924812,4,1,0,80,0,1
43080,-73.5294117647059,4,1,0,80,0,1
43612,-71.4285714285714,4,1,0,80,0,1
43931,-70.4225352112676,4,1,0,80,0,1
44250,-69.4444444444444,4,1,0,80,0,1
44569,-68.0272108843537,4,1,0,80,0,1
44675,-68.0272108843537,4,1,0,80,0,0
44995,-74.0740740740741,4,1,0,80,0,0
45101,-75.187969924812,4,1,0,80,0,0
45207,-76.3358778625954,4,1,0,80,0,0
45314,-76.9230769230769,4,1,0,80,0,0
49356,-76.3358778625954,4,1,0,80,0,0
49463,-75.7575757575758,4,1,0,80,0,0
49675,-74.6268656716418,4,1,0,80,0,0
49782,-74.0740740740741,4,1,0,80,0,0
50021,-68.9655172413793,4,1,0,80,0,0
50500,-64.1025641025641,4,1,0,80,0,0
50979,-59.8802395209581,4,1,0,80,0,0
51457,-55.8659217877095,4,1,0,80,0,0
52016,-52.6315789473684,4,1,0,80,0,0
52341,319.148936170213,4,1,0,80,1,8
52341,-100,4,1,0,80,0,0
55213,-107.52688172043,4,1,0,55,0,0
55372,-111.111111111111,4,1,0,55,0,0
60000,-107.52688172043,4,1,0,60,0,0
62553,-104.166666666667,4,1,0,65,0,0
65106,-99.009900990099,4,1,0,75,0,0
65585,-98.0392156862745,4,1,0,75,0,0
66064,-97.0873786407767,4,1,0,75,0,0
66543,-96.1538461538461,4,1,0,75,0,0
67021,-95.2380952380952,4,1,0,75,0,0
67181,-94.3396226415094,4,1,0,75,0,0
67341,-93.4579439252336,4,1,0,75,0,0
67500,-92.5925925925926,4,1,0,75,0,0
67660,-90.9090909090909,4,1,0,80,0,0
70213,-86.9565217391304,4,1,0,80,0,1
80426,-76.9230769230769,4,1,0,80,0,1
81702,-86.9565217391304,4,1,0,80,0,1
90638,-90.9090909090909,4,1,0,80,0,0
100851,-80,4,1,0,80,0,0
101011,-84.7457627118644,4,1,0,80,0,0
101170,-80,4,1,0,80,0,0
101330,-84.7457627118644,4,1,0,80,0,0
101489,-80,4,1,0,80,0,0
101649,-84.7457627118644,4,1,0,80,0,0
101809,-80,4,1,0,80,0,0
101968,-84.7457627118644,4,1,0,80,0,0
102128,-86.9565217391304,4,1,0,80,0,0
105958,-81.9672131147541,4,1,0,80,0,0
106117,-83.3333333333333,4,1,0,80,0,0
106277,-81.9672131147541,4,1,0,80,0,0
106436,-83.3333333333333,4,1,0,80,0,0
106596,-81.9672131147541,4,1,0,80,0,0
106755,-83.3333333333333,4,1,0,80,0,0
106915,-81.9672131147541,4,1,0,80,0,0
107075,-83.3333333333333,4,1,0,80,0,0
107234,-81.9672131147541,4,1,0,80,0,0
107394,-81.3008130081301,4,1,0,80,0,0
107553,-80.6451612903226,4,1,0,80,0,0
107713,-80,4,1,0,80,0,0
107872,-79.3650793650794,4,1,0,80,0,0
108032,-78.7401574803149,4,1,0,80,0,0
108192,-78.125,4,1,0,80,0,0
108351,-77.5193798449612,4,1,0,80,0,0
108511,-76.9230769230769,4,1,0,80,0,0
109787,-77.5193798449612,4,1,0,80,0,0
110106,-78.125,4,1,0,80,0,0
110426,-78.7401574803149,4,1,0,80,0,0
110745,-79.3650793650794,4,1,0,80,0,0
111064,-80,4,1,0,80,0,0
111383,-89.2857142857143,4,1,0,80,0,0
111702,340.909090909091,4,1,0,80,1,8
111702,-83.3333333333333,4,1,0,80,0,8
112042,352.941176470588,4,1,0,80,1,8
112042,-92.5925925925926,4,1,0,80,0,0
112394,365.853658536585,4,1,0,80,1,0
112394,-89.2857142857143,4,1,0,80,0,0
112759,384.615384615385,4,1,0,80,1,8
112759,-93.4579439252336,4,1,0,80,0,0
113143,422.535211267606,4,1,0,80,1,8
113143,-84.7457627118644,4,1,0,80,0,8
113565,461.538461538462,4,1,0,80,1,8
113565,-85.4700854700855,4,1,0,80,0,0
114026,500,4,1,0,80,1,0
114026,-78.7401574803149,4,1,0,80,0,0

[HitObjects]
177,158,2222,5,12,0:0:0:0:
202,122,2579,1,0,0:0:0:0:
202,122,2793,1,8,0:0:0:0:
219,216,2888,1,0,0:0:0:0:
219,216,2983,1,0,0:0:0:0:
219,216,3079,1,8,0:0:0:0:
287,217,3221,1,8,0:0:0:0:
287,217,3364,1,0,0:0:0:0:
287,217,3436,1,0,0:0:0:0:
287,217,3507,1,8,0:0:0:0:
287,217,3579,1,0,0:0:0:0:
287,217,3650,1,8,0:0:0:0:
226,129,3793,1,8,0:0:0:0:
287,217,3936,1,0,0:0:0:0:
297,158,4221,1,0,0:0:0:0:
156,158,4507,1,12,0:0:0:0:
159,158,5650,1,12,0:0:0:0:
156,178,6793,1,12,0:0:0:0:
166,176,7364,1,12,0:0:0:0:
166,176,7936,1,12,0:0:0:0:
172,179,8079,1,12,0:0:0:0:
172,181,8221,1,12,0:0:0:0:
157,139,8793,1,0,0:0:0:0:
186,143,9064,1,12,0:0:0:0:
169,231,9349,1,0,0:0:0:0:
169,231,9635,1,8,0:0:0:0:
169,231,9921,1,0,0:0:0:0:
169,231,10064,1,0,0:0:0:0:
172,163,10206,1,8,0:0:0:0:
226,138,10349,1,8,0:0:0:0:
169,231,10492,1,0,0:0:0:0:
174,227,10778,1,8,0:0:0:0:
137,145,11063,1,8,0:0:0:0:
174,227,11349,1,0,0:0:0:0:
154,139,11635,1,8,0:0:0:0:
179,141,11778,1,0,0:0:0:0:
154,139,11921,1,8,0:0:0:0:
167,101,12206,1,8,0:0:0:0:
167,101,12397,1,8,0:0:0:0:
81,178,12492,1,0,0:0:0:0:
202,44,12683,1,8,0:0:0:0:
201,66,12778,1,0,0:0:0:0:
191,57,12968,1,0,0:0:0:0:
182,122,13063,1,8,0:0:0:0:
221,42,13349,1,0,0:0:0:0:
217,79,13635,1,12,0:0:0:0:
237,114,13921,1,0,0:0:0:0:
237,114,14206,1,8,0:0:0:0:
242,124,14492,1,0,0:0:0:0:
242,124,14635,1,0,0:0:0:0:
224,127,14778,1,8,0:0:0:0:
236,127,14873,1,0,0:0:0:0:
236,127,14968,1,0,0:0:0:0:
367,139,15063,1,8,0:0:0:0:
219,72,15206,1,0,0:0:0:0:
239,127,15349,1,8,0:0:0:0:
201,113,15635,1,8,0:0:0:0:
201,113,15921,1,0,0:0:0:0:
266,100,16063,1,0,0:0:0:0:
266,100,16206,1,8,0:0:0:0:
272,98,16254,1,0,0:0:0:0:
299,37,16492,1,8,0:0:0:0:
346,118,16587,1,8,0:0:0:0:
309,48,16683,1,8,0:0:0:0:
336,53,16778,1,0,0:0:0:0:
411,70,16921,1,8,0:0:0:0:
389,63,17063,1,0,0:0:0:0:
214,94,17206,1,0,0:0:0:0:
322,95,17349,1,8,0:0:0:0:
322,95,17492,1,8,0:0:0:0:
336,68,17635,1,0,0:0:0:0:
307,117,17921,1,8,0:0:0:0:
307,117,17956,1,8,0:0:0:0:
307,117,18063,1,0,0:0:0:0:
307,117,18099,1,0,0:0:0:0:
307,117,18206,1,12,0:0:0:0:
246,138,18492,1,0,0:0:0:0:
334,135,18635,1,0,0:0:0:0:
334,135,18706,1,0,0:0:0:0:
334,135,18778,1,8,0:0:0:0:
299,128,19063,1,8,0:0:0:0:
279,120,19099,1,8,0:0:0:0:
442,107,19206,1,0,0:0:0:0:
436,108,19349,1,0,0:0:0:0:
307,140,19492,1,0,0:0:0:0:
307,140,19563,1,0,0:0:0:0:
307,140,19635,1,8,0:0:0:0:
307,140,19778,1,8,0:0:0:0:
307,140,19849,1,0,0:0:0:0:
307,140,19921,1,8,0:0:0:0:
219,62,19992,1,8,0:0:0:0:
316,135,20063,1,0,0:0:0:0:
316,135,20206,1,8,0:0:0:0:
196,87,20492,1,0,0:0:0:0:
212,77,20635,1,8,0:0:0:0:
196,87,20706,1,0,0:0:0:0:
196,87,20778,1,8,0:0:0:0:
177,87,20921,1,0,0:0:0:0:
177,87,21063,1,8,0:0:0:0:
177,87,21135,1,8,0:0:0:0:
177,90,21206,1,0,0:0:0:0:
177,90,21278,1,0,0:0:0:0:
192,103,21349,1,8,0:0:0:0:
179,47,21492,1,0,0:0:0:0:
177,72,21635,1,8,0:0:0:0:
219,43,21706,1,8,0:0:0:0:
177,72,21778,1,0,0:0:0:0:
177,72,21849,1,8,0:0:0:0:
177,72,21921,1,8,0:0:0:0:
231,68,22063,1,8,0:0:0:0:
231,68,22206,1,0,0:0:0:0:
237,68,22492,1,8,0:0:0:0:
316,70,22528,1,0,0:0:0:0:
261,85,22778,1,12,0:0:0:0:
182,105,23063,1,0,0:0:0:0:
182,105,23349,1,8,0:0:0:0:
194,60,23635,1,8,0:0:0:0:
231,153,23671,1,8,0:0:0:0:
194,60,23778,1,0,0:0:0:0:
231,158,23813,1,0,0:0:0:0:
286,82,23921,1,12,0:0:0:0:
191,92,24206,1,0,0:0:0:0:
191,92,24492,1,8,0:0:0:0:
231,147,24778,1,8,0:0:0:0:
231,147,24813,1,0,0:0:0:0:
231,147,24921,1,8,0:0:0:0:
231,147,24956,1,0,0:0:0:0:
271,88,25063,1,12,0:0:0:0:
207,88,25349,1,0,0:0:0:0:
271,88,25635,1,12,0:0:0:0:
217,98,25921,1,0,0:0:0:0:
271,88,26206,1,12,0:0:0:0:
217,98,26492,1,0,0:0:0:0:
319,115,26540,1,0,0:0:0:0:
271,88,26778,1,12,0:0:0:0:
254,103,27063,1,8,0:0:0:0:
256,95,27111,1,0,0:0:0:0:
256,77,27349,1,0,0:0:0:0:
229,73,27635,1,8,0:0:0:0:
229,73,27921,1,0,0:0:0:0:
229,87,28206,1,8,0:0:0:0:
246,87,28349,1,0,0:0:0:0:
179,58,28492,1,8,0:0:0:0:
246,87,28778,1,8,0:0:0:0:
246,87,29063,1,0,0:0:0:0:
146,178,29444,1,8,0:0:0:0:
274,182,31910,1,8,0:0:0:0:
189,175,32548,1,8,0:0:0:0:
189,175,33186,1,8,0:0:0:0:
189,175,33718,1,0,0:0:0:0:
194,183,33824,1,8,0:0:0:0:
194,183,34037,1,0,0:0:0:0:
194,183,34144,1,0,0:0:0:0:
264,145,34463,1,4,0:0:0:0:
222,142,34782,1,8,0:0:0:0:
221,92,34888,1,0,0:0:0:0:
221,92,34995,1,0,0:0:0:0:
172,105,35101,1,8,0:0:0:0:
246,120,35420,1,8,0:0:0:0:
226,48,35633,1,0,0:0:0:0:
196,82,35739,1,0,0:0:0:0:
142,93,35952,1,0,0:0:0:0:
142,93,36058,1,0,0:0:0:0:
167,85,36271,1,0,0:0:0:0:
167,85,36378,1,8,0:0:0:0:
199,67,36590,1,0,0:0:0:0:
196,82,36697,1,0,0:0:0:0:
241,53,36910,1,8,0:0:0:0:
137,178,37016,1,4,0:0:0:0:
219,73,37335,1,8,0:0:0:0:
231,75,37441,1,0,0:0:0:0:
227,75,37548,1,0,0:0:0:0:
222,73,37654,1,8,0:0:0:0:
267,78,37973,1,8,0:0:0:0:
219,90,38186,1,0,0:0:0:0:
219,90,38292,1,0,0:0:0:0:
226,85,38505,1,0,0:0:0:0:
226,85,38612,1,0,0:0:0:0:
231,75,38824,1,0,0:0:0:0:
239,60,38931,1,8,0:0:0:0:
241,70,39144,1,8,0:0:0:0:
241,70,39250,1,8,0:0:0:0:
246,60,39463,1,8,0:0:0:0:
216,143,39569,1,4,0:0:0:0:
227,57,39888,1,8,0:0:0:0:
246,57,39995,1,0,0:0:0:0:
246,62,40101,1,0,0:0:0:0:
229,57,40207,1,8,0:0:0:0:
261,57,40527,1,8,0:0:0:0:
227,57,40739,1,0,0:0:0:0:
227,57,40846,1,0,0:0:0:0:
231,47,41058,1,0,0:0:0:0:
231,47,41165,1,0,0:0:0:0:
222,38,41378,1,0,0:0:0:0:
229,43,41484,1,8,0:0:0:0:
254,55,41697,1,0,0:0:0:0:
242,57,41803,1,8,0:0:0:0:
244,57,42016,1,8,0:0:0:0:
172,142,42122,1,4,0:0:0:0:
242,55,42441,1,8,0:0:0:0:
242,27,42548,1,0,0:0:0:0:
244,52,42654,1,8,0:0:0:0:
172,142,42761,1,4,0:0:0:0:
239,63,43080,1,0,0:0:0:0:
239,63,43186,1,0,0:0:0:0:
234,50,43292,1,8,0:0:0:0:
172,142,43399,1,4,0:0:0:0:
232,45,43612,1,8,0:0:0:0:
172,142,43718,1,4,0:0:0:0:
232,45,43931,1,8,0:0:0:0:
172,142,44037,1,4,0:0:0:0:
246,23,44250,1,0,0:0:0:0:
224,122,44356,1,8,0:0:0:0:
246,23,44569,1,8,0:0:0:0:
241,127,44675,1,4,0:0:0:0:
184,135,44995,1,8,0:0:0:0:
209,98,45101,1,0,0:0:0:0:
216,97,45207,1,0,0:0:0:0:
284,53,45314,1,8,0:0:0:0:
272,57,45354,1,8,0:0:0:0:
266,58,45633,1,8,0:0:0:0:
266,58,45673,1,8,0:0:0:0:
271,128,45952,1,0,0:0:0:0:
262,107,46165,1,0,0:0:0:0:
262,107,46271,1,0,0:0:0:0:
257,108,46484,1,0,0:0:0:0:
261,105,46590,1,8,0:0:0:0:
284,52,46803,1,0,0:0:0:0:
262,100,46910,1,0,0:0:0:0:
279,53,47122,1,8,0:0:0:0:
211,160,47229,1,4,0:0:0:0:
204,57,47548,1,8,0:0:0:0:
232,33,47654,1,0,0:0:0:0:
237,33,47761,1,0,0:0:0:0:
192,52,47867,1,8,0:0:0:0:
316,85,47907,1,8,0:0:0:0:
192,52,48186,1,8,0:0:0:0:
316,85,48226,1,8,0:0:0:0:
244,142,48505,1,0,0:0:0:0:
232,73,48718,1,0,0:0:0:0:
232,73,48824,1,0,0:0:0:0:
247,63,49037,1,0,0:0:0:0:
247,63,49144,1,8,0:0:0:0:
271,50,49356,1,8,0:0:0:0:
271,50,49463,1,8,0:0:0:0:
271,50,49675,1,8,0:0:0:0:
132,148,49782,1,4,0:0:0:0:
264,92,50021,1,0,0:0:0:0:
259,77,50101,1,8,0:0:0:0:
182,145,50261,1,4,0:0:0:0:
264,92,50500,1,0,0:0:0:0:
259,77,50580,1,8,0:0:0:0:
182,145,50739,1,4,0:0:0:0:
264,92,50979,1,0,0:0:0:0:
259,77,51058,1,8,0:0:0:0:
186,157,51218,1,4,0:0:0:0:
264,92,51457,1,0,0:0:0:0:
259,77,51537,1,8,0:0:0:0:
199,135,51697,1,4,0:0:0:0:
256,192,52016,12,0,53298,0:0:0:0:
234,143,53617,5,0,0:0:0:0:
234,143,53697,1,0,0:0:0:0:
234,143,53777,1,0,0:0:0:0:
234,143,53856,1,0,0:0:0:0:
234,143,53936,1,8,0:0:0:0:
224,60,54016,1,0,0:0:0:0:
222,97,54096,1,8,0:0:0:0:
227,85,54176,1,8,0:0:0:0:
222,97,54255,1,0,0:0:0:0:
222,97,54335,1,0,0:0:0:0:
222,97,54415,1,8,0:0:0:0:
222,97,54495,1,0,0:0:0:0:
222,97,54575,1,8,0:0:0:0:
224,60,54654,1,8,0:0:0:0:
224,60,54734,1,8,0:0:0:0:
224,60,54814,1,8,0:0:0:0:
229,58,54894,1,0,0:0:0:0:
211,65,55213,1,8,0:0:0:0:
211,65,55372,1,0,0:0:0:0:
224,60,55692,1,0,0:0:0:0:
222,68,56011,1,8,0:0:0:0:
222,68,56330,1,0,0:0:0:0:
222,68,56489,1,0,0:0:0:0:
222,68,56649,1,0,0:0:0:0:
222,68,56809,1,8,0:0:0:0:
222,68,56968,1,8,0:0:0:0:
212,103,57447,1,8,0:0:0:0:
212,103,57766,1,0,0:0:0:0:
212,103,57926,1,8,0:0:0:0:
219,87,58245,1,0,0:0:0:0:
222,87,58564,1,8,0:0:0:0:
224,88,58883,1,8,0:0:0:0:
222,72,59043,1,0,0:0:0:0:
222,72,59202,1,0,0:0:0:0:
222,87,59362,1,8,0:0:0:0:
222,87,59521,1,8,0:0:0:0:
232,68,60000,1,0,0:0:0:0:
231,68,60319,1,8,0:0:0:0:
231,68,60479,1,0,0:0:0:0:
202,85,60718,1,0,0:0:0:0:
232,68,60798,1,0,0:0:0:0:
211,70,60958,1,8,0:0:0:0:
156,42,61117,1,0,0:0:0:0:
221,83,61436,1,0,0:0:0:0:
217,77,61596,1,8,0:0:0:0:
232,68,61755,1,0,0:0:0:0:
216,77,61835,1,0,0:0:0:0:
231,68,61915,1,8,0:0:0:0:
207,57,62075,1,0,0:0:0:0:
207,57,62234,1,8,0:0:0:0:
212,103,62553,1,8,0:0:0:0:
212,103,62872,1,0,0:0:0:0:
212,103,63032,1,8,0:0:0:0:
232,102,63271,1,0,0:0:0:0:
219,87,63351,1,0,0:0:0:0:
231,62,63511,1,8,0:0:0:0:
222,87,63670,1,8,0:0:0:0:
192,47,63989,1,8,0:0:0:0:
224,88,64149,1,8,0:0:0:0:
222,72,64309,1,0,0:0:0:0:
149,140,64388,1,0,0:0:0:0:
222,87,64468,1,8,0:0:0:0:
149,140,64548,1,0,0:0:0:0:
222,87,64628,1,8,0:0:0:0:
211,72,64787,1,8,0:0:0:0:
224,80,65106,1,8,0:0:0:0:
224,112,65266,1,0,0:0:0:0:
224,112,65426,1,0,0:0:0:0:
224,80,65585,1,8,0:0:0:0:
234,108,65745,1,0,0:0:0:0:
232,108,65904,1,0,0:0:0:0:
224,80,66064,1,8,0:0:0:0:
232,108,66223,1,0,0:0:0:0:
232,105,66383,1,0,0:0:0:0:
227,70,66543,1,8,0:0:0:0:
234,108,66702,1,0,0:0:0:0:
232,108,66862,1,0,0:0:0:0:
229,67,67021,1,8,0:0:0:0:
172,117,67181,1,8,0:0:0:0:
232,105,67341,1,8,0:0:0:0:
227,103,67500,1,8,0:0:0:0:
222,105,67660,1,0,0:0:0:0:
222,105,67739,1,0,0:0:0:0:
222,105,67819,1,0,0:0:0:0:
222,105,67899,1,0,0:0:0:0:
222,105,67979,1,8,0:0:0:0:
222,105,68059,1,8,0:0:0:0:
222,105,68138,1,8,0:0:0:0:
222,105,68218,1,8,0:0:0:0:
222,108,68298,1,0,0:0:0:0:
222,108,68378,1,0,0:0:0:0:
217,113,68458,1,8,0:0:0:0:
216,113,68537,1,8,0:0:0:0:
212,120,68617,1,0,0:0:0:0:
212,120,68697,1,8,0:0:0:0:
212,120,68777,1,8,0:0:0:0:
212,120,68856,1,8,0:0:0:0:
212,120,68936,1,0,0:0:0:0:
211,120,69096,1,8,0:0:0:0:
211,120,69176,1,8,0:0:0:0:
211,120,69255,1,0,0:0:0:0:
211,120,69415,1,8,0:0:0:0:
211,120,69575,1,0,0:0:0:0:
212,120,69894,1,8,0:0:0:0:
181,165,70213,1,4,0:0:0:0:
171,143,70372,1,0,0:0:0:0:
166,145,70532,1,8,0:0:0:0:
176,142,70692,1,0,0:0:0:0:
176,142,70771,1,0,0:0:0:0:
166,145,70851,1,8,0:0:0:0:
166,145,70931,1,8,0:0:0:0:
166,145,71011,1,0,0:0:0:0:
166,145,71170,1,8,0:0:0:0:
166,145,71330,1,0,0:0:0:0:
166,145,71410,1,0,0:0:0:0:
166,145,71489,1,8,0:0:0:0:
166,145,71569,1,8,0:0:0:0:
166,145,71649,1,0,0:0:0:0:
217,127,71809,1,8,0:0:0:0:
231,68,71968,1,0,0:0:0:0:
194,83,72048,1,0,0:0:0:0:
231,68,72128,1,8,0:0:0:0:
209,73,72287,1,0,0:0:0:0:
217,127,72447,1,8,0:0:0:0:
216,82,72606,1,0,0:0:0:0:
222,67,72766,1,8,0:0:0:0:
221,50,72926,1,8,0:0:0:0:
216,68,73005,1,0,0:0:0:0:
216,68,73085,1,0,0:0:0:0:
209,53,73245,1,8,0:0:0:0:
219,62,73325,1,0,0:0:0:0:
222,57,73404,1,0,0:0:0:0:
219,37,73564,1,0,0:0:0:0:
222,67,73723,1,8,0:0:0:0:
204,40,73883,1,8,0:0:0:0:
214,57,73963,1,0,0:0:0:0:
221,62,74043,1,0,0:0:0:0:
234,43,74202,1,8,0:0:0:0:
234,43,74282,1,8,0:0:0:0:
216,80,74362,1,0,0:0:0:0:
222,67,74521,1,0,0:0:0:0:
232,45,74681,1,8,0:0:0:0:
219,78,74761,1,0,0:0:0:0:
234,43,74841,1,8,0:0:0:0:
227,48,74920,1,8,0:0:0:0:
207,80,75000,1,0,0:0:0:0:
207,68,75160,1,8,0:0:0:0:
207,68,75319,1,0,0:0:0:0:
206,82,75559,1,0,0:0:0:0:
211,80,75638,1,8,0:0:0:0:
179,87,75798,1,0,0:0:0:0:
184,77,75878,1,0,0:0:0:0:
191,88,75958,1,8,0:0:0:0:
191,88,76037,1,8,0:0:0:0:
184,77,76117,1,0,0:0:0:0:
191,88,76277,1,8,0:0:0:0:
187,77,76436,1,0,0:0:0:0:
187,77,76516,1,0,0:0:0:0:
184,87,76596,1,8,0:0:0:0:
182,85,76676,1,8,0:0:0:0:
207,53,76755,1,0,0:0:0:0:
201,68,76915,1,8,0:0:0:0:
207,62,77075,1,8,0:0:0:0:
207,63,77154,1,0,0:0:0:0:
207,53,77234,1,8,0:0:0:0:
204,62,77314,1,0,0:0:0:0:
204,67,77394,1,0,0:0:0:0:
204,67,77553,1,8,0:0:0:0:
216,52,77713,1,0,0:0:0:0:
211,43,77872,1,8,0:0:0:0:
174,88,78032,1,0,0:0:0:0:
199,80,78112,1,0,0:0:0:0:
191,85,78192,1,8,0:0:0:0:
204,62,78351,1,8,0:0:0:0:
191,80,78431,1,0,0:0:0:0:
204,62,78511,1,0,0:0:0:0:
194,73,78670,1,0,0:0:0:0:
194,73,78830,1,8,0:0:0:0:
204,62,78989,1,8,0:0:0:0:
199,62,79069,1,8,0:0:0:0:
192,78,79149,1,0,0:0:0:0:
196,57,79309,1,8,0:0:0:0:
211,57,79388,1,0,0:0:0:0:
222,48,79468,1,0,0:0:0:0:
216,57,79628,1,0,0:0:0:0:
209,57,79787,1,8,0:0:0:0:
226,58,79867,1,0,0:0:0:0:
207,57,79947,1,8,0:0:0:0:
207,57,80027,1,8,0:0:0:0:
221,60,80106,1,0,0:0:0:0:
221,60,80186,1,0,0:0:0:0:
211,42,80266,1,8,0:0:0:0:
192,100,80426,5,4,0:0:0:0:
192,100,80745,1,4,0:0:0:0:
192,100,81064,1,4,0:0:0:0:
192,100,81383,1,4,0:0:0:0:
196,82,81702,1,8,0:0:0:0:
207,70,81782,1,8,0:0:0:0:
211,62,81862,1,0,0:0:0:0:
202,70,82021,1,8,0:0:0:0:
207,53,82181,1,0,0:0:0:0:
221,47,82261,1,0,0:0:0:0:
214,55,82341,1,8,0:0:0:0:
217,33,82420,1,8,0:0:0:0:
231,37,82500,1,0,0:0:0:0:
231,37,82660,1,8,0:0:0:0:
212,55,82819,1,0,0:0:0:0:
212,55,82979,1,8,0:0:0:0:
186,65,83059,1,0,0:0:0:0:
219,50,83138,1,0,0:0:0:0:
221,47,83298,1,8,0:0:0:0:
204,58,83458,1,8,0:0:0:0:
217,48,83537,1,0,0:0:0:0:
217,50,83617,1,0,0:0:0:0:
209,45,83777,1,0,0:0:0:0:
222,53,83936,1,8,0:0:0:0:
229,55,84096,1,8,0:0:0:0:
224,47,84176,1,0,0:0:0:0:
221,47,84255,1,0,0:0:0:0:
219,52,84415,1,8,0:0:0:0:
232,50,84495,1,8,0:0:0:0:
229,50,84575,1,0,0:0:0:0:
226,53,84734,1,0,0:0:0:0:
224,53,84814,1,0,0:0:0:0:
236,38,84894,1,8,0:0:0:0:
241,37,84973,1,0,0:0:0:0:
237,38,85053,1,0,0:0:0:0:
234,48,85213,1,8,0:0:0:0:
223,27,85293,1,0,0:0:0:0:
219,52,85372,1,8,0:0:0:0:
217,53,85532,1,0,0:0:0:0:
247,53,85692,1,0,0:0:0:0:
247,53,85851,1,0,0:0:0:0:
247,53,86011,1,0,0:0:0:0:
229,60,86170,1,8,0:0:0:0:
247,53,86330,1,0,0:0:0:0:
247,53,86489,1,0,0:0:0:0:
247,53,86649,1,0,0:0:0:0:
229,60,86809,1,8,0:0:0:0:
244,62,86968,1,0,0:0:0:0:
229,60,87128,1,8,0:0:0:0:
244,62,87287,1,0,0:0:0:0:
227,60,87447,1,8,0:0:0:0:
244,62,87606,1,0,0:0:0:0:
229,60,87766,1,8,0:0:0:0:
229,60,87926,1,8,0:0:0:0:
234,75,88085,1,0,0:0:0:0:
206,78,88165,1,0,0:0:0:0:
206,78,88245,1,8,0:0:0:0:
206,78,88325,1,8,0:0:0:0:
234,75,88404,1,0,0:0:0:0:
206,78,88484,1,0,0:0:0:0:
206,78,88564,1,8,0:0:0:0:
206,78,88644,1,8,0:0:0:0:
211,78,88723,1,0,0:0:0:0:
206,78,88803,1,8,0:0:0:0:
206,78,88883,1,8,0:0:0:0:
206,78,88963,1,8,0:0:0:0:
206,78,89043,1,0,0:0:0:0:
206,78,89122,1,8,0:0:0:0:
206,78,89202,1,8,0:0:0:0:
206,78,89282,1,8,0:0:0:0:
206,78,89362,1,0,0:0:0:0:
199,72,89521,1,8,0:0:0:0:
199,72,89601,1,8,0:0:0:0:
236,45,89681,1,0,0:0:0:0:
222,55,89761,1,8,0:0:0:0:
236,45,89841,1,0,0:0:0:0:
222,55,89920,1,8,0:0:0:0:
236,45,90000,1,0,0:0:0:0:
229,63,90319,1,8,0:0:0:0:
232,65,90638,1,12,0:0:0:0:
229,97,90798,1,0,0:0:0:0:
231,87,90958,1,8,0:0:0:0:
227,91,91037,1,8,0:0:0:0:
157,159,91117,1,0,0:0:0:0:
157,159,91197,1,0,0:0:0:0:
232,91,91277,1,8,0:0:0:0:
157,159,91356,1,0,0:0:0:0:
157,159,91436,1,0,0:0:0:0:
217,116,91516,1,8,0:0:0:0:
217,116,91596,1,8,0:0:0:0:
219,81,91676,1,0,0:0:0:0:
207,116,91755,1,8,0:0:0:0:
177,94,91915,1,0,0:0:0:0:
177,94,92075,1,8,0:0:0:0:
266,92,92154,1,0,0:0:0:0:
266,92,92234,1,0,0:0:0:0:
232,66,92394,1,8,0:0:0:0:
234,66,92473,1,8,0:0:0:0:
244,79,92553,1,0,0:0:0:0:
246,67,92633,1,8,0:0:0:0:
244,79,92713,1,0,0:0:0:0:
242,67,92793,1,8,0:0:0:0:
242,67,92872,1,8,0:0:0:0:
206,52,93032,1,0,0:0:0:0:
232,59,93192,1,8,0:0:0:0:
232,66,93271,1,8,0:0:0:0:
199,71,93351,1,0,0:0:0:0:
192,66,93431,1,8,0:0:0:0:
199,71,93591,1,0,0:0:0:0:
204,82,93670,1,8,0:0:0:0:
199,86,93830,1,8,0:0:0:0:
211,44,93910,1,0,0:0:0:0:
216,72,93989,1,8,0:0:0:0:
211,44,94069,1,0,0:0:0:0:
232,59,94149,1,8,0:0:0:0:
236,44,94229,1,8,0:0:0:0:
214,31,94309,1,0,0:0:0:0:
234,44,94388,1,8,0:0:0:0:
219,21,94548,1,0,0:0:0:0:
226,72,94628,1,8,0:0:0:0:
224,72,94708,1,8,0:0:0:0:
182,82,94787,1,0,0:0:0:0:
231,59,94867,1,8,0:0:0:0:
202,57,95027,1,0,0:0:0:0:
232,59,95106,1,8,0:0:0:0:
317,91,95186,1,8,0:0:0:0:
214,87,95346,1,0,0:0:0:0:
239,71,95426,1,8,0:0:0:0:
216,86,95505,1,0,0:0:0:0:
239,71,95585,1,8,0:0:0:0:
221,72,95665,1,8,0:0:0:0:
244,67,95745,1,0,0:0:0:0:
282,163,96064,1,8,0:0:0:0:
287,87,96144,1,0,0:0:0:0:
296,156,96223,1,8,0:0:0:0:
302,144,96303,1,8,0:0:0:0:
289,94,96383,1,0,0:0:0:0:
287,122,96543,1,8,0:0:0:0:
269,89,96702,1,0,0:0:0:0:
257,89,96862,1,8,0:0:0:0:
262,69,96942,1,0,0:0:0:0:
271,62,97021,1,8,0:0:0:0:
289,97,97181,1,0,0:0:0:0:
254,116,97341,1,8,0:0:0:0:
247,106,97380,1,8,0:0:0:0:
261,41,97500,1,0,0:0:0:0:
234,91,97660,1,0,0:0:0:0:
241,57,97819,1,0,0:0:0:0:
242,51,97899,1,0,0:0:0:0:
259,57,97979,1,8,0:0:0:0:
241,54,98059,1,0,0:0:0:0:
257,59,98138,1,8,0:0:0:0:
259,54,98218,1,8,0:0:0:0:
261,41,98298,1,0,0:0:0:0:
219,51,98458,1,0,0:0:0:0:
219,51,98617,1,8,0:0:0:0:
219,51,98697,1,8,0:0:0:0:
222,31,98777,1,0,0:0:0:0:
207,39,98856,1,8,0:0:0:0:
217,56,99016,1,0,0:0:0:0:
217,52,99096,1,8,0:0:0:0:
219,51,99176,1,8,0:0:0:0:
216,57,99255,1,0,0:0:0:0:
207,62,99415,1,8,0:0:0:0:
207,62,99495,1,8,0:0:0:0:
239,32,99575,1,0,0:0:0:0:
231,44,99654,1,8,0:0:0:0:
222,31,99734,1,8,0:0:0:0:
252,24,99814,1,0,0:0:0:0:
231,44,99894,1,8,0:0:0:0:
252,24,100053,1,0,0:0:0:0:
221,46,100133,1,8,0:0:0:0:
219,51,100213,1,8,0:0:0:0:
252,27,100293,1,0,0:0:0:0:
221,52,100372,1,8,0:0:0:0:
249,31,100532,1,0,0:0:0:0:
224,51,100612,1,8,0:0:0:0:
224,51,100692,1,8,0:0:0:0:
236,42,100851,1,4,0:0:0:0:
256,54,101011,1,8,0:0:0:0:
236,42,101170,1,4,0:0:0:0:
256,54,101330,1,8,0:0:0:0:
236,42,101489,1,4,0:0:0:0:
256,54,101649,1,8,0:0:0:0:
236,42,101809,1,4,0:0:0:0:
256,54,101968,1,8,0:0:0:0:
236,42,102128,1,4,0:0:0:0:
224,70,102287,1,0,0:0:0:0:
222,50,102367,1,0,0:0:0:0:
229,70,102447,1,8,0:0:0:0:
221,57,102606,1,8,0:0:0:0:
242,52,102766,1,0,0:0:0:0:
237,58,102846,1,0,0:0:0:0:
239,63,102926,1,8,0:0:0:0:
239,62,103005,1,8,0:0:0:0:
236,42,103085,1,0,0:0:0:0:
242,33,103165,1,0,0:0:0:0:
229,70,103245,1,8,0:0:0:0:
249,57,103325,1,0,0:0:0:0:
254,52,103404,1,8,0:0:0:0:
294,103,103458,1,8,0:0:0:0:
294,103,103511,1,0,0:0:0:0:
294,103,103564,1,0,0:0:0:0:
294,103,103644,1,8,0:0:0:0:
227,82,103883,1,0,0:0:0:0:
221,63,103963,1,0,0:0:0:0:
257,47,104043,1,8,0:0:0:0:
254,68,104122,1,0,0:0:0:0:
244,52,104202,1,8,0:0:0:0:
222,73,104282,1,8,0:0:0:0:
264,92,104362,1,8,0:0:0:0:
256,72,104442,1,0,0:0:0:0:
247,47,104521,1,8,0:0:0:0:
269,60,104601,1,0,0:0:0:0:
244,73,104681,1,8,0:0:0:0:
322,90,104734,1,8,0:0:0:0:
322,90,104787,1,0,0:0:0:0:
277,88,104841,1,0,0:0:0:0:
276,78,104920,1,8,0:0:0:0:
261,33,105080,1,0,0:0:0:0:
274,63,105160,1,8,0:0:0:0:
249,62,105239,1,8,0:0:0:0:
261,33,105319,1,0,0:0:0:0:
256,53,105399,1,0,0:0:0:0:
256,58,105479,1,8,0:0:0:0:
252,38,105559,1,0,0:0:0:0:
247,58,105638,1,8,0:0:0:0:
266,52,105798,1,8,0:0:0:0:
266,52,105958,1,0,0:0:0:0:
234,67,106117,1,8,0:0:0:0:
234,67,106277,1,0,0:0:0:0:
234,67,106436,1,8,0:0:0:0:
234,67,106596,1,0,0:0:0:0:
234,67,106755,1,8,0:0:0:0:
234,67,106915,1,0,0:0:0:0:
239,52,107075,1,8,0:0:0:0:
231,85,107234,1,0,0:0:0:0:
231,85,107394,1,0,0:0:0:0:
231,85,107553,1,0,0:0:0:0:
231,85,107713,1,0,0:0:0:0:
231,85,107872,1,0,0:0:0:0:
231,85,108032,1,0,0:0:0:0:
231,85,108192,1,0,0:0:0:0:
231,85,108351,1,0,0:0:0:0:
246,90,108511,1,8,0:0:0:0:
236,82,108591,1,8,0:0:0:0:
237,72,108670,1,0,0:0:0:0:
231,85,108750,1,0,0:0:0:0:
249,100,108830,1,8,0:0:0:0:
236,82,108910,1,8,0:0:0:0:
239,73,108989,1,0,0:0:0:0:
231,85,109069,1,0,0:0:0:0:
247,100,109149,1,8,0:0:0:0:
236,82,109229,1,8,0:0:0:0:
239,73,109309,1,0,0:0:0:0:
231,85,109388,1,0,0:0:0:0:
244,100,109468,1,8,0:0:0:0:
236,82,109548,1,8,0:0:0:0:
239,73,109628,1,0,0:0:0:0:
214,75,109708,1,8,0:0:0:0:
202,65,109787,1,0,0:0:0:0:
217,72,109841,1,0,0:0:0:0:
217,72,109894,1,8,0:0:0:0:
217,72,109947,1,8,0:0:0:0:
217,72,110000,1,8,0:0:0:0:
217,72,110053,1,8,0:0:0:0:
217,72,110106,1,0,0:0:0:0:
209,68,110186,1,0,0:0:0:0:
242,73,110266,1,8,0:0:0:0:
221,58,110346,1,8,0:0:0:0:
226,37,110426,1,0,0:0:0:0:
222,45,110505,1,0,0:0:0:0:
224,50,110585,1,8,0:0:0:0:
224,50,110665,1,8,0:0:0:0:
239,55,110745,1,0,0:0:0:0:
246,35,110825,1,8,0:0:0:0:
224,57,110904,1,8,0:0:0:0:
217,62,110984,1,8,0:0:0:0:
242,52,111064,1,4,0:0:0:0:
217,63,111383,1,8,0:0:0:0:
217,63,111463,1,0,0:0:0:0:
217,63,111543,1,8,0:0:0:0:
217,63,111622,1,8,0:0:0:0:
247,140,111702,1,4,0:0:0:0:
182,93,112042,1,8,0:0:0:0:
182,93,112130,1,8,0:0:0:0:
182,93,112218,1,0,0:0:0:0:
182,93,112306,1,8,0:0:0:0:
247,140,112394,1,4,0:0:0:0:
182,93,112759,1,0,0:0:0:0:
174,93,112855,1,0,0:0:0:0:
182,93,112951,1,8,0:0:0:0:
182,93,113047,1,8,0:0:0:0:
247,140,113143,1,4,0:0:0:0:
182,93,113565,1,0,0:0:0:0:
164,63,113680,1,8,0:0:0:0:
164,63,113795,1,8,0:0:0:0:
164,63,113911,1,8,0:0:0:0:
247,140,114026,1,4,0:0:0:0:
