osu file format v14

[General]
AudioFilename: audio.mp3
AudioLeadIn: 0
PreviewTime: 102164
Countdown: 0
SampleSet: Normal
StackLeniency: 0.7
Mode: 1
LetterboxInBreaks: 0
WidescreenStoryboard: 1

[Editor]
DistanceSpacing: 0.8
BeatDivisor: 2
GridSize: 32
TimelineZoom: 2.2

[Metadata]
Title:BEAST BASS BOMB
TitleUnicode:BEAST BASS BOMB
Artist:Hommarju
ArtistUnicode:Hommarju
Creator:Tofu1222
Version:Futsuu
Source:SOUND VOLTEX IV HEAVENLY HAVEN
Tags:SDVX 4 BEMANI KONAMI Ω Dimension komasy eiri- Ayyri
BeatmapID:1802776
BeatmapSetID:855722

[Difficulty]
HPDrainRate:7
CircleSize:5
OverallDifficulty:4
ApproachRate:5
SliderMultiplier:1.4
SliderTickRate:1

[Events]
//Background and Video events
0,0,"bg.png",0,100
//Break Periods
//Storyboard Layer 0 (Background)
//Storyboard Layer 1 (Fail)
//Storyboard Layer 2 (Pass)
//Storyboard Layer 3 (Foreground)
//Storyboard Sound Samples

[TimingPoints]
606,352.941176470588,4,1,0,50,1,0
90958,-100,4,1,0,50,0,1
100841,-100,4,1,0,50,0,0
102253,-100,4,1,0,50,0,1
113547,-100,4,1,0,50,0,0

[HitObjects]
256,192,606,5,4,0:0:0:0:
256,192,958,1,8,0:0:0:0:
256,192,1311,1,0,0:0:0:0:
256,192,2017,1,0,0:0:0:0:
256,192,2370,1,0,0:0:0:0:
256,192,2723,1,8,0:0:0:0:
256,192,3429,1,0,0:0:0:0:
256,192,3782,1,8,0:0:0:0:
256,192,4135,1,0,0:0:0:0:
256,192,4841,1,0,0:0:0:0:
256,192,5194,1,0,0:0:0:0:
256,192,5547,1,8,0:0:0:0:
256,192,6253,1,0,0:0:0:0:
256,192,6605,1,8,0:0:0:0:
256,192,6958,1,0,0:0:0:0:
256,192,7664,1,0,0:0:0:0:
256,192,8017,1,0,0:0:0:0:
256,192,8370,1,8,0:0:0:0:
256,192,9076,1,0,0:0:0:0:
256,192,9429,1,8,0:0:0:0:
256,192,9782,1,0,0:0:0:0:
256,192,10311,5,0,0:0:0:0:
256,192,11017,1,8,0:0:0:0:
256,192,11547,1,8,0:0:0:0:
256,192,11900,1,0,0:0:0:0:
256,192,12253,1,0,0:0:0:0:
256,192,12605,1,8,0:0:0:0:
256,192,13311,1,0,0:0:0:0:
256,192,13664,1,0,0:0:0:0:
256,192,14016,1,8,0:0:0:0:
256,192,14723,1,0,0:0:0:0:
256,192,15076,1,0,0:0:0:0:
256,192,15429,1,8,0:0:0:0:
256,192,16135,1,0,0:0:0:0:
256,192,16488,1,8,0:0:0:0:
256,192,16841,1,0,0:0:0:0:
256,192,17547,1,0,0:0:0:0:
256,192,17723,1,0,0:0:0:0:
256,192,17900,1,8,0:0:0:0:
256,192,18253,1,0,0:0:0:0:
256,192,18605,1,8,0:0:0:0:
256,192,18958,1,0,0:0:0:0:
256,192,19135,1,0,0:0:0:0:
256,192,19311,1,8,0:0:0:0:
256,192,19664,1,0,0:0:0:0:
256,192,20016,1,8,0:0:0:0:
256,192,20370,1,0,0:0:0:0:
256,192,21782,12,0,22841,0:0:0:0:
256,192,23194,5,0,0:0:0:0:
256,192,23547,1,0,0:0:0:0:
256,192,23900,1,0,0:0:0:0:
256,192,24253,1,8,0:0:0:0:
256,192,24605,1,0,0:0:0:0:
256,192,24958,1,0,0:0:0:0:
256,192,25311,1,0,0:0:0:0:
256,192,25664,1,0,0:0:0:0:
256,192,25841,1,8,0:0:0:0:
256,192,26017,1,0,0:0:0:0:
256,192,26370,1,0,0:0:0:0:
256,192,26723,1,0,0:0:0:0:
256,192,27076,1,8,0:0:0:0:
256,192,27429,1,0,0:0:0:0:
256,192,27782,1,0,0:0:0:0:
256,192,28135,1,0,0:0:0:0:
256,192,28841,1,0,0:0:0:0:
256,192,29194,1,0,0:0:0:0:
256,192,29547,1,0,0:0:0:0:
256,192,29900,1,8,0:0:0:0:
256,192,30253,1,0,0:0:0:0:
256,192,30605,1,0,0:0:0:0:
256,192,30958,1,0,0:0:0:0:
256,192,31311,1,0,0:0:0:0:
256,192,31488,1,8,0:0:0:0:
256,192,31664,1,0,0:0:0:0:
256,192,32017,1,0,0:0:0:0:
256,192,32370,1,0,0:0:0:0:
256,192,32723,1,8,0:0:0:0:
256,192,33076,1,0,0:0:0:0:
256,192,33782,1,8,0:0:0:0:
256,192,34488,1,0,0:0:0:0:
256,192,34841,1,8,0:0:0:0:
256,192,35017,1,0,0:0:0:0:
256,192,35194,1,0,0:0:0:0:
256,192,35547,1,8,0:0:0:0:
256,192,35900,1,0,0:0:0:0:
256,192,36253,1,8,0:0:0:0:
256,192,36429,1,0,0:0:0:0:
256,192,36605,1,0,0:0:0:0:
256,192,36958,1,8,0:0:0:0:
256,192,37311,1,0,0:0:0:0:
256,192,37664,1,8,0:0:0:0:
256,192,37841,1,0,0:0:0:0:
256,192,38017,1,0,0:0:0:0:
256,192,38370,1,8,0:0:0:0:
256,192,38723,1,0,0:0:0:0:
256,192,39076,1,8,0:0:0:0:
256,192,39253,1,0,0:0:0:0:
256,192,39429,1,0,0:0:0:0:
256,192,40135,1,0,0:0:0:0:
256,192,40488,1,8,0:0:0:0:
256,192,40664,1,0,0:0:0:0:
256,192,40841,1,0,0:0:0:0:
256,192,41194,1,8,0:0:0:0:
256,192,41547,1,0,0:0:0:0:
256,192,41900,1,8,0:0:0:0:
256,192,42076,1,0,0:0:0:0:
256,192,42253,1,0,0:0:0:0:
256,192,42606,1,8,0:0:0:0:
256,192,42958,1,0,0:0:0:0:
256,192,43311,1,8,0:0:0:0:
256,192,43487,1,0,0:0:0:0:
256,192,43664,1,0,0:0:0:0:
256,192,44017,1,8,0:0:0:0:
256,192,45782,5,0,0:0:0:0:
256,192,46135,1,8,0:0:0:0:
256,192,46311,1,0,0:0:0:0:
256,192,46488,1,0,0:0:0:0:
256,192,46841,1,8,0:0:0:0:
256,192,47017,1,8,0:0:0:0:
256,192,47194,1,0,0:0:0:0:
256,192,47547,1,8,0:0:0:0:
256,192,47723,1,0,0:0:0:0:
256,192,47900,1,8,0:0:0:0:
256,192,48253,1,8,0:0:0:0:
256,192,48429,1,0,0:0:0:0:
256,192,48605,1,0,0:0:0:0:
256,192,48958,1,8,0:0:0:0:
256,192,49135,1,0,0:0:0:0:
256,192,49311,1,0,0:0:0:0:
256,192,49664,1,8,0:0:0:0:
256,192,49841,1,8,0:0:0:0:
256,192,50017,1,0,0:0:0:0:
256,192,50370,1,8,0:0:0:0:
256,192,50723,1,0,0:0:0:0:
256,192,51429,1,0,0:0:0:0:
256,192,51782,1,8,0:0:0:0:
256,192,51958,1,0,0:0:0:0:
256,192,52135,1,0,0:0:0:0:
256,192,52488,1,8,0:0:0:0:
256,192,52664,1,8,0:0:0:0:
256,192,52841,1,0,0:0:0:0:
256,192,53194,1,8,0:0:0:0:
256,192,53370,1,0,0:0:0:0:
256,192,53547,1,0,0:0:0:0:
256,192,53900,1,8,0:0:0:0:
256,192,54076,1,0,0:0:0:0:
256,192,54253,1,8,0:0:0:0:
256,192,54605,1,8,0:0:0:0:
256,192,54958,1,0,0:0:0:0:
256,192,55311,1,0,0:0:0:0:
256,192,55664,1,8,0:0:0:0:
256,192,56017,1,8,0:0:0:0:
256,192,56370,1,0,0:0:0:0:
256,192,56723,1,8,0:0:0:0:
256,192,57076,5,4,0:0:0:0:
256,192,57782,1,0,0:0:0:0:
256,192,58487,1,8,0:0:0:0:
256,192,59900,5,0,0:0:0:0:
256,192,60605,1,8,0:0:0:0:
256,192,61311,1,0,0:0:0:0:
256,192,62723,1,0,0:0:0:0:
256,192,63429,1,0,0:0:0:0:
256,192,64135,1,8,0:0:0:0:
256,192,65547,1,0,0:0:0:0:
256,192,66252,1,8,0:0:0:0:
256,192,66958,1,0,0:0:0:0:
256,192,68370,1,8,0:0:0:0:
256,192,68723,1,0,0:0:0:0:
256,192,69075,1,8,0:0:0:0:
256,192,69429,1,8,0:0:0:0:
256,192,69781,1,0,0:0:0:0:
256,192,71194,1,0,0:0:0:0:
256,192,71900,1,8,0:0:0:0:
256,192,72605,1,0,0:0:0:0:
256,192,74017,1,8,0:0:0:0:
256,192,74370,1,0,0:0:0:0:
256,192,74723,1,8,0:0:0:0:
256,192,75076,1,8,0:0:0:0:
256,192,75429,1,0,0:0:0:0:
256,192,76840,1,8,0:0:0:0:
256,192,77194,1,0,0:0:0:0:
256,192,77547,1,8,0:0:0:0:
256,192,77900,1,8,0:0:0:0:
256,192,78253,1,0,0:0:0:0:
256,192,79664,1,0,0:0:0:0:
256,192,80017,1,0,0:0:0:0:
256,192,80369,1,8,0:0:0:0:
256,192,81075,1,0,0:0:0:0:
256,192,81428,1,0,0:0:0:0:
256,192,81782,1,8,0:0:0:0:
256,192,82487,1,0,0:0:0:0:
256,192,82840,1,0,0:0:0:0:
256,192,83193,1,8,0:0:0:0:
256,192,83899,1,0,0:0:0:0:
256,192,84252,1,8,0:0:0:0:
256,192,84605,1,0,0:0:0:0:
256,192,85311,1,0,0:0:0:0:
256,192,85487,1,0,0:0:0:0:
256,192,85664,1,8,0:0:0:0:
256,192,86017,1,0,0:0:0:0:
256,192,86369,1,8,0:0:0:0:
256,192,86722,1,0,0:0:0:0:
256,192,86899,1,0,0:0:0:0:
256,192,87075,1,8,0:0:0:0:
256,192,87428,1,0,0:0:0:0:
256,192,87782,1,8,0:0:0:0:
256,192,88135,1,0,0:0:0:0:
256,192,89546,12,0,90605,0:0:0:0:
256,192,90958,5,0,0:0:0:0:
256,192,91135,1,8,0:0:0:0:
256,192,91311,1,0,0:0:0:0:
256,192,91664,1,8,0:0:0:0:
256,192,92017,1,0,0:0:0:0:
256,192,92194,1,8,0:0:0:0:
256,192,92370,1,0,0:0:0:0:
256,192,92723,1,8,0:0:0:0:
256,192,93075,1,0,0:0:0:0:
256,192,93429,5,8,0:0:0:0:
256,192,93605,1,0,0:0:0:0:
256,192,93781,1,0,0:0:0:0:
256,192,94135,1,0,0:0:0:0:
256,192,94488,1,8,0:0:0:0:
256,192,94841,1,0,0:0:0:0:
256,192,95017,1,8,0:0:0:0:
256,192,95193,1,0,0:0:0:0:
256,192,95547,1,8,0:0:0:0:
256,192,95900,1,0,0:0:0:0:
256,192,96605,1,0,0:0:0:0:
256,192,96782,1,8,0:0:0:0:
256,192,96958,1,0,0:0:0:0:
256,192,97311,1,8,0:0:0:0:
256,192,97664,1,0,0:0:0:0:
256,192,97841,1,8,0:0:0:0:
256,192,98017,1,0,0:0:0:0:
256,192,98370,1,8,0:0:0:0:
256,192,98723,1,0,0:0:0:0:
256,192,99076,1,8,0:0:0:0:
256,192,99253,1,0,0:0:0:0:
256,192,99428,1,0,0:0:0:0:
256,192,99782,1,0,0:0:0:0:
256,192,100134,1,8,0:0:0:0:
256,192,100487,1,0,0:0:0:0:
256,192,100664,1,8,0:0:0:0:
256,192,100840,1,0,0:0:0:0:
256,192,102252,1,0,0:0:0:0:
256,192,102605,1,8,0:0:0:0:
256,192,102782,1,0,0:0:0:0:
256,192,102958,1,0,0:0:0:0:
256,192,103311,1,8,0:0:0:0:
256,192,103488,1,8,0:0:0:0:
256,192,103664,1,0,0:0:0:0:
256,192,104017,1,8,0:0:0:0:
256,192,104194,1,0,0:0:0:0:
256,192,104370,1,8,0:0:0:0:
256,192,104722,1,8,0:0:0:0:
256,192,104900,1,0,0:0:0:0:
256,192,105075,1,0,0:0:0:0:
256,192,105428,1,8,0:0:0:0:
256,192,105605,1,0,0:0:0:0:
256,192,105782,1,0,0:0:0:0:
256,192,106134,1,8,0:0:0:0:
256,192,106311,1,8,0:0:0:0:
256,192,106487,1,0,0:0:0:0:
256,192,106841,1,8,0:0:0:0:
256,192,107194,1,0,0:0:0:0:
256,192,107899,1,0,0:0:0:0:
256,192,108252,1,8,0:0:0:0:
256,192,108429,1,0,0:0:0:0:
256,192,108605,1,0,0:0:0:0:
256,192,108958,1,8,0:0:0:0:
256,192,109135,1,8,0:0:0:0:
256,192,109311,1,0,0:0:0:0:
256,192,109664,1,8,0:0:0:0:
256,192,109841,1,0,0:0:0:0:
256,192,110017,1,8,0:0:0:0:
256,192,110369,1,8,0:0:0:0:
256,192,110547,1,0,0:0:0:0:
256,192,110722,1,0,0:0:0:0:
256,192,111075,1,8,0:0:0:0:
256,192,111429,1,8,0:0:0:0:
256,192,111782,1,0,0:0:0:0:
256,192,112135,1,0,0:0:0:0:
256,192,112841,1,8,0:0:0:0:
256,192,113547,5,4,0:0:0:0:
