osu file format v14

[General]
AudioFilename: audio.mp3
AudioLeadIn: 0
PreviewTime: 63628
Countdown: 0
SampleSet: Soft
StackLeniency: 0.7
Mode: 0
LetterboxInBreaks: 0
WidescreenStoryboard: 1

[Editor]
Bookmarks: 8564,16769,33179,49589,66000,84461
DistanceSpacing: 1
BeatDivisor: 2
GridSize: 32
TimelineZoom: 1

[Metadata]
Title:Lapse (TV Size)
TitleUnicode:ラプス (TV Size)
Artist:Homecomings
ArtistUnicode:Homecomings
Creator:Chaoslitz
Version:Normal
Source:君は放課後インソムニア
Tags:boss bossandy japanese ed ending anime jpop pop j-pop animation kimi wa houkago insomnia insomniacs after school kimisomu 君ソム
BeatmapID:4199806
BeatmapSetID:2012662

[Difficulty]
HPDrainRate:3
CircleSize:3.5
OverallDifficulty:4
ApproachRate:5.5
SliderMultiplier:1.4
SliderTickRate:1

[Events]
//Background and Video events
0,0,"bg.jpg",0,0
Video,-360,"video.mp4"
//Break Periods
//Storyboard Layer 0 (Background)
//Storyboard Layer 1 (Fail)
//Storyboard Layer 2 (Pass)
//Storyboard Layer 3 (Foreground)
//Storyboard Layer 4 (Overlay)
//Storyboard Sound Samples

[TimingPoints]
359,512.820512820513,4,2,2,65,1,0
359,-100,4,2,2,65,0,0
615,-100,4,2,1,65,0,0
8564,-100,4,2,2,65,0,0
8820,-100,4,2,1,65,0,0
65743,-100,4,2,1,65,0,0
66000,-100,4,2,1,80,0,1
84205,-100,4,2,1,60,0,0
85230,-100,4,2,1,50,0,0
86384,-100,4,2,1,40,0,0

[Colours]
Combo1 : 244,79,113
Combo2 : 106,181,230

[HitObjects]
207,333,359,6,0,L|78:344,1,70,14|0,0:1|0:0,0:0:0:0:
94,362,871,2,0,B|60:300|60:300|156:156,1,140,10|10,0:0|0:1,0:0:0:0:
186,198,1897,2,0,P|209:125|194:119,1,70,10|2,0:0|0:0,0:0:0:0:
221,103,2410,2,0,L|-24:123,1,140,10|10,0:1|0:0,0:0:0:0:
12,184,3435,2,0,P|73:273|19:272,1,140,10|10,0:1|0:0,0:0:0:0:
83,289,4205,1,2,0:0:0:0:
79,295,4461,6,0,P|170:274|140:258,1,140,10|10,3:1|0:0,0:0:0:0:
256,315,5487,2,0,B|271:214|238:283|260:151,1,140,10|10,0:1|0:0,0:0:0:0:
347,138,6512,2,0,P|408:227|354:226,1,140,10|10,0:1|0:0,0:0:0:0:
461,237,7282,1,0,0:0:0:0:
464,244,7538,2,0,L|455:378,1,70,10|0,0:1|0:0,0:0:0:0:
423,347,8051,1,10,0:0:0:0:
327,367,8564,6,0,P|242:361|238:381,1,70,14|0,0:1|0:0,0:0:0:0:
227,355,9076,2,0,P|280:253|301:285,1,140,10|10,0:0|0:1,0:0:0:0:
301,192,10102,2,0,P|395:176|395:173,1,70,10|2,0:0|0:0,0:0:0:0:
395,190,10615,2,0,B|410:89|377:158|399:26,1,140,10|10,0:1|0:0,0:0:0:0:
368,10,11384,1,2,0:0:0:0:
362,7,11641,2,0,P|370:100|382:88,1,140,10|10,0:1|0:0,0:0:0:0:
215,145,12666,6,0,L|-30:165,1,140,10|8,3:1|0:0,0:0:0:0:
44,194,13435,2,0,P|47:280|44:280,1,70,2|8,0:0|0:1,0:0:0:0:
72,284,13948,2,0,P|152:362|90:368,1,140,2|2,0:0|0:0,0:0:0:0:
256,370,14974,2,0,L|501:350,1,140,2|2,0:0|0:0,0:0:0:0:
428,322,15743,2,0,P|329:330|335:337,1,140,10|8,0:1|0:0,0:0:0:0:
316,212,16512,5,10,0:1:0:0:
314,205,16769,2,0,B|329:104|296:173|318:41,2,140,10|8|8,0:1|0:0|0:1,0:0:0:0:
226,247,18307,2,0,L|217:381,1,70,8|0,0:0|0:0,0:0:0:0:
186,351,18820,2,0,P|184:263|198:276,1,140,8|10,0:1|0:0,0:0:0:0:
128,239,19589,1,2,0:0:0:0:
133,233,19846,2,0,B|126:163|148:204|139:113,1,105,10|2,0:1|0:0,0:0:0:0:
78,81,20615,6,0,P|63:179|106:126,1,140,2|0,0:0|0:0,0:0:0:0:
38,199,21384,1,8,0:0:0:0:
128,239,21897,2,0,L|257:228,1,70,8|0,0:1|0:0,0:0:0:0:
227,194,22410,1,8,0:0:0:0:
288,270,22923,2,0,P|361:355|349:363,1,140,8|8,0:1|0:0,0:0:0:0:
415,359,23692,1,2,0:0:0:0:
421,354,23948,2,0,L|437:104,1,140,10|8,0:1|0:0,0:0:0:0:
414,168,24717,5,2,0:0:0:0:
418,174,24974,2,0,P|426:67|380:110,2,140,10|8|8,0:1|0:0|0:1,0:0:0:0:
337,119,26512,2,0,L|208:130,1,70,8|0,0:0|0:0,0:0:0:0:
226,152,27025,2,0,B|211:253|244:184|222:316,1,140,8|10,0:1|0:0,0:0:0:0:
260,333,27794,1,2,0:0:0:0:
260,333,28051,1,10,0:1:0:0:
117,297,28820,5,2,0:0:0:0:
112,302,29076,2,0,P|142:371|162:362,2,70,10|2|10,0:1|0:0|0:0,0:0:0:0:
97,254,29846,2,0,P|127:149|118:149,1,140,2|0,0:0|0:0,0:0:0:0:
154,134,30615,2,0,L|25:145,1,70,8|0,0:0|0:0,0:0:0:0:
46,171,31128,1,8,0:1:0:0:
97,254,31641,2,0,P|134:344|103:340,1,140,8|8,0:0|0:1,0:0:0:0:
191,367,32410,1,8,0:0:0:0:
192,360,32666,2,0,P|280:370|279:385,1,70,8|8,0:0|0:1,0:0:0:0:
288,360,33179,6,0,L|533:340,1,140,10|10,0:1|0:0,0:0:0:0:
480,266,34205,2,0,P|402:252|400:257,1,70,10|2,0:1|0:0,0:0:0:0:
386,251,34717,1,10,0:0:0:0:
380,255,34974,2,0,P|371:160|386:166,1,140,2|0,0:0|0:0,0:0:0:0:
360,137,35743,1,8,0:0:0:0:
311,52,36256,2,0,L|182:63,1,70,10|2,0:1|0:0,0:0:0:0:
201,27,36769,5,10,0:0:0:0:
195,30,37025,2,0,B|156:88|156:88|230:222,1,140,2|2,0:0|0:0,0:0:0:0:
237,164,37794,1,10,0:0:0:0:
232,170,38051,2,0,B|217:271|250:202|228:334,1,140,2|0,0:0|0:0,0:0:0:0:
200,346,38820,1,8,0:0:0:0:
103,361,39333,2,0,P|89:259|125:283,2,140,8|8|8,0:1|0:0|0:1,0:0:0:0:
139,270,40871,1,8,0:0:0:0:
200,346,41384,6,0,P|277:314|273:304,1,70,10|2,0:1|0:0,0:0:0:0:
295,323,41897,1,10,0:0:0:0:
388,352,42410,2,0,P|392:264|376:276,1,140,10|8,0:1|0:0,0:0:0:0:
421,238,43179,2,0,B|436:137|403:206|425:74,1,140,2|2,0:0|0:0,0:0:0:0:
337,48,44205,1,2,0:0:0:0:
330,46,44461,2,0,P|347:136|353:137,1,70,10|2,0:1|0:0,0:0:0:0:
335,152,44974,1,10,0:0:0:0:
333,159,45230,2,0,L|88:179,1,140,2|0,0:0|0:0,0:0:0:0:
157,204,46000,5,10,3:2:0:0:
16,163,46769,2,0,B|-18:101|-18:101|78:-43,2,140,2|2|2,0:0|0:0|0:0,0:0:0:0:
56,191,48051,2,0,L|47:325,1,70,10|2,0:0|0:0,0:0:0:0:
93,349,48820,2,0,P|149:259|124:255,1,140,2|0,0:0|3:0,0:0:0:0:
161,246,49589,5,8,0:1:0:0:
160,239,49846,2,0,P|244:247|243:260,1,70,2|8,0:0|0:0,0:0:0:0:
246,172,50359,2,0,P|287:244|267:255,1,70,2|8,0:0|0:1,0:0:0:0:
336,237,50871,1,2,0:0:0:0:
353,333,51384,2,0,L|598:313,1,140,2|2,0:0|0:0,0:0:0:0:
511,276,52153,2,0,P|438:257|433:275,1,70,8|2,0:0|0:0,0:0:0:0:
429,203,52666,2,0,P|452:110|438:112,1,140,10|10,0:1|0:0,0:0:0:0:
445,98,53435,1,2,0:0:0:0:
356,138,53948,6,0,P|333:45|347:47,1,140,2|0,0:0|0:0,0:0:0:0:
388,18,54974,2,0,P|426:84|408:92,1,70,0|8,0:0|0:0,0:0:0:0:
445,98,55487,1,2,0:0:0:0:
441,104,55743,2,0,B|426:205|459:136|437:268,1,140,10|10,0:1|0:0,0:0:0:0:
462,287,56512,1,2,0:0:0:0:
465,293,56769,2,0,P|386:303|382:291,1,70,10|2,0:1|0:0,0:0:0:0:
373,355,57282,2,0,P|286:348|282:366,1,70,10|2,0:0|0:0,0:0:0:0:
272,336,57794,5,8,0:1:0:0:
182,296,58307,2,0,P|103:306|99:294,1,70,10|0,0:0|0:0,0:0:0:0:
93,361,58820,2,0,P|88:258|126:289,1,140,10|10,0:1|0:0,0:0:0:0:
77,243,59589,1,2,0:0:0:0:
165,199,60102,2,0,P|123:128|114:132,1,70,2|10,0:0|0:0,0:0:0:0:
135,97,60615,1,2,0:0:0:0:
73,173,61128,2,0,L|82:307,1,70,0|8,0:0|0:0,0:0:0:0:
110,280,61641,1,2,0:0:0:0:
97,327,61897,5,10,0:1:0:0:
98,334,62153,2,0,P|24:257|92:265,2,140,2|2|2,0:0|0:0|0:0,0:0:0:0:
196,327,63692,2,0,P|251:268|246:262,1,70,2|10,0:0|3:1,0:0:0:0:
282,267,64205,2,0,B|297:166|264:235|286:103,1,140,2|0,0:0|0:0,0:0:0:0:
324,39,65230,1,8,0:0:0:0:
329,34,65487,2,0,P|383:92|380:96,1,70,8|8,0:0|0:1,0:0:0:0:
422,90,66000,6,0,P|446:168|457:165,1,70,14|0,0:1|0:0,0:0:0:0:
429,193,66512,1,10,0:0:0:0:
471,282,67025,2,0,P|438:346|412:337,2,70,8|8|8,0:1|0:1|0:0,0:0:0:0:
506,247,67794,1,10,0:1:0:0:
504,240,68051,2,0,L|259:260,1,140,10|8,0:1|0:0,0:0:0:0:
333,289,68820,1,2,3:2:0:0:
264,359,69333,2,0,P|209:300|214:294,1,70,8|8,0:1|0:0,0:0:0:0:
190,293,69846,5,10,0:1:0:0:
186,298,70102,2,0,P|181:302|177:222,1,140,10|8,0:1|0:0,0:0:0:0:
156,205,70871,1,2,0:0:0:0:
153,199,71128,2,0,B|168:98|135:167|157:35,1,140,10|8,0:1|0:0,0:0:0:0:
186,24,71897,1,10,0:1:0:0:
192,21,72153,2,0,P|254:66|243:85,1,70,10|8,0:1|0:1,0:0:0:0:
264,86,72666,1,10,0:0:0:0:
342,39,73179,2,0,P|371:135|321:95,1,140,10|8,0:1|0:0,0:0:0:0:
447,147,73948,5,2,0:0:0:0:
450,153,74205,2,0,P|360:169|358:165,1,70,10|0,0:1|0:0,0:0:0:0:
358,170,74717,2,0,L|113:190,1,140,8|10,0:0|3:1,0:0:0:0:
172,165,75487,2,0,B|133:223|133:223|207:357,1,140,10|2,3:1|0:0,0:0:0:0:
193,326,76256,2,0,P|105:314|106:304,2,70,10|8|8,0:1|0:1|0:0,0:0:0:0:
241,317,77025,1,2,3:2:0:0:
332,282,77538,2,0,P|385:355|377:363,1,70,8|8,0:1|0:0,0:0:0:0:
419,347,78051,5,10,0:1:0:0:
422,340,78307,2,0,P|499:341|501:356,1,70,10|2,0:1|0:0,0:0:0:0:
511,280,78820,2,0,P|406:254|432:299,1,140,10|8,0:0|0:1,0:0:0:0:
406,165,79589,1,8,0:1:0:0:
361,185,79846,1,10,0:0:0:0:
357,179,80102,2,0,B|342:78|375:147|353:15,1,140,10|8,0:1|0:1,0:0:0:0:
320,8,80871,2,0,L|191:19,1,70,8|2,0:0|3:2,0:0:0:0:
192,93,81641,1,8,0:1:0:0:
97,71,82153,5,10,0:1:0:0:
93,65,82410,2,0,P|134:0|156:18,2,70,10|2|10,3:1|0:0|0:0,0:0:0:0:
62,103,83179,1,2,0:0:0:0:
60,110,83435,2,0,L|69:244,1,70,10|0,0:1|3:0,0:0:0:0:
41,223,83948,1,10,0:0:0:0:
43,229,84205,2,0,P|104:323|87:327,1,140,14|2,0:1|0:0,0:0:0:0:
214,341,85230,2,0,P|272:234|218:257,1,315,2|0,0:0|0:0,0:0:0:0:
