osu file format v14

[General]
AudioFilename: audio.mp3
AudioLeadIn: 0
PreviewTime: 63628
Countdown: 0
SampleSet: Soft
StackLeniency: 0.7
Mode: 0
LetterboxInBreaks: 0
WidescreenStoryboard: 1

[Editor]
Bookmarks: 8564,16769,33179,49589,66000,84461
DistanceSpacing: 1
BeatDivisor: 4
GridSize: 32
TimelineZoom: 1

[Metadata]
Title:Lapse (TV Size)
TitleUnicode:ラプス (TV Size)
Artist:Homecomings
ArtistUnicode:Homecomings
Creator:Chaoslitz
Version:Insomnia
Source:君は放課後インソムニア
Tags:boss bossandy japanese ed ending anime jpop pop j-pop animation kimi wa houkago insomnia insomniacs after school kimisomu 君ソム
BeatmapID:4188129
BeatmapSetID:2012662

[Difficulty]
HPDrainRate:5
CircleSize:4.1
OverallDifficulty:7
ApproachRate:8
SliderMultiplier:1.8
SliderTickRate:1

[Events]
//Background and Video events
0,0,"bg.jpg",0,0
Video,-360,"video.mp4"
//Break Periods
//Storyboard Layer 0 (Background)
//Storyboard Layer 1 (Fail)
//Storyboard Layer 2 (Pass)
//Storyboard Layer 3 (Foreground)
//Storyboard Layer 4 (Overlay)
//Storyboard Sound Samples

[TimingPoints]
359,512.820512820513,4,2,1,65,1,0
359,-111.111111111111,4,2,2,65,0,0
615,-111.111111111111,4,2,1,65,0,0
8564,-111.111111111111,4,2,2,65,0,0
8820,-111.111111111111,4,2,1,65,0,0
65743,-142.857142857143,4,2,1,65,0,0
66000,-100,4,2,1,80,0,1
84205,-111.111111111111,4,2,1,60,0,0
85230,-111.111111111111,4,2,1,50,0,0
86384,-111.111111111111,4,2,1,40,0,0

[Colours]
Combo1 : 244,79,113
Combo2 : 106,181,230

[HitObjects]
114,170,359,6,0,L|-43:141,1,80.9999975280763,14|0,0:1|0:0,0:0:0:0:
67,81,871,2,0,B|81:290,1,161.999995056153,10|10,0:0|0:1,0:0:0:0:
154,339,1641,2,0,P|62:313|65:303,1,80.9999975280763,0|10,3:0|0:0,0:0:0:0:
28,309,2153,1,2,0:0:0:0:
78,243,2410,6,0,L|231:229,2,80.9999975280763,10|0|10,0:1|0:0|0:0,0:0:0:0:
28,309,3179,1,2,0:0:0:0:
71,162,3435,2,0,L|224:148,1,80.9999975280763,10|0,0:1|0:0,0:0:0:0:
219,291,3948,1,10,0:0:0:0:
290,250,4205,1,2,0:0:0:0:
357,354,4461,6,0,P|291:298|306:279,1,80.9999975280763,10|0,3:1|0:0,0:0:0:0:
423,299,4974,2,0,B|426:312|426:312|480:357|581:290|510:165|408:206|407:271,1,161.999995056153,10|10,0:0|0:1,0:0:0:0:
371,147,5743,2,0,P|399:233|425:226,1,80.9999975280763,0|10,3:0|0:0,0:0:0:0:
441,188,6256,1,0,0:0:0:0:
301,106,6512,6,0,P|297:29|284:72,1,161.999995056153,10|10,0:1|0:0,0:0:0:0:
371,147,7282,1,0,0:0:0:0:
306,25,7538,1,10,0:1:0:0:
233,60,7793,1,0,0:0:0:0:
229,65,8051,2,0,L|76:79,1,80.9999975280763,10|0,0:0|0:0,0:0:0:0:
129,295,8564,6,0,L|76:143,1,80.9999975280763,14|0,0:1|0:0,0:0:0:0:
36,265,9076,2,0,L|343:239,1,161.999995056153,10|10,0:0|0:1,0:0:0:0:
149,72,9846,2,0,B|139:126|170:103|129:227,1,80.9999975280763,0|10,3:0|0:0,0:0:0:0:
102,219,10359,1,2,0:0:0:0:
68,146,10615,6,0,B|78:92|47:115|88:-9,2,80.9999975280763,10|0|10,0:1|0:0|0:0,0:0:0:0:
102,219,11384,1,2,0:0:0:0:
66,345,11641,2,0,P|-17:310|-10:300,1,80.9999975280763,10|0,0:1|0:0,0:0:0:0:
129,295,12153,2,0,L|288:308,1,121.499996292114,10|0,0:0|0:0,0:0:0:0:
318,366,12666,6,0,B|335:327|335:327|277:406,1,80.9999975280763,10|0,3:1|0:0,0:0:0:0:
310,250,13179,1,8,0:0:0:0:
408,361,13435,2,0,P|471:302|457:285,1,80.9999975280763,2|8,0:0|0:1,0:0:0:0:
488,227,13948,2,0,B|491:212|491:212|437:167|336:234|407:359|509:318|510:253,1,161.999995056153,2|2,0:0|0:0,0:0:0:0:
408,361,14717,1,8,0:1:0:0:
378,205,14974,2,0,P|278:215|278:219,1,80.9999975280763,2|8,0:0|0:0,0:0:0:0:
242,205,15487,5,2,0:0:0:0:
205,67,15743,1,10,0:1:0:0:
104,169,16000,1,8,0:0:0:0:
104,169,16256,1,8,0:0:0:0:
184,147,16512,1,10,0:1:0:0:
28,199,16769,6,0,B|25:184|25:184|79:139|180:206|109:331|7:290|6:225,1,161.999995056153,10|8,0:1|0:0,0:0:0:0:
52,316,17538,1,0,0:0:0:0:
111,372,17794,2,0,P|174:313|160:296,1,80.9999975280763,8|0,0:1|0:0,0:0:0:0:
296,191,18307,2,0,L|143:205,1,80.9999975280763,8|0,0:0|0:0,0:0:0:0:
223,279,18820,2,0,L|376:265,1,80.9999975280763,8|0,0:1|0:0,0:0:0:0:
511,311,19333,5,10,0:0:0:0:
446,369,19589,1,2,0:0:0:0:
383,214,19846,2,0,B|373:268|404:245|363:369,1,80.9999975280763,10|0,0:1|0:0,0:0:0:0:
372,316,20230,2,0,P|427:394|419:401,1,80.9999975280763,2|0,0:0|0:0,0:0:0:0:
446,369,20615,1,2,0:0:0:0:
304,271,20871,6,0,L|151:285,1,80.9999975280763,8|0,0:1|0:0,0:0:0:0:
62,341,21384,2,0,B|65:354|65:354|119:399|220:332|149:207|47:248|46:313,1,161.999995056153,8|8,0:0|0:1,0:0:0:0:
105,133,22153,1,0,0:0:0:0:
19,221,22410,2,0,L|172:207,2,80.9999975280763,8|0|8,0:0|0:0|0:1,0:0:0:0:
24,140,23179,1,0,0:0:0:0:
142,285,23435,1,8,0:0:0:0:
19,221,23692,5,2,0:0:0:0:
156,70,23948,2,0,B|159:57|159:57|213:12|314:79|243:204|141:163|140:98,1,161.999995056153,10|8,0:1|0:0,0:0:0:0:
174,179,24717,1,2,0:0:0:0:
193,349,24974,6,0,P|258:252|223:247,1,161.999995056153,10|8,0:1|0:0,0:0:0:0:
251,207,25743,1,0,0:0:0:0:
286,280,26000,2,0,P|349:221|335:204,1,80.9999975280763,8|0,0:1|0:0,0:0:0:0:
317,119,26512,2,0,L|164:133,1,80.9999975280763,8|0,0:0|0:0,0:0:0:0:
174,179,27025,2,0,L|21:193,1,80.9999975280763,8|0,0:1|0:0,0:0:0:0:
162,91,27538,5,10,0:0:0:0:
251,207,27794,1,2,0:0:0:0:
230,45,28051,2,0,P|270:147|210:81,1,161.999995056153,10|8,0:1|0:0,0:0:0:0:
282,283,28820,5,2,0:0:0:0:
410,127,29076,1,10,0:1:0:0:
414,131,29333,1,2,0:0:0:0:
251,207,29589,1,10,0:0:0:0:
313,359,29846,2,0,L|466:345,1,80.9999975280763,2|8,0:0|0:1,0:0:0:0:
444,288,30359,1,0,0:0:0:0:
414,131,30615,2,0,B|404:185|435:162|394:286,1,80.9999975280763,8|0,0:0|0:0,0:0:0:0:
394,351,31128,6,0,P|485:316|477:297,1,80.9999975280763,8|0,0:1|0:0,0:0:0:0:
363,276,31641,2,0,L|210:290,1,80.9999975280763,8|0,0:0|0:0,0:0:0:0:
182,370,32153,1,8,0:1:0:0:
126,146,32410,1,8,0:0:0:0:
126,146,32666,1,8,0:0:0:0:
202,291,32923,1,8,0:1:0:0:
66,232,33179,6,0,L|219:218,1,80.9999975280763,10|2,0:1|0:0,0:0:0:0:
318,62,33692,2,0,L|160:77,1,121.499996292114,10|0,0:0|0:0,0:0:0:0:
184,89,34205,1,10,0:1:0:0:
205,168,34461,1,2,0:0:0:0:
209,172,34717,1,10,0:0:0:0:
114,47,34974,2,0,B|111:34|111:34|57:-11|-44:56|27:181|129:140|130:75,1,161.999995056153,2|0,0:0|0:0,0:0:0:0:
66,232,35743,2,0,L|219:218,1,80.9999975280763,8|0,0:0|0:0,0:0:0:0:
0,177,36256,5,10,0:1:0:0:
112,128,36512,1,2,0:0:0:0:
66,232,36769,1,10,0:0:0:0:
66,232,37025,2,0,B|61:252|61:252|112:210|196:249|192:339|133:375|84:362,1,161.999995056153,2|2,0:0|0:0,0:0:0:0:
258,372,37794,1,10,0:0:0:0:
239,212,38051,2,0,P|184:315|268:258,1,161.999995056153,2|0,0:0|0:0,0:0:0:0:
258,372,38820,2,0,B|248:318|279:341|238:217,1,80.9999975280763,8|0,0:0|0:0,0:0:0:0:
405,328,39333,6,0,P|313:293|316:286,1,80.9999975280763,8|0,0:1|0:0,0:0:0:0:
469,277,39846,2,0,B|466:290|466:290|412:335|311:268|382:143|484:184|485:249,1,161.999995056153,8|8,0:0|0:1,0:0:0:0:
467,195,40615,1,0,0:0:0:0:
438,76,40871,2,0,L|285:90,1,80.9999975280763,8|0,0:0|0:0,0:0:0:0:
249,167,41384,6,0,L|402:153,1,80.9999975280763,10|2,0:1|0:0,0:0:0:0:
358,3,41897,2,0,B|368:57|337:34|378:158,1,80.9999975280763,10|0,0:0|0:0,0:0:0:0:
469,277,42410,2,0,B|466:290|466:290|412:335|311:268|382:143|484:184|485:249,1,161.999995056153,10|8,0:1|0:0,0:0:0:0:
358,84,43179,2,0,P|414:161|407:166,1,80.9999975280763,2|8,0:0|0:1,0:0:0:0:
330,159,43692,2,0,L|177:173,1,80.9999975280763,2|8,0:0|0:0,0:0:0:0:
128,214,44205,5,2,0:0:0:0:
132,218,44461,1,10,0:1:0:0:
254,248,44717,1,2,0:0:0:0:
171,145,44974,1,10,0:0:0:0:
204,313,45230,2,0,P|295:278|287:259,1,80.9999975280763,2|8,0:0|0:1,0:0:0:0:
254,248,45743,1,0,0:0:0:0:
127,341,46000,6,0,B|124:354|124:354|70:399|-31:332|40:207|142:248|143:313,1,161.999995056153,10|8,3:2|0:1,0:0:0:0:
55,125,46769,2,0,P|118:195|100:210,1,80.9999975280763,2|8,0:0|0:0,0:0:0:0:
127,260,47282,2,0,B|117:314|148:291|107:415,1,80.9999975280763,2|8,0:0|0:1,0:0:0:0:
67,205,47794,5,2,0:0:0:0:
206,280,48051,1,10,0:0:0:0:
210,285,48307,2,0,L|363:271,1,80.9999975280763,2|8,0:0|0:1,0:0:0:0:
338,116,48820,2,0,L|185:130,1,80.9999975280763,2|8,0:0|0:0,0:0:0:0:
231,201,49333,1,0,3:0:0:0:
286,360,49589,1,8,0:1:0:0:
408,229,49846,6,0,P|482:298|467:315,1,80.9999975280763,2|8,0:0|0:0,0:0:0:0:
338,116,50359,2,0,B|328:62|359:85|318:-39,1,80.9999975280763,2|8,0:0|0:1,0:0:0:0:
413,148,50871,2,0,B|404:296,1,80.9999975280763,2|8,0:0|0:0,0:0:0:0:
286,360,51384,2,0,P|360:290|346:274,1,80.9999975280763,2|8,0:0|0:1,0:0:0:0:
502,322,51897,2,0,P|428:252|442:236,1,80.9999975280763,2|8,0:0|0:0,0:0:0:0:
413,148,52410,1,2,0:0:0:0:
411,143,52666,2,0,B|408:130|408:130|354:85|253:152|324:277|426:236|427:171,1,161.999995056153,10|10,0:1|0:0,0:0:0:0:
307,279,53435,2,0,L|154:293,1,80.9999975280763,2|8,0:0|0:1,0:0:0:0:
86,360,53948,6,0,P|110:305|106:338,1,161.999995056153,2|0,0:0|0:0,0:0:0:0:
148,226,54717,2,0,B|158:280|127:257|168:381,1,80.9999975280763,8|0,0:1|0:0,0:0:0:0:
211,173,55230,1,8,0:0:0:0:
227,286,55487,5,2,0:0:0:0:
136,140,55743,2,0,L|-17:154,1,80.9999975280763,10|2,0:1|0:0,0:0:0:0:
144,222,56256,1,10,0:0:0:0:
148,226,56512,1,2,0:0:0:0:
248,99,56769,5,10,0:1:0:0:
89,68,57025,1,2,0:0:0:0:
63,229,57282,1,10,0:0:0:0:
63,229,57538,2,0,L|216:215,1,80.9999975280763,2|8,0:0|0:1,0:0:0:0:
211,173,58051,1,0,0:0:0:0:
294,333,58307,6,0,P|202:308|206:295,1,80.9999975280763,10|0,0:0|0:0,0:0:0:0:
270,116,58820,2,0,B|260:273,1,121.499996292114,10|0,0:1|0:0,0:0:0:0:
272,255,59333,1,10,0:0:0:0:
423,284,59589,2,0,B|413:338|444:315|403:439,1,80.9999975280763,2|8,0:0|0:1,0:0:0:0:
272,255,60102,2,0,P|346:316|338:328,1,80.9999975280763,2|10,0:0|0:0,0:0:0:0:
423,364,60615,2,0,P|488:267|440:261,1,161.999995056153,2|0,0:0|0:0,0:0:0:0:
432,146,61384,1,8,0:0:0:0:
442,227,61641,5,2,0:0:0:0:
446,231,61897,1,10,0:1:0:0:
361,105,62153,2,0,P|389:191|415:184,1,80.9999975280763,2|8,0:0|0:0,0:0:0:0:
512,162,62666,2,0,P|406:121|411:146,1,161.999995056153,2|2,0:0|0:0,0:0:0:0:
310,34,63435,1,8,0:0:0:0:
356,176,63692,1,2,0:0:0:0:
356,176,63820,1,0,0:0:0:0:
356,176,63947,1,10,3:1:0:0:
206,58,64205,6,0,B|209:45|209:45|263:0|364:67|293:192|191:151|190:86,1,161.999995056153,2|0,0:0|0:0,0:0:0:0:
227,263,64974,1,8,0:1:0:0:
432,146,65230,1,8,0:0:0:0:
432,146,65487,1,8,0:0:0:0:
272,195,65743,6,0,L|215:172,1,31.4999990386963,8|0,0:1|0:0,0:0:0:0:
382,366,66000,6,0,P|429:286|401:281,1,90,14|0,0:1|0:0,0:0:0:0:
362,187,66512,2,0,L|185:203,1,90,10|0,0:0|0:0,0:0:0:0:
210,347,66897,1,0,0:0:0:0:
214,351,67025,2,0,L|391:335,2,90,8|8|8,0:1|0:1|0:0,0:0:0:0:
156,146,67794,5,10,0:1:0:0:
247,267,68051,1,10,0:1:0:0:
76,166,68307,1,8,0:1:0:0:
227,188,68564,1,8,0:0:0:0:
31,237,68820,2,0,P|56:327|96:310,1,90,2|8,3:2|0:1,0:0:0:0:
101,280,69333,1,8,0:1:0:0:
5,121,69589,1,8,0:0:0:0:
177,18,69846,6,0,L|90:3,1,45,10|0,0:1|0:0,0:0:0:0:
132,2,70102,2,0,P|208:97|164:110,1,180,10|8,0:1|0:0,0:0:0:0:
94,199,70871,1,2,0:0:0:0:
216,89,71128,2,0,P|284:154|270:167,1,90,10|8,0:1|0:1,0:0:0:0:
385,274,71641,1,8,0:0:0:0:
233,170,71897,1,10,0:1:0:0:
362,353,72153,6,0,P|417:276|403:271,1,90,10|8,0:1|0:1,0:0:0:0:
498,187,72666,2,0,L|321:203,1,90,10|0,0:0|0:0,0:0:0:0:
305,293,73179,2,0,L|128:309,1,90,10|8,0:1|0:1,0:0:0:0:
155,143,73692,1,8,0:0:0:0:
113,366,73948,6,0,P|152:319|148:314,1,45,2|0,0:0|0:0,0:0:0:0:
216,89,74205,2,0,B|219:74|219:74|276:33|372:106|293:227|193:177|198:112,1,180,10|8,0:1|0:0,0:0:0:0:
139,272,74974,1,0,0:0:0:0:
0,106,75230,5,10,3:1:0:0:
49,280,75487,2,0,L|226:264,1,90,10|8,3:1|0:0,0:0:0:0:
181,365,76000,1,2,0:0:0:0:
132,191,76256,2,0,L|-45:207,1,90,10|8,0:1|0:1,0:0:0:0:
206,225,76769,1,8,0:0:0:0:
190,38,77025,2,0,B|176:99|221:74|161:210,1,90,2|8,3:2|0:1,0:0:0:0:
194,135,77410,1,0,0:0:0:0:
198,143,77538,2,0,P|267:203|251:224,1,90,8|8,0:1|0:0,0:0:0:0:
398,363,78051,5,10,0:1:0:0:
398,363,78179,1,0,0:0:0:0:
398,363,78307,1,10,0:1:0:0:
339,216,78564,1,2,0:0:0:0:
244,305,78820,2,0,L|421:289,1,90,10|0,0:0|0:0,0:0:0:0:
410,172,79333,1,8,0:1:0:0:
410,172,79461,1,0,0:0:0:0:
410,172,79589,1,8,0:1:0:0:
334,297,79846,1,10,0:0:0:0:
483,144,80102,6,0,P|392:107|398:98,1,90,10|8,0:1|0:1,0:0:0:0:
257,95,80615,1,8,0:1:0:0:
257,95,80743,1,0,0:0:0:0:
257,95,80871,1,8,0:0:0:0:
198,218,81128,2,0,B|209:376,1,90,2|8,3:2|0:1,0:0:0:0:
338,134,81641,2,0,B|327:-24,1,90,8|8,0:1|0:0,0:0:0:0:
268,176,82153,5,10,0:1:0:0:
174,56,82410,1,10,3:1:0:0:
174,56,82538,1,0,0:0:0:0:
174,56,82666,1,2,0:0:0:0:
78,230,82923,1,10,0:0:0:0:
246,97,83179,1,2,0:0:0:0:
55,150,83435,2,0,L|-29:161,1,45,10|0,0:1|0:0,0:0:0:0:
148,280,83692,2,0,L|232:269,1,45,0|0,3:0|0:0,0:0:0:0:
95,78,83948,1,10,0:0:0:0:
272,218,84205,6,0,B|269:205|269:205|215:160|114:227|185:352|287:311|288:246,1,161.999995056153,14|2,0:1|0:0,0:0:0:0:
348,358,85230,2,0,B|384:370|482:364|354:195|493:178|593:254|525:375|421:347|440:277|377:226|337:304,1,364.499988876343,2|0,0:0|0:0,0:0:0:0:
