osu file format v14

[General]
AudioFilename: audio.mp3
AudioLeadIn: 0
PreviewTime: 301
Countdown: 0
SampleSet: Soft
StackLeniency: 0.5
Mode: 0
LetterboxInBreaks: 0
WidescreenStoryboard: 0

[Editor]
DistanceSpacing: 1.2
BeatDivisor: 4
GridSize: 8
TimelineZoom: 1.9

[Metadata]
Title:Elli no Thema
TitleUnicode:エリィのテーマ
Artist:Homareda Miyuki
ArtistUnicode:ほまれだみゆき
Creator:Rensia
Version:Nostalgia
Source:牧場物語 ~ハーベストムーン
Tags:Elli's Theme Harvest Moon: Back To Nature Bokujō Bokujou Bokujo Monogatari Farm History Story of Seasons Instrumental Video Game
BeatmapID:1874091
BeatmapSetID:897036

[Difficulty]
HPDrainRate:5
CircleSize:4
OverallDifficulty:6
ApproachRate:7.5
SliderMultiplier:1.4
SliderTickRate:1

[Events]
//Background and Video events
0,0,"bestgirl.jpg",0,0
//Break Periods
//Storyboard Layer 0 (Background)
//Storyboard Layer 1 (Fail)
//Storyboard Layer 2 (Pass)
//Storyboard Layer 3 (Foreground)
//Storyboard Layer 4 (Overlay)
//Storyboard Sound Samples

[TimingPoints]
432,400,4,2,1,60,1,0
2832,-100,4,2,2,60,0,0
2932,-100,4,2,1,60,0,0
6032,-100,4,2,2,60,0,0
6132,-100,4,2,1,60,0,0
9232,-100,4,2,2,60,0,0
9332,-100,4,2,1,60,0,0
12432,-100,4,2,2,60,0,0
12532,-100,4,2,1,60,0,0
15632,-100,4,2,2,60,0,0
15732,-100,4,2,1,60,0,0
18832,-100,4,2,2,60,0,0
18932,-100,4,2,1,60,0,0
22032,-100,4,2,2,60,0,0
22132,-100,4,2,1,60,0,0
25232,-100,4,2,2,60,0,0
25332,-100,4,2,1,60,0,0
28432,-100,4,2,2,60,0,0
28532,-100,4,2,1,60,0,0
31632,-100,4,2,2,60,0,0
31732,-100,4,2,1,60,0,0
34832,-100,4,2,2,60,0,0
34932,-100,4,2,1,60,0,0
38032,-100,4,2,2,60,0,0

[Colours]
Combo1 : 175,125,76
Combo2 : 177,214,220
Combo3 : 251,223,212
Combo4 : 243,215,114
Combo5 : 194,214,129

[HitObjects]
8,128,432,6,0,L|0:288,1,140,2|0,1:2|0:0,0:0:0:0:
55,330,1032,1,0,0:0:0:0:
128,288,1232,2,0,L|267:294,1,140
356,296,1832,1,0,0:0:0:0:
356,296,2032,6,0,L|348:208,1,70,2|0,0:0|0:0,0:0:0:0:
420,184,2432,2,0,L|428:96,1,70,2|0,0:0|0:0,0:0:0:0:
464,40,2832,1,2,0:0:0:0:
464,40,3232,1,2,0:0:0:0:
296,72,3632,6,0,P|236:56|132:80,1,140,2|0,1:2|0:0,0:0:0:0:
96,120,4232,1,0,0:0:0:0:
96,120,4432,2,0,P|84:148|88:208,1,70
128,264,4832,5,2,0:0:0:0:
128,264,5032,1,0,0:0:0:0:
208,240,5232,1,2,0:0:0:0:
208,240,5432,1,0,0:0:0:0:
288,264,5632,2,0,P|328:272|368:264,1,70
397,195,6032,2,0,P|437:187|477:195,1,70,2|0,0:0|0:0,0:0:0:0:
509,263,6432,2,0,P|475:270|440:266,1,70
356,267,6832,6,0,P|364:184|356:115,1,140,2|0,1:2|0:0,0:0:0:0:
304,64,7432,1,0,0:0:0:0:
232,104,7632,2,0,P|149:96|80:104,1,140,0|0,0:1|0:0,0:0:0:0:
32,160,8232,1,0,0:0:0:0:
32,160,8432,6,0,P|24:212|24:236,1,70,2|0,0:0|0:0,0:0:0:0:
104,260,8832,2,0,P|112:312|112:336,1,70,2|0,0:0|0:0,0:0:0:0:
48,384,9232,1,2,0:0:0:0:
48,384,9632,1,2,0:0:0:0:
216,368,10032,6,0,P|272:360|360:368,1,140,2|0,1:2|0:0,0:0:0:0:
424,312,10632,1,0,0:0:0:0:
424,312,10832,2,0,P|419:274|423:214,1,70
464,176,11232,5,2,0:0:0:0:
464,176,11432,1,0,0:0:0:0:
400,128,11632,1,2,0:0:0:0:
400,128,11832,1,0,0:0:0:0:
328,168,12032,2,0,L|333:256,1,70
266,290,12432,2,0,L|262:359,1,70,2|0,0:0|0:0,0:0:0:0:
184,328,12832,2,0,L|187:258,1,70
232,184,13232,6,0,L|62:175,1,140,2|0,1:2|0:0,0:0:0:0:
28,122,13832,1,0,0:0:0:0:
12,204,14032,1,2,0:0:0:0:
44,40,14432,1,2,0:0:0:0:
126,56,14632,1,0,0:0:0:0:
208,72,14832,6,0,L|300:54,1,70,2|0,0:0|0:0,0:0:0:0:
358,34,15232,2,0,L|375:126,1,70
328,176,15632,2,0,L|310:268,1,70,2|0,0:0|0:0,0:0:0:0:
386,288,16032,1,2,0:0:0:0:
232,232,16432,6,0,L|264:66,1,140,2|0,1:2|0:0,0:0:0:0:
320,40,17032,1,0,0:0:0:0:
242,14,17232,1,2,0:0:0:0:
398,66,17632,1,2,0:0:0:0:
372,144,17832,1,0,0:0:0:0:
346,222,18032,6,0,L|368:288,1,70,2|0,0:0|0:0,0:0:0:0:
288,318,18432,2,0,L|221:340,1,70
192,260,18832,2,0,L|125:237,1,70,2|0,0:0|0:0,0:0:0:0:
47,207,19232,2,0,L|69:140,1,70,2|0,0:0|0:0,0:0:0:0:
16,72,19632,6,0,P|88:56|152:116,1,140,2|0,1:2|0:0,0:0:0:0:
192,160,20232,1,0,0:0:0:0:
192,160,20432,2,0,P|264:176|328:116,1,140,2|0,0:0|0:0,0:0:0:0:
368,72,21032,1,0,0:0:0:0:
296,24,21232,5,2,0:0:0:0:
440,119,21632,2,0,P|432:154|431:189,1,70,2|0,0:0|0:0,0:0:0:0:
504,224,22032,2,0,P|512:184|512:152,1,70,2|0,0:0|0:0,0:0:0:0:
504,72,22432,1,2,0:0:0:0:
360,0,22832,5,2,1:2:0:0:
285,148,23232,2,0,L|201:112,1,70
127,227,23632,2,0,L|191:199,1,70
284,306,24032,2,0,L|219:278,1,70
127,385,24432,6,0,L|191:357,2,70
88,312,25032,1,0,0:0:0:0:
88,312,25232,2,0,L|80:152,1,140,2|2,0:0|0:0,0:0:0:0:
8,24,26032,6,0,L|1:163,1,140,2|0,1:2|0:0,0:0:0:0:
64,224,26632,1,0,0:0:0:0:
64,224,26832,2,0,P|108:232|147:227,1,70,2|0,0:0|0:0,0:0:0:0:
192,168,27232,2,0,P|236:160|275:164,1,70,2|0,0:0|0:0,0:0:0:0:
344,184,27632,6,0,P|350:289|350:332,1,140,2|2,0:0|0:0,0:0:0:0:
284,380,28232,1,0,0:0:0:0:
284,380,28432,2,0,P|389:373|432:373,1,140,2|2,0:0|0:0,0:0:0:0:
268,301,29232,6,0,P|261:195|261:152,1,140,2|0,1:2|0:0,0:0:0:0:
328,105,29832,1,0,0:0:0:0:
328,105,30032,2,0,P|222:111|179:111,1,140,2|0,0:0|0:0,0:0:0:0:
108,85,30632,1,0,0:0:0:0:
125,166,30832,6,0,P|132:221|132:261,1,70,2|0,0:0|0:0,0:0:0:0:
120,320,31232,1,0,0:0:0:0:
120,320,31432,1,0,0:0:0:0:
200,344,31632,2,0,L|360:352,1,140,2|2,0:0|0:0,0:0:0:0:
425,339,32232,1,0,0:0:0:0:
425,339,32432,6,0,L|431:199,1,140,2|0,1:2|0:0,0:0:0:0:
440,120,33032,1,0,0:0:0:0:
440,120,33232,2,0,P|376:104|344:104,1,70,2|0,0:0|0:0,0:0:0:0:
352,184,33632,2,0,P|288:200|256:200,1,70,2|0,0:0|0:0,0:0:0:0:
264,120,34032,6,0,P|161:94|110:94,1,140,2|0,0:0|0:0,0:0:0:0:
80,160,34632,1,0,0:0:0:0:
80,160,34832,2,0,P|105:57|105:7,1,140,2|0,0:0|0:0,0:0:0:0:
272,8,35632,5,2,1:2:0:0:
255,174,36032,2,0,P|296:168|344:176,1,70
445,243,36432,2,0,P|410:237|376:240,1,70
254,312,36832,2,0,P|288:306|323:308,1,70
444,380,37232,6,0,P|456:308|443:239,1,140
400,172,37832,1,0,0:0:0:0:
328,128,38032,1,2,0:0:0:0:
