osu file format v14

[General]
AudioFilename: audio.mp3
AudioLeadIn: 0
PreviewTime: 301
Countdown: 0
SampleSet: Soft
StackLeniency: 0.7
Mode: 0
LetterboxInBreaks: 0
WidescreenStoryboard: 1

[Editor]
DistanceSpacing: 0.9
BeatDivisor: 4
GridSize: 8
TimelineZoom: 1.9

[Metadata]
Title:Elli no Thema
TitleUnicode:エリィのテーマ
Artist:Homareda Miyuki
ArtistUnicode:ほまれだみゆき
Creator:Rensia
Version:Normal
Source:牧場物語 ~ハーベストムーン
Tags:Elli's Theme Harvest Moon: Back To Nature Bokujō Bokujou Bokujo Monogatari Farm History Story of Seasons Instrumental Video Game
BeatmapID:2453183
BeatmapSetID:897036

[Difficulty]
HPDrainRate:3
CircleSize:3.5
OverallDifficulty:4
ApproachRate:5.5
SliderMultiplier:1.15
SliderTickRate:1

[Events]
//Background and Video events
0,0,"bestgirl.jpg",0,0
//Break Periods
//Storyboard Layer 0 (Background)
//Storyboard Layer 1 (Fail)
//Storyboard Layer 2 (Pass)
//Storyboard Layer 3 (Foreground)
//Storyboard Layer 4 (Overlay)
//Storyboard Sound Samples

[TimingPoints]
432,400,4,2,1,60,1,0
2832,-100,4,2,2,60,0,0
2932,-100,4,2,1,60,0,0
6032,-100,4,2,2,60,0,0
6132,-100,4,2,1,60,0,0
9232,-100,4,2,2,60,0,0
9332,-100,4,2,1,60,0,0
12432,-100,4,2,2,60,0,0
12532,-100,4,2,1,60,0,0
15632,-100,4,2,2,60,0,0
15732,-100,4,2,1,60,0,0
18832,-100,4,2,2,60,0,0
18932,-100,4,2,1,60,0,0
22032,-100,4,2,2,60,0,0
22132,-100,4,2,1,60,0,0
25232,-100,4,2,2,60,0,0
25332,-100,4,2,1,60,0,0
25432,-100,4,2,2,60,0,0
25632,-100,4,2,1,60,0,0
28432,-100,4,2,2,60,0,0
28532,-100,4,2,1,60,0,0
31632,-100,4,2,2,60,0,0
31732,-100,4,2,1,60,0,0
31832,-100,4,2,2,60,0,0
32032,-100,4,2,1,60,0,0
34832,-100,4,2,2,60,0,0
34932,-100,4,2,1,60,0,0
35032,-100,4,2,2,60,0,0
35232,-100,4,2,1,60,0,0
38032,-100,4,2,2,60,0,0

[Colours]
Combo1 : 175,125,76
Combo2 : 177,214,220
Combo3 : 251,223,212
Combo4 : 243,215,114
Combo5 : 194,214,129

[HitObjects]
64,56,432,6,0,L|191:64,1,115,2|0,1:2|0:0,0:0:0:0:
224,104,1032,1,0,0:0:0:0:
224,104,1232,2,0,L|351:95,1,115
432,52,2032,2,0,P|444:96|440:124,1,57.5,2|0,0:0|0:0,0:0:0:0:
424,156,2432,2,0,P|412:200|416:228,1,57.5,2|0,0:0|0:0,0:0:0:0:
440,256,2832,1,2,0:0:0:0:
392,344,3232,1,2,0:0:0:0:
304,296,3632,6,0,P|224:288|176:296,1,115,2|0,1:2|0:0,0:0:0:0:
144,312,4232,1,0,0:0:0:0:
144,312,4432,1,0,0:0:0:0:
82,228,4832,1,2,0:0:0:0:
160,160,5232,1,2,0:0:0:0:
240,224,5632,2,0,P|275:228|307:219,1,57.5
340,200,6032,1,2,0:0:0:0:
416,128,6432,1,0,0:0:0:0:
384,32,6832,6,0,P|328:19|272:28,1,115,2|0,1:2|0:0,0:0:0:0:
232,56,7432,1,0,0:0:0:0:
232,56,7632,2,0,P|176:69|120:60,1,115,0|0,0:1|0:0,0:0:0:0:
19,32,8432,2,0,P|15:71|23:111,1,57.5,2|0,0:0|0:0,0:0:0:0:
27,139,8832,2,0,P|31:179|23:219,1,57.5,2|0,0:0|0:0,0:0:0:0:
11,243,9232,1,2,0:0:0:0:
96,304,9632,1,2,0:0:0:0:
160,224,10032,6,0,P|157:165|168:104,1,115,2|0,1:2|0:0,0:0:0:0:
192,64,10632,1,0,0:0:0:0:
192,64,10832,1,0,0:0:0:0:
280,8,11232,1,2,0:0:0:0:
360,72,11632,1,2,0:0:0:0:
464,48,12032,2,0,L|456:128,1,57.5
448,156,12432,1,2,0:0:0:0:
512,232,12832,1,0,0:0:0:0:
416,272,13232,6,0,P|417:334|408:400,1,115,2|0,1:2|0:0,0:0:0:0:
304,384,14032,2,0,P|294:355|296:304,1,57.5,2|0,0:0|0:0,0:0:0:0:
304,280,14432,1,2,0:0:0:0:
352,184,14832,2,0,P|366:141|364:63,1,115,2|0,0:0|0:0,0:0:0:0:
344,32,15432,1,0,0:0:0:0:
344,32,15632,1,2,0:0:0:0:
240,16,16032,1,2,0:0:0:0:
168,88,16432,6,0,P|236:120|292:104,1,115,2|0,1:2|0:0,0:0:0:0:
304,216,17232,2,0,P|342:206|368:208,1,57.5,2|0,0:0|0:0,0:0:0:0:
408,224,17632,2,0,P|446:235|472:232,1,57.5,2|0,0:0|0:0,0:0:0:0:
504,216,18032,2,0,L|512:80,1,115,2|0,0:0|0:0,0:0:0:0:
439,24,18832,1,2,0:0:0:0:
337,53,19232,1,2,0:0:0:0:
240,16,19632,6,0,P|176:24|120:24,1,115,2|0,1:2|0:0,0:0:0:0:
72,16,20232,1,0,0:0:0:0:
72,16,20432,2,0,P|80:80|80:136,1,115,2|0,0:0|0:0,0:0:0:0:
152,208,21232,2,0,L|224:216,1,57.5,2|0,0:0|0:0,0:0:0:0:
248,184,21632,2,0,L|320:176,1,57.5,2|0,0:0|0:0,0:0:0:0:
344,208,22032,2,0,L|466:221,1,115,2|2,0:0|0:0,0:0:0:0:
480,320,22832,5,2,1:2:0:0:
376,344,23232,2,0,L|299:349,1,57.5
272,328,23632,2,0,L|195:324,1,57.5
168,344,24032,1,0,0:0:0:0:
104,264,24432,2,0,L|112:132,1,115
119,100,25032,1,0,0:0:0:0:
119,100,25232,1,2,0:0:0:0:
216,64,25632,1,2,0:0:0:0:
309,15,26032,6,0,P|317:79|301:129,1,115,2|0,1:2|0:0,0:0:0:0:
320,232,26832,2,0,P|280:232|248:224,1,57.5,2|0,0:0|0:0,0:0:0:0:
216,208,27232,2,0,P|176:208|144:216,1,57.5,2|0,0:0|0:0,0:0:0:0:
120,248,27632,2,0,P|51:248|-5:235,1,115,2|2,0:0|0:0,0:0:0:0:
0,136,28432,1,2,0:0:0:0:
75,63,28832,1,2,0:0:0:0:
160,120,29232,6,0,P|224:92|280:104,1,115,2|0,1:2|0:0,0:0:0:0:
314,131,29832,1,0,0:0:0:0:
314,131,30032,2,0,P|378:159|434:147,1,115,2|0,0:0|0:0,0:0:0:0:
512,112,30832,2,0,L|509:226,1,115,2|0,0:0|0:0,0:0:0:0:
408,240,31632,2,0,L|412:308,1,57.5,2|0,0:0|0:0,0:0:0:0:
456,320,32032,2,0,L|452:388,1,57.5,2|0,0:0|0:0,0:0:0:0:
400,384,32432,6,0,P|320:376|264:384,1,115,2|0,1:2|0:0,0:0:0:0:
192,336,33232,2,0,L|120:328,1,57.5,2|0,0:0|0:0,0:0:0:0:
88,352,33632,2,0,L|16:360,1,57.5,2|0,0:0|0:0,0:0:0:0:
0,316,34032,2,0,L|13:197,1,115,2|0,0:0|0:0,0:0:0:0:
88,128,34832,2,0,P|118:123|148:124,1,57.5,2|0,0:0|0:0,0:0:0:0:
196,136,35232,1,0,0:0:0:0:
288,184,35632,5,2,1:2:0:0:
384,143,36032,2,0,P|392:191|388:219,1,57.5
372,247,36432,2,0,P|364:295|368:323,1,57.5
396,343,36832,1,0,0:0:0:0:
301,384,37232,2,0,L|180:379,1,115
138,378,37832,1,0,0:0:0:0:
138,378,38032,1,2,0:0:0:0:
