osu file format v14

[General]
AudioFilename: audio.mp3
AudioLeadIn: 0
PreviewTime: 301
Countdown: 0
SampleSet: Soft
StackLeniency: 0.7
Mode: 0
LetterboxInBreaks: 0
WidescreenStoryboard: 1

[Editor]
DistanceSpacing: 1.2
BeatDivisor: 4
GridSize: 8
TimelineZoom: 1.9

[Metadata]
Title:Elli no Thema
TitleUnicode:エリィのテーマ
Artist:Homareda Miyuki
ArtistUnicode:ほまれだみゆき
Creator:Rensia
Version:Easy
Source:牧場物語 ~ハーベストムーン
Tags:Elli's Theme Harvest Moon: Back To Nature Bokujō Bokujou Bokujo Monogatari Farm History Story of Seasons Instrumental Video Game
BeatmapID:2453203
BeatmapSetID:897036

[Difficulty]
HPDrainRate:2
CircleSize:3
OverallDifficulty:2
ApproachRate:4
SliderMultiplier:0.9
SliderTickRate:1

[Events]
//Background and Video events
0,0,"bestgirl.jpg",0,0
//Break Periods
//Storyboard Layer 0 (Background)
//Storyboard Layer 1 (Fail)
//Storyboard Layer 2 (Pass)
//Storyboard Layer 3 (Foreground)
//Storyboard Layer 4 (Overlay)
//Storyboard Sound Samples

[TimingPoints]
432,400,4,2,1,60,1,0
2832,-100,4,2,2,60,0,0
2932,-100,4,2,1,60,0,0
6032,-100,4,2,2,60,0,0
6132,-100,4,2,1,60,0,0
9232,-100,4,2,2,60,0,0
9332,-100,4,2,1,60,0,0
12432,-100,4,2,2,60,0,0
12532,-100,4,2,1,60,0,0
15632,-100,4,2,2,60,0,0
15732,-100,4,2,1,60,0,0
18832,-100,4,2,2,60,0,0
18932,-100,4,2,1,60,0,0
22032,-100,4,2,2,60,0,0
22132,-100,4,2,1,60,0,0
25232,-100,4,2,2,60,0,0
25332,-100,4,2,1,60,0,0
28432,-100,4,2,2,60,0,0
28532,-100,4,2,1,60,0,0
31632,-100,4,2,2,60,0,0
31732,-100,4,2,1,60,0,0
34832,-100,4,2,2,60,0,0
34932,-100,4,2,1,60,0,0
38032,-100,4,2,2,60,0,0

[Colours]
Combo1 : 175,125,76
Combo2 : 177,214,220
Combo3 : 251,223,212
Combo4 : 243,215,114
Combo5 : 194,214,129

[HitObjects]
16,0,432,6,0,P|0:96|8:184,1,180,2|0,1:2|0:0,0:0:0:0:
144,288,2032,1,2,0:0:0:0:
220,336,2432,1,2,0:0:0:0:
272,264,2832,2,0,P|320:248|368:256,1,90,2|2,0:0|0:0,0:0:0:0:
432,304,3632,6,0,P|444:220|364:160,1,180,2|0,1:2|0:0,0:0:0:0:
288,160,4832,1,2,0:0:0:0:
334,82,5232,1,2,0:0:0:0:
296,0,5632,2,0,L|192:8,2,90,0|2|0,0:0|0:0|0:0,0:0:0:0:
381,29,6832,6,0,L|395:223,1,180,2|0,1:2|0:1,0:0:0:0:
248,312,8432,1,2,0:0:0:0:
184,376,8832,1,2,0:0:0:0:
120,312,9232,2,0,L|30:305,1,90,2|2,0:0|0:0,0:0:0:0:
8,216,10032,6,0,L|22:36,1,180,2|0,1:2|0:0,0:0:0:0:
104,0,11232,1,2,0:0:0:0:
160,72,11632,1,2,0:0:0:0:
244,40,12032,2,0,P|300:32|340:40,2,90,0|2|0,0:0|0:0|0:0,0:0:0:0:
160,72,13232,6,0,L|152:256,1,180,2|2,1:2|0:0,0:0:0:0:
128,336,14432,1,2,0:0:0:0:
216,316,14832,2,0,L|318:320,1,90,2|0,0:0|0:0,0:0:0:0:
392,296,15632,1,2,0:0:0:0:
464,344,16032,1,2,0:0:0:0:
504,264,16432,6,0,P|516:176|511:84,1,180,2|2,1:2|0:0,0:0:0:0:
440,24,17632,1,2,0:0:0:0:
368,72,18032,2,0,P|316:74|264:67,1,90,2|0,0:0|0:0,0:0:0:0:
208,16,18832,1,2,0:0:0:0:
128,56,19232,1,2,0:0:0:0:
48,8,19632,6,0,L|36:200,1,180,2|2,1:2|0:0,0:0:0:0:
216,184,21232,1,2,0:0:0:0:
296,136,21632,1,2,0:0:0:0:
376,176,22032,2,0,L|372:272,1,90,2|2,0:0|0:0,0:0:0:0:
304,325,22832,5,2,1:2:0:0:
378,376,23232,2,0,P|428:383|482:376,2,90
304,325,24432,2,0,P|256:318|205:325,1,90
128,349,25232,1,2,0:0:0:0:
72,280,25632,1,2,0:0:0:0:
96,192,26032,6,0,P|185:200|274:186,1,180,2|2,1:2|0:0,0:0:0:0:
312,104,27232,1,2,0:0:0:0:
401,96,27632,2,0,P|395:162|401:192,1,90,2|2,0:0|0:0,0:0:0:0:
456,256,28432,1,2,0:0:0:0:
416,336,28832,1,2,0:0:0:0:
336,296,29232,5,2,1:2:0:0:
168,360,30032,2,0,P|161:318|160:264,1,90,2|0,0:0|0:0,0:0:0:0:
224,208,30832,2,0,P|231:166|232:112,1,90,2|0,0:0|0:0,0:0:0:0:
168,56,31632,1,2,0:0:0:0:
80,80,32032,1,2,0:0:0:0:
0,24,32432,6,0,P|-8:96|0:224,1,180,2|2,1:2|0:0,0:0:0:0:
40,280,33632,1,2,0:0:0:0:
116,236,34032,2,0,P|161:233|207:238,1,90,2|0,0:0|0:0,0:0:0:0:
288,272,34832,1,2,0:0:0:0:
459,321,35632,5,2,1:2:0:0:
496,240,36032,2,0,L|504:136,2,90
459,321,37232,2,0,L|369:314,1,90
320,240,38032,1,2,0:0:0:0:
