osu file format v14

[General]
AudioFilename: audio.mp3
AudioLeadIn: 0
PreviewTime: 227372
Countdown: 0
SampleSet: Normal
StackLeniency: 0.7
Mode: 0
LetterboxInBreaks: 0
WidescreenStoryboard: 0

[Editor]
Bookmarks: 1272,1572,2872,5372,5672,5972,8372,13272,18572,32172,47872,136572,201372
DistanceSpacing: 1.2
BeatDivisor: 4
GridSize: 4
TimelineZoom: 1

[Metadata]
Title:Ochame Kinou
TitleUnicode:Ochame Kinou
Artist:Hololive [24 Talents]
ArtistUnicode:Hololive [24 Talents]
Creator:Akiiba
Version:IDOL
Source:
Tags:Vtuber, Hololive, Roboco, Shion Murasaki, Watame Tsunomaki, Ookami Mio, Aki Rosenthal, Nekomata Okayu, Minato Aqua, Natsuiro Matsuri, Choco Yuzuki, Yozora Mel, Pekora Usada, Miko Sakura, Tokoyami Towa, Himemori Luna, Uruha Rushia, Houshou Marine, Hoshimachi Suisei, Amane Kanata, Tokino Sora, AZKi, Subaru Oozora, Ayame Nakiri, Shiranui Flare, Shirogane Noel
BeatmapID:2936986
BeatmapSetID:1426232

[Difficulty]
HPDrainRate:6
CircleSize:4.5
OverallDifficulty:7
ApproachRate:9
SliderMultiplier:1
SliderTickRate:1

[Events]
//Background and Video events
0,0,"Hololive.full.3199367.jpg",0,0
//Break Periods
2,166772,198372
//Storyboard Layer 0 (Background)
//Storyboard Layer 1 (Fail)
//Storyboard Layer 2 (Pass)
//Storyboard Layer 3 (Foreground)
//Storyboard Layer 4 (Overlay)
//Storyboard Sound Samples

[TimingPoints]
572,400,4,1,0,100,1,0
5272,-58.8235294117647,4,1,0,100,0,0
12272,-250,4,1,0,100,0,0
13372,-58.8235294117647,4,1,0,100,0,0
18072,-250,4,1,0,100,0,0
18672,-58.8235294117647,4,1,0,100,0,0
86672,-250,4,1,0,100,0,0
87772,-58.8235294117647,4,1,0,100,0,0
95572,-250,4,1,0,100,0,0
96072,-58.8235294117647,4,1,0,100,0,0
99672,-250,4,1,0,100,0,0
100472,-58.8235294117647,4,1,0,100,0,0
115672,-250,4,1,0,100,0,0
116272,-58.8235294117647,4,1,0,100,0,0
116572,-50,4,1,0,100,0,0
117072,-58.8235294117647,4,1,0,100,0,0

[Colours]
Combo1 : 0,234,58
Combo2 : 255,0,0
Combo3 : 255,0,128
Combo4 : 0,0,0
Combo5 : 255,255,255
Combo6 : 255,128,0
Combo7 : 255,255,0
Combo8 : 128,64,64

[HitObjects]
62,70,572,5,0,0:0:0:0:
147,111,772,1,0,0:0:0:0:
174,26,972,2,0,P|214:26|231:37,1,50
221,30,1272,1,0,0:0:0:0:
221,30,1372,1,0,0:0:0:0:
221,30,1472,1,0,0:0:0:0:
221,30,1572,1,0,0:0:0:0:
415,124,1772,1,0,0:0:0:0:
433,202,1972,6,0,P|430:240|413:263,1,50
315,326,2372,1,0,0:0:0:0:
260,179,2572,1,0,0:0:0:0:
150,288,2772,1,0,0:0:0:0:
54,302,2872,2,0,P|40:268|44:234,2,50
54,302,3372,1,0,0:0:0:0:
128,331,3572,6,0,P|166:337|185:321,1,50
264,239,3972,1,0,0:0:0:0:
70,240,4172,1,0,0:0:0:0:
66,121,4372,1,0,0:0:0:0:
66,121,4472,2,0,P|91:77|127:63,1,75
249,54,4972,1,0,0:0:0:0:
255,192,5172,1,0,0:0:0:0:
130,292,5372,2,0,L|169:257,1,42.5000008106232
388,286,5672,2,0,L|334:246,1,42.5000008106232
255,44,5972,2,0,L|255:93,1,42.5000008106232
141,309,6372,5,0,0:0:0:0:
130,292,6472,1,0,0:0:0:0:
118,275,6572,1,0,0:0:0:0:
104,257,6672,1,0,0:0:0:0:
96,237,6772,1,0,0:0:0:0:
81,216,6872,1,0,0:0:0:0:
74,192,6972,2,0,P|101:133|129:128,1,85.0000016212464
230,53,7372,1,0,0:0:0:0:
217,180,7572,1,0,0:0:0:0:
286,232,7672,2,0,L|324:253,2,42.5000008106232
306,165,7972,5,0,0:0:0:0:
408,99,8172,2,0,P|453:137|456:186,1,85.0000016212464
432,296,8572,2,0,P|365:276|318:292,1,85.0000016212464
247,333,8972,2,0,P|198:288|202:261,1,85.0000016212464
157,202,9272,2,0,L|186:171,1,42.5000008106232
295,91,9572,1,0,0:0:0:0:
223,62,9672,2,0,P|171:44|101:54,1,127.50000243187
41,157,10172,5,0,0:0:0:0:
182,255,10372,1,0,0:0:0:0:
57,272,10572,1,0,0:0:0:0:
175,143,10772,2,0,P|215:106|256:95,1,85.0000016212464
351,104,11172,1,0,0:0:0:0:
262,201,11372,1,0,0:0:0:0:
431,144,11572,1,0,0:0:0:0:
391,262,11772,2,0,L|314:315,1,85.0000016212464
224,180,12172,1,0,0:0:0:0:
182,269,12372,2,0,P|148:307|108:296,1,90
33,244,13372,5,0,0:0:0:0:
146,187,13572,1,0,0:0:0:0:
36,142,13772,2,0,P|46:88|83:82,1,85.0000016212464
211,124,14172,2,0,P|258:117|289:94,1,85.0000016212464
368,60,14572,1,0,0:0:0:0:
428,152,14772,2,0,P|351:155|338:185,1,85.0000016212464
417,257,15172,1,0,0:0:0:0:
261,243,15372,1,0,0:0:0:0:
265,158,15572,2,0,P|263:99|226:95,1,85.0000016212464
123,56,15972,5,0,0:0:0:0:
29,124,16172,1,0,0:0:0:0:
145,138,16372,2,0,P|198:172|180:215,2,85.0000016212464
59,232,16972,1,0,0:0:0:0:
100,309,17172,2,0,P|175:325|204:313,1,85.0000016212464
261,305,17572,2,0,P|306:268|336:277,1,85.0000016212464
416,303,17972,1,0,0:0:0:0:
428,220,18172,6,0,L|389:192,1,40
340,106,18772,2,0,P|297:111|246:93,1,85.0000016212464
174,50,19172,1,0,0:0:0:0:
208,134,19372,2,0,P|254:159|258:219,1,85.0000016212464
279,328,19772,2,0,P|336:326|376:304,1,85.0000016212464
413,183,20172,1,0,0:0:0:0:
292,90,20372,1,0,0:0:0:0:
186,187,20572,2,0,P|226:235|259:253,2,85.0000016212464
215,78,21172,1,0,0:0:0:0:
114,75,21372,6,0,P|54:83|0:176,1,170.000003242493
98,307,21972,1,0,0:0:0:0:
229,227,22172,1,0,0:0:0:0:
314,329,22372,2,0,P|377:325|406:300,1,85.0000016212464
411,211,22772,1,0,0:0:0:0:
278,210,22972,2,0,P|285:153|331:113,1,85.0000016212464
405,57,23372,1,0,0:0:0:0:
245,44,23572,1,0,0:0:0:0:
159,162,23772,2,0,P|171:232|136:175,1,170.000003242493
65,86,24372,5,0,0:0:0:0:
198,49,24572,1,0,0:0:0:0:
268,139,24772,2,0,P|327:147|351:110,1,85.0000016212464
377,34,25172,1,0,0:0:0:0:
456,91,25372,2,0,P|476:170|459:181,1,85.0000016212464
403,245,25772,1,0,0:0:0:0:
330,315,25972,6,0,L|235:301,1,85.0000016212464
163,227,26372,1,0,0:0:0:0:
78,314,26572,2,0,P|87:268|89:229,1,85.0000016212464
80,133,26972,2,0,P|63:88|106:48,2,85.0000016212464
210,157,27572,1,0,0:0:0:0:
160,66,27772,2,0,P|232:52|279:59,1,85.0000016212464
374,77,28172,1,0,0:0:0:0:
255,200,28372,1,0,0:0:0:0:
432,216,28572,2,0,P|412:271|379:296,2,85.0000016212464
306,168,29172,5,0,0:0:0:0:
189,157,29372,2,0,P|141:192|138:230,1,85.0000016212464
154,308,29772,2,0,P|226:328|255:324,1,85.0000016212464
369,265,30172,1,0,0:0:0:0:
337,152,30372,2,0,P|291:103|300:69,1,85.0000016212464
347,37,30772,5,0,0:0:0:0:
422,230,30972,1,0,0:0:0:0:
275,99,31172,1,0,0:0:0:0:
475,140,31372,1,0,0:0:0:0:
279,175,31572,1,0,0:0:0:0:
450,57,31772,1,0,0:0:0:0:
335,243,31972,1,0,0:0:0:0:
373,31,32172,1,0,0:0:0:0:
443,220,32372,1,0,0:0:0:0:
440,303,32572,6,0,P|363:346|276:342,1,170.000003242493
216,258,33172,1,0,0:0:0:0:
189,158,33372,2,0,P|66:180|-2:172,1,170.000003242493
81,71,33972,1,0,0:0:0:0:
269,44,34172,1,0,0:0:0:0:
223,203,34372,1,0,0:0:0:0:
84,171,34572,2,0,P|81:222|96:271,1,85.0000016212464
209,294,34972,2,0,P|271:296|303:272,2,85.0000016212464
193,199,35572,5,0,0:0:0:0:
294,201,35772,2,0,P|362:222|383:251,1,85.0000016212464
279,317,36172,1,0,0:0:0:0:
444,302,36372,1,0,0:0:0:0:
346,236,36572,2,0,P|351:170|350:237,1,170.000003242493
454,155,37172,2,0,P|449:97|407:73,1,85.0000016212464
331,50,37572,1,0,0:0:0:0:
286,189,37772,1,0,0:0:0:0:
214,42,37972,1,0,0:0:0:0:
181,153,38172,2,0,P|107:146|75:116,1,85.0000016212464
44,53,38572,5,0,0:0:0:0:
190,37,38772,1,0,0:0:0:0:
129,128,38972,2,0,P|94:180|99:228,2,85.0000016212464
250,194,39572,1,0,0:0:0:0:
346,200,39772,2,0,P|420:175|448:86,1,170.000003242493
327,52,40372,2,0,P|282:41|245:52,1,85.0000016212464
213,175,40772,1,0,0:0:0:0:
174,21,40972,1,0,0:0:0:0:
316,128,41172,1,0,0:0:0:0:
94,78,41372,1,0,0:0:0:0:
94,78,41472,1,0,0:0:0:0:
94,78,41572,1,0,0:0:0:0:
94,78,41672,1,0,0:0:0:0:
94,78,41772,1,0,0:0:0:0:
51,195,41972,5,0,0:0:0:0:
98,277,42172,2,0,P|142:303|208:318,2,85.0000016212464
180,216,42772,1,0,0:0:0:0:
247,331,42972,2,0,P|314:323|381:239,1,170.000003242493
383,133,43572,1,0,0:0:0:0:
383,133,43772,2,0,L|380:74,1,42.5000008106232
383,133,43972,2,0,L|440:133,1,42.5000008106232
383,133,44172,2,0,L|382:184,1,42.5000008106232
383,133,44372,2,0,L|321:132,1,42.5000008106232
383,133,44572,2,0,L|382:78,1,42.5000008106232
383,133,44772,2,0,L|433:137,1,42.5000008106232
383,133,44972,2,0,L|382:183,2,42.5000008106232
287,89,45372,6,0,P|233:63|118:67,1,170.000003242493
61,136,45972,1,0,0:0:0:0:
57,212,46172,2,0,P|86:265|125:279,1,85.0000016212464
174,186,46572,1,0,0:0:0:0:
246,151,46772,2,0,P|302:123|349:147,5,85.0000016212464
393,153,47872,1,0,0:0:0:0:
393,153,47972,1,0,0:0:0:0:
393,153,48072,1,0,0:0:0:0:
393,153,48172,1,0,0:0:0:0:
364,273,48372,1,0,0:0:0:0:
260,301,48572,6,0,L|175:287,1,85.0000016212464
37,258,48972,2,0,L|121:207,1,85.0000016212464
175,130,49372,2,0,L|61:91,1,85.0000016212464
169,34,49772,1,0,0:0:0:0:
255,190,49972,1,0,0:0:0:0:
263,32,50172,1,0,0:0:0:0:
156,192,50372,1,0,0:0:0:0:
337,71,50572,1,0,0:0:0:0:
397,147,50772,2,0,P|426:207|411:251,2,85.0000016212464
271,197,51372,1,0,0:0:0:0:
390,308,51572,1,0,0:0:0:0:
260,318,51772,6,0,P|151:300|102:224,1,170.000003242493
214,186,52372,1,0,0:0:0:0:
35,159,52572,2,0,P|57:106|157:58,1,170.000003242493
284,188,53172,1,0,0:0:0:0:
295,49,53372,2,0,L|351:71,1,42.5000008106232
370,80,53572,2,0,L|372:131,1,42.5000008106232
384,164,53772,2,0,L|383:212,1,42.5000008106232
380,246,53972,2,0,L|346:283,1,42.5000008106232
316,304,54172,2,0,P|270:312|239:283,2,85.0000016212464
261,179,54772,1,0,0:0:0:0:
401,147,54972,6,0,P|330:64|266:62,1,170.000003242493
190,154,55572,1,0,0:0:0:0:
77,137,55772,2,0,P|115:57|192:57,1,170.000003242493
258,188,56372,1,0,0:0:0:0:
167,275,56572,1,0,0:0:0:0:
293,309,56772,1,0,0:0:0:0:
406,271,56972,1,0,0:0:0:0:
423,167,57172,1,0,0:0:0:0:
364,81,57372,2,0,P|314:52|261:53,2,85.0000016212464
307,183,57972,1,0,0:0:0:0:
257,249,58172,6,0,P|194:287|166:288,2,85.0000016212464
152,180,58772,1,0,0:0:0:0:
71,289,58972,1,0,0:0:0:0:
221,217,59172,1,0,0:0:0:0:
15,234,59372,1,0,0:0:0:0:
223,290,59572,2,0,L|266:303,1,42.5000008106232
306,308,59772,1,0,0:0:0:0:
343,301,59872,2,0,P|384:257|396:188,1,127.50000243187
348,91,60372,1,0,0:0:0:0:
241,67,60572,2,0,L|146:58,2,85.0000016212464
95,137,61172,6,0,P|97:194|111:223,1,85.0000016212464
210,272,61572,1,0,0:0:0:0:
49,297,61772,1,0,0:0:0:0:
143,185,61972,1,0,0:0:0:0:
216,351,62172,2,0,P|276:353|314:337,1,85.0000016212464
400,250,62572,2,0,L|301:232,2,85.0000016212464
436,154,63172,2,0,P|382:88|358:85,2,85.0000016212464
313,179,63772,1,0,0:0:0:0:
238,175,63972,2,0,P|157:149|156:126,1,85.0000016212464
152,74,64272,6,0,L|97:73,2,42.5000008106232
240,67,64572,2,0,P|288:48|326:54,2,85.0000016212464
366,110,65172,1,0,0:0:0:0:
405,196,65372,2,0,P|334:210|298:206,2,85.0000016212464
429,276,65972,2,0,P|384:311|346:317,3,85.0000016212464
272,303,66772,2,0,P|226:270|211:233,1,85.0000016212464
249,152,67172,2,0,P|230:108|166:96,1,85.0000016212464
91,113,67572,5,0,0:0:0:0:
201,215,67772,1,0,0:0:0:0:
25,184,67972,1,0,0:0:0:0:
226,130,68172,2,0,P|277:97|340:94,2,85.0000016212464
320,175,68772,2,0,L|369:201,4,42.5000008106232
374,288,69372,6,0,P|325:262|321:207,1,85.0000016212464
374,288,69672,2,0,P|416:246|446:278,1,85.0000016212464
374,288,69972,2,0,P|422:318|403:358,1,85.0000016212464
286,326,70372,6,0,P|229:327|169:300,1,85.0000016212464
84,242,70772,1,0,0:0:0:0:
98,151,70972,2,0,L|158:86,2,85.0000016212464
227,169,71572,1,0,0:0:0:0:
331,48,71772,1,0,0:0:0:0:
404,165,71972,1,0,0:0:0:0:
195,62,72172,1,0,0:0:0:0:
227,169,72372,2,0,P|237:231|205:274,1,85.0000016212464
135,303,72772,1,0,0:0:0:0:
62,240,72972,2,0,P|51:181|63:122,2,85.0000016212464
167,309,73572,5,0,0:0:0:0:
258,308,73772,2,0,P|310:311|344:296,1,85.0000016212464
455,341,74172,1,0,0:0:0:0:
299,206,74372,1,0,0:0:0:0:
481,248,74572,1,0,0:0:0:0:
248,267,74772,2,0,L|183:248,2,42.5000008106232
363,198,75172,5,0,0:0:0:0:
408,98,75372,2,0,P|339:89|302:92,1,85.0000016212464
147,151,75772,2,0,L|240:152,1,85.0000016212464
392,205,76172,2,0,P|306:264|236:255,1,170.000003242493
120,209,76772,1,0,0:0:0:0:
196,134,76972,2,0,P|134:91|87:88,1,85.0000016212464
287,54,77372,6,0,P|350:43|390:45,1,85.0000016212464
415,126,77772,2,0,P|356:156|305:145,2,85.0000016212464
447,211,78372,2,0,P|435:273|414:298,1,85.0000016212464
298,288,78772,1,0,0:0:0:0:
171,258,78972,2,0,L|90:220,2,85.0000016212464
229,205,79572,2,0,P|281:206|318:168,1,85.0000016212464
348,102,79972,1,0,0:0:0:0:
240,93,80172,6,0,P|192:61|71:73,1,170.000003242493
119,175,80772,1,0,0:0:0:0:
46,253,80972,2,0,P|61:298|99:313,2,85.0000016212464
189,255,81572,1,0,0:0:0:0:
305,312,81772,1,0,0:0:0:0:
419,284,81972,2,0,P|451:231|450:191,1,85.0000016212464
450,108,82372,1,0,0:0:0:0:
319,68,82572,2,0,P|361:129|359:161,2,85.0000016212464
176,68,83172,1,0,0:0:0:0:
257,201,83372,2,0,P|310:221|247:220,1,170.000003242493
116,149,83972,5,0,0:0:0:0:
75,282,84172,1,0,0:0:0:0:
218,249,84372,2,0,P|279:298|319:296,1,85.0000016212464
418,288,84772,1,0,0:0:0:0:
319,175,84972,1,0,0:0:0:0:
310,343,85172,1,0,0:0:0:0:
308,126,85372,6,0,P|398:132|403:126,1,85.0000016212464
178,311,85772,1,0,0:0:0:0:
133,103,85972,1,0,0:0:0:0:
411,178,86172,2,0,P|453:208|463:249,1,85.0000016212464
252,73,86572,1,0,0:0:0:0:
222,297,86772,2,0,L|141:309,1,80
3,209,87772,5,0,0:0:0:0:
84,155,87972,2,0,P|168:155|189:136,1,85.0000016212464
195,58,88372,1,0,0:0:0:0:
318,157,88572,2,0,L|402:118,1,85.0000016212464
252,191,88972,1,0,0:0:0:0:
189,230,89172,2,0,L|107:269,2,85.0000016212464
252,191,89772,1,0,0:0:0:0:
347,84,89972,6,0,L|402:77,2,42.5000008106232
460,139,90372,1,0,0:0:0:0:
464,247,90572,2,0,P|421:300|394:306,2,85.0000016212464
308,196,91172,1,0,0:0:0:0:
169,309,91372,1,0,0:0:0:0:
374,275,91572,1,0,0:0:0:0:
126,199,91772,1,0,0:0:0:0:
293,363,91972,1,0,0:0:0:0:
318,230,92172,2,0,P|317:171|281:122,2,85.0000016212464
188,197,92772,5,0,0:0:0:0:
371,307,92972,1,0,0:0:0:0:
249,326,93172,2,0,L|81:205,1,170.000003242493
100,221,93772,1,0,0:0:0:0:
100,221,93972,1,0,0:0:0:0:
100,221,94172,2,0,L|243:85,1,170.000003242493
337,124,94772,6,0,L|385:153,1,42.5000008106232
284,181,94972,2,0,L|226:152,1,42.5000008106232
253,255,95172,2,0,L|306:282,1,42.5000008106232
177,223,95372,2,0,L|130:195,1,42.5000008106232
207,78,95572,2,0,L|245:102,1,40
369,120,96172,1,0,0:0:0:0:
256,192,96372,12,0,98072,0:0:0:0:
255,191,98172,5,0,0:0:0:0:
256,192,98272,12,0,98972,0:0:0:0:
52,150,99772,6,0,L|100:197,1,60
211,293,100572,2,0,P|308:308|380:283,1,170.000003242493
446,162,101172,2,0,P|463:247|456:250,1,85.0000016212464
360,179,101572,2,0,P|328:119|341:93,1,85.0000016212464
342,248,101972,2,0,P|293:286|243:293,2,85.0000016212464
290,194,102572,5,0,0:0:0:0:
290,194,102672,1,0,0:0:0:0:
290,194,102772,1,0,0:0:0:0:
290,194,102872,1,0,0:0:0:0:
290,194,102972,2,0,P|345:218|280:212,1,170.000003242493
290,194,103572,5,0,0:0:0:0:
242,126,103772,2,0,P|196:83|92:56,1,170.000003242493
98,157,104372,2,0,P|157:212|151:229,1,85.0000016212464
117,313,104772,2,0,P|167:339|221:343,1,85.0000016212464
225,246,105172,2,0,P|249:202|288:192,2,85.0000016212464
225,246,105772,1,0,0:0:0:0:
333,327,105972,1,0,0:0:0:0:
398,281,106172,6,0,P|436:256|452:217,1,85.0000016212464
256,192,106572,12,0,107172,0:0:0:0:
141,266,107372,5,0,0:0:0:0:
84,156,107572,2,0,P|111:88|153:75,2,85.0000016212464
224,186,108172,1,0,0:0:0:0:
146,309,108372,1,0,0:0:0:0:
324,289,108572,2,0,P|425:240|426:238,1,85.0000016212464
398,200,108972,2,0,L|285:223,1,85.0000016212464
314,61,109372,6,0,L|112:62,1,170.000003242493
256,194,109972,5,0,0:0:0:0:
140,285,110172,2,0,L|336:289,1,170.000003242493
256,194,110772,5,0,0:0:0:0:
343,110,110972,2,0,L|406:78,1,42.5000008106232
438,141,111172,2,0,L|461:185,1,42.5000008106232
496,251,111372,2,0,L|446:277,1,42.5000008106232
381,294,111572,2,0,L|360:238,1,42.5000008106232
336,183,111772,2,0,L|252:202,2,85.0000016212464
244,206,112372,1,0,0:0:0:0:
391,237,112572,6,0,P|406:172|354:85,1,170.000003242493
244,57,113172,1,0,0:0:0:0:
232,141,113372,2,0,P|202:205|158:223,2,85.0000016212464
92,114,113972,1,0,0:0:0:0:
83,233,114172,2,0,P|142:301|151:310,1,85.0000016212464
349,318,114572,2,0,L|402:321,1,42.5000008106232
283,313,114772,2,0,L|287:260,1,42.5000008106232
347,318,114972,2,0,P|400:295|408:266,2,85.0000016212464
303,224,115572,1,0,0:0:0:0:
377,300,115772,6,0,L|414:271,1,40
439,210,116372,2,0,L|426:163,1,42.5000008106232
426,82,116572,2,0,L|195:82,1,200
121,50,117172,1,0,0:0:0:0:
79,140,117372,2,0,P|79:208|94:240,2,85.0000016212464
156,126,117972,2,0,P|208:166|232:197,1,85.0000016212464
284,230,118372,2,0,L|229:269,1,42.5000008106232
284,230,118572,2,0,L|328:201,1,42.5000008106232
284,230,118772,1,0,0:0:0:0:
440,194,118972,6,0,P|414:253|393:279,2,85.0000016212464
440,194,119572,1,0,0:0:0:0:
440,194,119772,2,0,P|414:253|393:279,2,85.0000016212464
438,117,120372,1,0,0:0:0:0:
347,87,120572,2,0,P|291:70|255:70,1,85.0000016212464
99,109,120972,2,0,P|161:96|192:98,2,85.0000016212464
99,109,121572,1,0,0:0:0:0:
266,55,121772,1,0,0:0:0:0:
266,55,121972,1,0,0:0:0:0:
377,79,122172,6,0,P|454:124|471:150,2,85.0000016212464
343,137,122772,1,0,0:0:0:0:
214,166,122972,2,0,P|268:223|274:263,2,85.0000016212464
116,85,123572,1,0,0:0:0:0:
316,272,123772,1,0,0:0:0:0:
255,28,123972,1,0,0:0:0:0:
145,275,124172,1,0,0:0:0:0:
386,92,124372,1,0,0:0:0:0:
107,163,124572,1,0,0:0:0:0:
352,228,124772,1,0,0:0:0:0:
352,228,124872,1,0,0:0:0:0:
352,228,124972,1,0,0:0:0:0:
352,228,125072,1,0,0:0:0:0:
352,228,125172,1,0,0:0:0:0:
352,228,125272,1,0,0:0:0:0:
352,228,125372,6,0,P|318:265|279:265,2,85.0000016212464
461,154,125972,1,0,0:0:0:0:
359,50,126172,2,0,L|306:35,1,42.5000008106232
244,41,126372,2,0,L|220:84,1,42.5000008106232
194,184,126572,1,0,0:0:0:0:
192,266,126772,2,0,P|120:285|80:285,1,85.0000016212464
31,187,127172,1,0,0:0:0:0:
194,184,127372,1,0,0:0:0:0:
122,133,127572,2,0,P|148:83|187:66,2,85.0000016212464
109,247,128172,1,0,0:0:0:0:
178,279,128372,2,0,P|246:285|285:269,1,85.0000016212464
300,191,128772,2,0,P|364:239|375:257,1,85.0000016212464
386,269,129172,5,0,0:0:0:0:
452,182,129372,2,0,P|444:122|411:73,1,85.0000016212464
308,64,129772,1,0,0:0:0:0:
192,200,129972,1,0,0:0:0:0:
397,90,130172,1,0,0:0:0:0:
141,120,130372,1,0,0:0:0:0:
395,207,130572,1,0,0:0:0:0:
228,29,130772,1,0,0:0:0:0:
228,29,130872,1,0,0:0:0:0:
228,29,130972,1,0,0:0:0:0:
228,29,131072,1,0,0:0:0:0:
228,29,131172,1,0,0:0:0:0:
228,29,131272,1,0,0:0:0:0:
228,29,131372,1,0,0:0:0:0:
362,54,131572,1,0,0:0:0:0:
392,155,131772,6,0,P|411:195|380:258,1,85.0000016212464
304,278,132172,1,0,0:0:0:0:
271,168,132372,1,0,0:0:0:0:
231,241,132572,2,0,L|171:262,4,42.5000008106232
120,253,133172,2,0,P|72:224|61:182,2,85.0000016212464
192,218,133772,2,0,L|234:132,1,85.0000016212464
180,60,134172,2,0,P|259:71|293:76,1,85.0000016212464
370,79,134572,2,0,P|423:132|438:162,1,85.0000016212464
427,222,134972,2,0,P|375:281|336:290,1,85.0000016212464
360,284,135272,1,0,0:0:0:0:
245,288,135372,2,0,L|268:222,1,42.5000008106232
190,209,135572,2,0,L|172:258,3,42.5000008106232
153,320,135972,2,0,L|89:297,1,42.5000008106232
53,275,136172,2,0,P|66:200|100:167,1,85.0000016212464
261,187,136572,6,0,L|346:102,1,85.0000016212464
254,191,136872,2,0,L|334:257,1,85.0000016212464
265,187,137172,2,0,L|183:244,1,85.0000016212464
265,187,137572,2,0,P|226:130|198:107,1,85.0000016212464
97,150,137972,1,0,0:0:0:0:
87,57,138172,2,0,P|188:56|210:62,1,85.0000016212464
290,90,138572,1,0,0:0:0:0:
393,52,138772,2,0,P|445:113|440:151,1,85.0000016212464
316,192,139172,1,0,0:0:0:0:
470,166,139372,5,0,0:0:0:0:
421,234,139572,2,0,L|341:285,1,85.0000016212464
286,197,139972,1,0,0:0:0:0:
135,254,140172,2,0,P|189:308|214:316,2,85.0000016212464
33,187,140772,1,0,0:0:0:0:
141,188,140972,2,0,P|157:111|138:89,1,85.0000016212464
278,32,141372,2,0,P|339:74|351:97,1,85.0000016212464
452,110,141772,1,0,0:0:0:0:
437,217,141972,2,0,L|365:251,2,42.5000008106232
297,180,142372,1,0,0:0:0:0:
171,313,142572,2,0,L|286:315,2,85.0000016212464
171,313,143172,1,0,0:0:0:0:
176,318,143372,2,0,P|90:280|77:260,2,85.0000016212464
171,313,143872,1,0,0:0:0:0:
171,313,143972,2,0,L|344:294,1,170.000003242493
499,215,144572,5,0,0:0:0:0:
370,102,144772,1,0,0:0:0:0:
374,231,144972,1,0,0:0:0:0:
482,97,145172,2,0,L|448:140,2,42.5000008106232
315,95,145572,1,0,0:0:0:0:
433,243,145772,1,0,0:0:0:0:
416,69,145972,1,0,0:0:0:0:
332,240,146172,1,0,0:0:0:0:
483,149,146372,1,0,0:0:0:0:
274,131,146572,1,0,0:0:0:0:
466,254,146772,1,0,0:0:0:0:
401,60,146972,1,0,0:0:0:0:
332,240,147172,2,0,P|248:284|240:278,2,85.0000016212464
250,140,147772,5,0,0:0:0:0:
91,114,147972,1,0,0:0:0:0:
183,229,148172,1,0,0:0:0:0:
190,63,148372,2,0,L|226:40,2,42.5000008106232
53,228,148772,1,0,0:0:0:0:
94,44,148972,1,0,0:0:0:0:
190,235,149172,1,0,0:0:0:0:
226,93,149372,2,0,P|299:83|317:78,1,85.0000016212464
386,129,149772,2,0,P|399:187|388:217,2,85.0000016212464
391,209,150372,1,0,0:0:0:0:
459,279,150572,2,0,P|402:314|351:337,1,85.0000016212464
282,240,150972,1,0,0:0:0:0:
282,240,151172,1,0,0:0:0:0:
282,240,151372,1,0,0:0:0:0:
167,221,151572,5,0,0:0:0:0:
167,221,151672,1,0,0:0:0:0:
167,221,151772,2,0,P|121:188|121:158,1,85.0000016212464
41,108,152172,1,0,0:0:0:0:
122,40,152372,2,0,P|196:49|215:78,1,85.0000016212464
176,161,152772,1,0,0:0:0:0:
328,46,152972,1,0,0:0:0:0:
441,117,153172,2,0,P|438:168|406:212,2,85.0000016212464
362,237,153772,1,0,0:0:0:0:
460,292,153972,2,0,P|371:327|366:330,4,85.0000016212464
453,298,154972,6,0,L|346:243,1,85.0000016212464
296,221,155372,1,0,0:0:0:0:
211,322,155572,1,0,0:0:0:0:
186,223,155772,2,0,P|140:181|132:149,1,85.0000016212464
206,72,156172,2,0,P|270:89|289:112,2,85.0000016212464
206,72,156672,1,0,0:0:0:0:
206,72,156772,1,0,0:0:0:0:
103,101,156972,5,0,0:0:0:0:
77,191,157172,2,0,P|69:256|98:307,1,85.0000016212464
160,267,157572,6,0,L|203:266,1,42.5000008106232
268,267,157772,2,0,P|346:264|356:245,1,85.0000016212464
425,292,158172,1,0,0:0:0:0:
351,168,158372,1,0,0:0:0:0:
439,208,158572,2,0,P|451:168|444:122,1,85.0000016212464
375,81,158972,2,0,L|324:64,1,42.5000008106232
375,81,159172,2,0,L|418:51,1,42.5000008106232
375,81,159372,2,0,P|373:140|333:175,1,85.0000016212464
248,109,159772,1,0,0:0:0:0:
167,69,159972,6,0,P|123:60|79:73,1,85.0000016212464
193,154,160372,2,0,P|226:211|227:238,2,85.0000016212464
127,199,160972,2,0,P|77:216|55:241,1,85.0000016212464
187,298,161372,1,0,0:0:0:0:
275,289,161572,2,0,P|345:272|359:243,1,85.0000016212464
203,73,161972,2,0,P|203:183|205:73,1,340.000006484985
322,97,162972,5,0,0:0:0:0:
322,97,163072,1,0,0:0:0:0:
322,97,163172,1,0,0:0:0:0:
417,103,163372,2,0,B|458:185|458:185|388:227,1,170.000003242493
256,192,163972,12,0,166572,0:0:0:0:
256,192,198972,12,0,201172,0:0:0:0:
96,121,201372,6,0,P|157:91|177:87,1,85.0000016212464
285,117,201772,1,0,0:0:0:0:
244,189,201972,2,0,P|191:187|148:200,1,85.0000016212464
269,270,202372,2,0,P|326:255|365:229,1,85.0000016212464
396,318,202772,1,0,0:0:0:0:
396,318,202872,1,0,0:0:0:0:
396,318,202972,1,0,0:0:0:0:
436,226,203172,5,0,0:0:0:0:
429,155,203372,2,0,P|396:109|354:98,1,85.0000016212464
300,182,203772,1,0,0:0:0:0:
201,114,203972,2,0,P|232:80|299:71,1,85.0000016212464
291,53,204372,2,0,P|239:31|188:29,1,85.0000016212464
92,36,204772,5,0,0:0:0:0:
25,144,204972,1,0,0:0:0:0:
117,103,205172,2,0,P|199:121|228:127,1,85.0000016212464
201,215,205572,2,0,L|114:187,1,85.0000016212464
62,213,205972,2,0,P|43:278|40:303,1,85.0000016212464
142,329,206372,1,0,0:0:0:0:
245,332,206572,2,0,L|350:325,1,85.0000016212464
277,248,206972,1,0,0:0:0:0:
428,234,207172,1,0,0:0:0:0:
467,135,207372,2,0,B|402:131|402:131|414:95|414:95|377:86|377:86|383:56,1,170.000003242493
293,56,207972,1,0,0:0:0:0:
174,61,208172,2,0,P|110:73|79:83,1,85.0000016212464
255,164,208572,6,0,P|305:174|346:196,2,85.0000016212464
176,146,209172,2,0,P|126:142|124:142,2,42.5000008106232
176,146,209572,1,0,0:0:0:0:
185,219,209772,2,0,P|161:275|112:283,1,85.0000016212464
92,191,210172,1,0,0:0:0:0:
21,310,210372,1,0,0:0:0:0:
107,309,210572,2,0,P|205:309|213:300,1,85.0000016212464
176,216,210972,1,0,0:0:0:0:
306,245,211172,6,0,P|375:261|400:283,2,85.0000016212464
342,180,211772,2,0,L|416:101,1,85.0000016212464
441,216,212172,1,0,0:0:0:0:
333,298,212372,2,0,L|263:300,2,42.5000008106232
305,191,212772,1,0,0:0:0:0:
425,171,212972,2,0,P|444:127|436:67,2,85.0000016212464
421,253,213572,1,0,0:0:0:0:
316,217,213772,1,0,0:0:0:0:
313,313,213972,2,0,P|148:288|136:276,1,170.000003242493
136,172,214572,2,0,P|85:145|56:142,1,85.0000016212464
148,90,214972,2,0,P|226:90|263:88,1,85.0000016212464
232,192,215372,1,0,0:0:0:0:
343,111,215572,5,0,0:0:0:0:
343,111,215672,1,0,0:0:0:0:
343,111,215772,1,0,0:0:0:0:
407,46,215972,2,0,P|453:100|453:123,1,85.0000016212464
406,208,216372,1,0,0:0:0:0:
483,230,216572,2,0,P|461:290|438:312,1,85.0000016212464
424,322,216972,1,0,0:0:0:0:
319,327,217172,2,0,P|300:257|329:232,1,85.0000016212464
207,198,217572,1,0,0:0:0:0:
166,314,217772,1,0,0:0:0:0:
86,269,217972,6,0,P|45:127|92:268,1,425.000008106232
217,276,219172,6,0,P|291:247|308:213,2,85.0000016212464
193,183,219772,1,0,0:0:0:0:
186,100,219972,2,0,L|93:66,2,85.0000016212464
286,48,220572,2,0,L|340:48,2,42.5000008106232
419,140,220972,1,0,0:0:0:0:
310,164,221172,6,0,P|299:218|336:247,2,85.0000016212464
456,251,221772,2,0,P|396:296|304:319,1,170.000003242493
238,333,222372,1,0,0:0:0:0:
179,234,222572,2,0,P|261:211|293:209,1,85.0000016212464
176,122,222972,1,0,0:0:0:0:
56,205,223172,1,0,0:0:0:0:
173,261,223372,2,0,P|242:308|279:312,2,85.0000016212464
276,211,223972,5,0,0:0:0:0:
379,296,224172,1,0,0:0:0:0:
431,228,224372,2,0,P|445:160|442:119,1,85.0000016212464
382,63,224772,1,0,0:0:0:0:
478,49,224972,2,0,P|480:126|456:162,1,85.0000016212464
390,182,225372,1,0,0:0:0:0:
283,122,225572,1,0,0:0:0:0:
366,69,225772,2,0,P|269:41|196:48,1,170.000003242493
166,75,226372,1,0,0:0:0:0:
166,75,226572,1,0,0:0:0:0:
166,75,226772,1,0,0:0:0:0:
166,75,226972,1,0,0:0:0:0:
166,75,227172,2,0,L|260:79,1,85.0000016212464
212,162,227572,5,0,0:0:0:0:
142,174,227772,2,0,P|71:164|45:138,1,85.0000016212464
64,71,228172,1,0,0:0:0:0:
171,85,228372,2,0,P|207:127|219:172,1,85.0000016212464
66,247,228772,1,0,0:0:0:0:
224,288,228972,1,0,0:0:0:0:
202,195,229172,2,0,P|277:175|302:176,1,85.0000016212464
251,91,229572,1,0,0:0:0:0:
79,122,229772,1,0,0:0:0:0:
275,192,229972,1,0,0:0:0:0:
135,36,230172,1,0,0:0:0:0:
126,222,230372,6,0,P|132:279|186:301,1,85.0000016212464
303,222,230772,1,0,0:0:0:0:
431,157,230972,2,0,P|474:222|474:255,1,85.0000016212464
447,73,231372,2,0,L|357:62,1,85.0000016212464
349,64,231672,1,0,0:0:0:0:
349,64,231772,1,0,0:0:0:0:
294,146,231972,2,0,P|202:145|188:125,1,85.0000016212464
221,73,232372,1,0,0:0:0:0:
153,238,232572,2,0,P|93:191|79:154,1,85.0000016212464
44,263,232972,1,0,0:0:0:0:
200,187,233172,2,0,P|241:225|248:275,1,85.0000016212464
154,337,233572,1,0,0:0:0:0:
292,315,233772,2,0,P|369:309|378:284,1,85.0000016212464
438,170,234172,6,0,P|460:223|453:264,1,85.0000016212464
438,170,234572,1,0,0:0:0:0:
361,209,234772,2,0,P|339:152|352:99,1,85.0000016212464
406,64,235172,2,0,P|449:122|448:138,2,85.0000016212464
242,67,235772,1,0,0:0:0:0:
169,230,235972,1,0,0:0:0:0:
163,65,236172,1,0,0:0:0:0:
278,229,236372,2,0,P|331:235|358:211,2,85.0000016212464
122,133,236972,5,0,0:0:0:0:
161,71,237172,2,0,P|77:48|60:48,1,85.0000016212464
28,157,237572,1,0,0:0:0:0:
154,258,237772,2,0,P|230:231|238:207,2,85.0000016212464
257,334,238372,1,0,0:0:0:0:
359,323,238572,2,0,P|324:267|342:220,1,85.0000016212464
430,210,238972,2,0,P|463:159|452:116,1,85.0000016212464
361,88,239372,2,0,P|301:116|287:147,2,85.0000016212464
361,88,239872,1,0,0:0:0:0:
361,88,239972,1,0,0:0:0:0:
361,88,240072,1,0,0:0:0:0:
361,88,240172,1,0,0:0:0:0:
297,69,240372,6,0,L|194:61,1,85.0000016212464
202,67,240772,1,0,0:0:0:0:
202,67,240972,1,0,0:0:0:0:
80,61,241172,2,0,L|131:140,1,85.0000016212464
23,176,241572,1,0,0:0:0:0:
34,274,241772,2,0,P|77:310|135:332,1,85.0000016212464
154,195,242172,1,0,0:0:0:0:
340,329,242372,1,0,0:0:0:0:
246,165,242572,1,0,0:0:0:0:
252,352,242772,1,0,0:0:0:0:
354,187,242972,1,0,0:0:0:0:
167,325,243172,1,0,0:0:0:0:
269,177,243372,2,0,P|292:114|329:96,1,85.0000016212464
421,150,243772,1,0,0:0:0:0:
354,238,243972,1,0,0:0:0:0:
457,237,244172,2,0,P|436:295|403:313,1,85.0000016212464
312,81,244572,6,0,L|404:79,2,85.0000016212464
213,47,245172,1,0,0:0:0:0:
212,149,245372,2,0,P|140:168|114:162,1,85.0000016212464
143,84,245772,1,0,0:0:0:0:
236,235,245972,2,0,P|296:167|375:145,1,170.000003242493
420,157,246572,1,0,0:0:0:0:
462,248,246772,2,0,P|388:286|357:285,1,85.0000016212464
485,334,247172,1,0,0:0:0:0:
488,254,247372,2,0,P|456:178|428:169,1,85.0000016212464
349,303,247772,1,0,0:0:0:0:
212,301,247972,6,0,P|159:278|135:253,1,85.0000016212464
65,313,248372,1,0,0:0:0:0:
182,166,248572,1,0,0:0:0:0:
40,203,248772,1,0,0:0:0:0:
198,273,248972,1,0,0:0:0:0:
296,290,249172,2,0,P|353:262|365:224,1,85.0000016212464
289,127,249572,5,0,0:0:0:0:
178,126,249772,2,0,P|230:78|258:57,2,85.0000016212464
236,29,250372,1,0,0:0:0:0:
136,42,250572,2,0,P|59:44|20:50,1,85.0000016212464
101,130,250972,2,0,P|146:181|157:205,2,85.0000016212464
77,250,251572,5,0,0:0:0:0:
256,291,251772,5,0,0:0:0:0:
266,103,251972,5,0,0:0:0:0:
447,152,252172,5,0,0:0:0:0:
441,43,252372,6,0,L|16:42,1,425.000008106232
256,192,253772,12,0,255372,0:0:0:0:
256,197,255972,5,0,0:0:0:0:
256,197,256172,1,0,0:0:0:0:
