osu file format v14

[General]
AudioFilename: audio.mp3
AudioLeadIn: 0
PreviewTime: 18571
Countdown: 0
SampleSet: Normal
StackLeniency: 0.7
Mode: 1
LetterboxInBreaks: 0
WidescreenStoryboard: 1

[Editor]
Bookmarks: 28771,38371,47971,62371,67171,76771,86371,95971,105571,115171,134371,148771
DistanceSpacing: 3.3
BeatDivisor: 4
GridSize: 4
TimelineZoom: 2

[Metadata]
Title:Pop on Rocks: A Dr. Seuss Rap
TitleUnicode:Pop on Rocks: A Dr. Seuss Rap
Artist:Holo Bass feat. Amelia Watson
ArtistUnicode:Holo Bass feat. Amelia Watson
Creator:Gamelan4
Version:Kantan
Source:
Tags:ulqui hololive hololiveEN ホロライブ holomyth vtuber virtual youtuber hip-hop hiphop english rap Fox in Socks holobass
BeatmapID:2731511
BeatmapSetID:1318405

[Difficulty]
HPDrainRate:8
CircleSize:5
OverallDifficulty:3
ApproachRate:10
SliderMultiplier:1.4
SliderTickRate:1

[Events]
//Background and Video events
0,0,"ground pound.png",0,0
//Break Periods
2,105571,114421
//Storyboard Layer 0 (Background)
//Storyboard Layer 1 (Fail)
//Storyboard Layer 2 (Pass)
//Storyboard Layer 3 (Foreground)
//Storyboard Layer 4 (Overlay)
//Storyboard Sound Samples

[TimingPoints]
19171,600,4,1,0,60,1,0
19171,-100,4,1,0,60,0,1
38371,-100,4,1,0,60,0,0
115171,-100,4,1,0,60,0,1
134371,-100,4,1,0,60,0,0

[HitObjects]
122,184,19171,5,0,0:0:0:0:
152,119,19771,1,8,0:0:0:0:
194,106,20221,1,8,0:0:0:0:
182,100,20671,1,0,0:0:0:0:
178,82,20971,1,8,0:0:0:0:
176,87,21571,1,0,0:0:0:0:
175,87,22171,1,8,0:0:0:0:
175,87,22621,1,8,0:0:0:0:
351,158,22921,1,8,0:0:0:0:
260,160,23371,1,8,0:0:0:0:
174,97,23971,1,0,0:0:0:0:
320,184,24571,1,8,0:0:0:0:
182,93,25021,1,8,0:0:0:0:
190,105,25471,1,0,0:0:0:0:
189,105,25771,1,8,0:0:0:0:
183,52,26371,1,0,0:0:0:0:
187,100,26971,1,8,0:0:0:0:
171,61,27421,1,8,0:0:0:0:
330,239,27721,1,8,0:0:0:0:
171,60,28171,1,8,0:0:0:0:
224,176,28771,1,0,0:0:0:0:
256,184,29371,1,8,0:0:0:0:
206,77,30271,1,0,0:0:0:0:
156,74,30571,1,8,0:0:0:0:
144,115,31171,1,0,0:0:0:0:
460,132,31771,1,8,0:0:0:0:
205,84,32221,1,8,0:0:0:0:
224,184,32671,1,0,0:0:0:0:
205,84,32971,1,8,0:0:0:0:
174,128,33571,1,0,0:0:0:0:
192,180,34171,1,8,0:0:0:0:
187,28,35071,1,0,0:0:0:0:
149,109,35371,1,8,0:0:0:0:
149,109,35971,1,0,0:0:0:0:
135,107,36571,1,0,0:0:0:0:
177,64,37171,1,8,0:0:0:0:
196,117,38371,1,0,0:0:0:0:
170,155,38971,1,8,0:0:0:0:
168,163,39421,1,8,0:0:0:0:
167,177,39871,1,0,0:0:0:0:
344,144,40171,1,8,0:0:0:0:
167,177,41371,1,8,0:0:0:0:
204,163,41821,1,8,0:0:0:0:
204,163,42271,1,0,0:0:0:0:
193,168,42571,1,8,0:0:0:0:
56,196,42871,1,0,0:0:0:0:
191,170,43171,1,0,0:0:0:0:
158,137,43771,1,8,0:0:0:0:
167,144,44221,1,8,0:0:0:0:
368,136,44671,1,0,0:0:0:0:
380,136,44971,1,8,0:0:0:0:
424,164,45871,1,0,0:0:0:0:
151,138,46171,1,8,0:0:0:0:
192,106,46621,1,8,0:0:0:0:
332,196,47071,1,0,0:0:0:0:
192,106,47371,1,8,0:0:0:0:
321,178,47671,1,0,0:0:0:0:
192,106,47971,1,0,0:0:0:0:
210,113,49021,1,8,0:0:0:0:
201,119,49471,1,0,0:0:0:0:
201,119,49771,1,8,0:0:0:0:
146,149,50371,1,8,0:0:0:0:
169,130,50671,1,0,0:0:0:0:
169,131,50971,1,0,0:0:0:0:
256,212,51571,5,0,0:0:0:0:
176,156,51871,1,0,0:0:0:0:
157,112,52171,1,8,0:0:0:0:
149,115,52771,1,0,0:0:0:0:
151,106,53371,1,8,0:0:0:0:
171,82,54271,1,0,0:0:0:0:
161,57,54571,1,8,0:0:0:0:
138,100,55171,1,0,0:0:0:0:
167,79,55771,1,8,0:0:0:0:
164,87,56371,1,8,0:0:0:0:
201,62,56671,1,0,0:0:0:0:
194,69,56971,1,8,0:0:0:0:
194,72,57571,1,0,0:0:0:0:
181,83,58171,1,8,0:0:0:0:
152,89,58621,1,8,0:0:0:0:
158,46,59071,1,0,0:0:0:0:
181,62,59371,1,8,0:0:0:0:
214,96,59971,1,0,0:0:0:0:
372,180,60571,1,8,0:0:0:0:
191,102,61021,1,8,0:0:0:0:
191,102,61471,1,0,0:0:0:0:
180,92,61771,1,8,0:0:0:0:
180,92,62071,1,8,0:0:0:0:
184,66,62371,1,0,0:0:0:0:
179,118,63871,1,0,0:0:0:0:
179,118,64771,1,0,0:0:0:0:
170,97,67171,1,8,0:0:0:0:
142,100,67771,1,8,0:0:0:0:
142,100,68371,1,0,0:0:0:0:
171,118,68971,1,0,0:0:0:0:
400,152,69571,1,8,0:0:0:0:
173,143,70171,1,0,0:0:0:0:
392,164,70771,1,8,0:0:0:0:
156,102,71371,1,8,0:0:0:0:
396,128,71671,1,8,0:0:0:0:
184,103,71971,1,0,0:0:0:0:
384,184,72571,1,8,0:0:0:0:
171,90,73021,1,8,0:0:0:0:
173,101,73471,1,0,0:0:0:0:
177,127,73771,1,8,0:0:0:0:
195,97,74371,1,0,0:0:0:0:
320,144,74971,1,0,0:0:0:0:
182,127,75571,1,8,0:0:0:0:
182,127,75871,1,0,0:0:0:0:
182,127,76171,1,8,0:0:0:0:
194,91,76471,1,8,0:0:0:0:
194,91,76771,1,0,0:0:0:0:
172,207,77821,1,8,0:0:0:0:
186,154,78271,1,0,0:0:0:0:
169,131,78571,1,8,0:0:0:0:
189,122,79171,1,0,0:0:0:0:
131,84,79771,1,8,0:0:0:0:
151,123,80221,1,8,0:0:0:0:
151,123,80971,1,8,0:0:0:0:
312,192,81271,1,0,0:0:0:0:
151,123,81571,1,0,0:0:0:0:
267,201,82771,1,8,0:0:0:0:
126,132,83071,5,0,0:0:0:0:
128,124,83971,1,0,0:0:0:0:
128,124,84271,1,0,0:0:0:0:
411,199,85171,1,0,0:0:0:0:
437,213,85471,1,8,0:0:0:0:
317,253,86071,1,0,0:0:0:0:
147,151,86371,1,0,0:0:0:0:
276,140,86671,1,0,0:0:0:0:
201,144,87271,1,0,0:0:0:0:
178,163,87571,1,8,0:0:0:0:
178,163,88171,1,8,0:0:0:0:
188,183,88471,1,0,0:0:0:0:
186,184,89071,1,0,0:0:0:0:
188,183,89371,1,8,0:0:0:0:
185,155,89821,1,8,0:0:0:0:
216,116,90121,1,8,0:0:0:0:
220,141,90571,1,8,0:0:0:0:
221,143,90871,1,8,0:0:0:0:
220,142,91171,1,0,0:0:0:0:
204,163,91771,1,8,0:0:0:0:
204,163,92221,1,8,0:0:0:0:
204,163,92671,1,0,0:0:0:0:
171,144,92971,1,8,0:0:0:0:
171,144,93571,1,0,0:0:0:0:
174,143,95071,1,0,0:0:0:0:
180,124,95671,1,8,0:0:0:0:
181,124,95971,1,0,0:0:0:0:
186,153,96571,1,8,0:0:0:0:
224,192,97021,1,8,0:0:0:0:
181,54,97471,1,0,0:0:0:0:
181,54,97771,1,8,0:0:0:0:
218,105,98371,1,0,0:0:0:0:
192,145,100771,1,0,0:0:0:0:
178,78,101071,1,0,0:0:0:0:
284,192,101371,1,8,0:0:0:0:
304,136,101821,1,8,0:0:0:0:
162,62,102271,1,0,0:0:0:0:
186,64,102571,1,8,0:0:0:0:
182,66,103171,1,0,0:0:0:0:
210,76,105271,1,0,0:0:0:0:
133,247,114871,5,8,0:0:0:0:
122,184,115171,5,0,0:0:0:0:
152,119,115771,1,8,0:0:0:0:
194,106,116221,1,8,0:0:0:0:
182,100,116671,1,0,0:0:0:0:
178,82,116971,1,8,0:0:0:0:
308,244,117271,1,8,0:0:0:0:
176,87,117571,1,0,0:0:0:0:
175,87,118171,1,8,0:0:0:0:
175,87,118621,1,8,0:0:0:0:
171,87,118921,1,8,0:0:0:0:
260,160,119371,1,8,0:0:0:0:
404,200,119671,1,0,0:0:0:0:
174,97,119971,1,0,0:0:0:0:
320,184,120571,1,8,0:0:0:0:
182,93,121021,1,8,0:0:0:0:
190,105,121471,1,0,0:0:0:0:
189,105,121771,1,8,0:0:0:0:
448,200,122071,1,8,0:0:0:0:
183,52,122371,1,0,0:0:0:0:
187,100,122971,1,8,0:0:0:0:
171,61,123421,1,8,0:0:0:0:
205,79,123721,1,8,0:0:0:0:
171,60,124171,1,8,0:0:0:0:
384,196,124471,1,0,0:0:0:0:
224,176,124771,1,0,0:0:0:0:
256,184,125371,1,8,0:0:0:0:
206,77,126271,1,0,0:0:0:0:
156,74,126571,1,8,0:0:0:0:
144,115,127171,1,0,0:0:0:0:
460,132,127771,1,8,0:0:0:0:
205,84,128221,1,8,0:0:0:0:
224,184,128671,1,0,0:0:0:0:
205,84,128971,1,8,0:0:0:0:
452,216,129271,1,8,0:0:0:0:
174,128,129571,1,0,0:0:0:0:
192,180,130171,1,8,0:0:0:0:
187,28,131071,1,0,0:0:0:0:
149,109,131371,1,8,0:0:0:0:
149,109,131971,1,0,0:0:0:0:
135,107,132571,1,0,0:0:0:0:
177,64,133171,1,8,0:0:0:0:
196,117,134371,1,0,0:0:0:0:
210,231,135871,5,0,0:0:0:0:
154,96,136771,1,0,0:0:0:0:
170,167,137971,1,8,0:0:0:0:
196,119,138271,1,0,0:0:0:0:
196,119,138571,1,8,0:0:0:0:
166,100,138871,1,8,0:0:0:0:
196,119,139171,1,0,0:0:0:0:
200,122,139771,1,8,0:0:0:0:
201,122,140221,1,8,0:0:0:0:
200,122,140671,1,0,0:0:0:0:
200,122,140971,1,8,0:0:0:0:
209,72,141571,1,0,0:0:0:0:
208,77,142171,1,8,0:0:0:0:
182,90,142771,1,0,0:0:0:0:
368,192,143071,1,0,0:0:0:0:
182,90,143371,1,8,0:0:0:0:
182,90,143971,1,0,0:0:0:0:
204,84,144571,1,8,0:0:0:0:
196,87,145021,1,8,0:0:0:0:
163,76,145471,1,0,0:0:0:0:
169,101,145771,1,8,0:0:0:0:
179,83,146371,1,0,0:0:0:0:
179,82,146971,1,8,0:0:0:0:
179,83,147421,1,8,0:0:0:0:
327,204,147721,1,8,0:0:0:0:
179,83,148171,1,8,0:0:0:0:
179,82,148471,1,8,0:0:0:0:
179,82,148771,1,0,0:0:0:0:
