osu file format v14

[General]
AudioFilename: audio.mp3
AudioLeadIn: 0
PreviewTime: 18571
Countdown: 0
SampleSet: Normal
StackLeniency: 0.7
Mode: 1
LetterboxInBreaks: 0
WidescreenStoryboard: 1

[Editor]
Bookmarks: 28771,38371,47971,62371,67171,76771,86371,95971,105571,115171,134371,148771
DistanceSpacing: 3.3
BeatDivisor: 4
GridSize: 4
TimelineZoom: 2

[Metadata]
Title:Pop on Rocks: A Dr. Seuss Rap
TitleUnicode:Pop on Rocks: A Dr. Seuss Rap
Artist:Holo Bass feat. Amelia Watson
ArtistUnicode:Holo Bass feat. Amelia Watson
Creator:Gamelan4
Version:Futsuu
Source:
Tags:ulqui hololive hololiveEN ホロライブ holomyth vtuber virtual youtuber hip-hop hiphop english rap Fox in Socks holobass
BeatmapID:2731464
BeatmapSetID:1318405

[Difficulty]
HPDrainRate:7
CircleSize:5
OverallDifficulty:4
ApproachRate:10
SliderMultiplier:1.4
SliderTickRate:1

[Events]
//Background and Video events
0,0,"ground pound.png",0,0
//Break Periods
2,105571,114271
//Storyboard Layer 0 (Background)
//Storyboard Layer 1 (Fail)
//Storyboard Layer 2 (Pass)
//Storyboard Layer 3 (Foreground)
//Storyboard Layer 4 (Overlay)
//Storyboard Sound Samples

[TimingPoints]
19171,600,4,1,0,60,1,0
19171,-100,4,1,0,60,0,1
38371,-100,4,1,0,60,0,0
115171,-100,4,1,0,60,0,1
134371,-100,4,1,0,60,0,0

[HitObjects]
122,184,19171,5,0,0:0:0:0:
152,119,19471,1,0,0:0:0:0:
152,119,19621,1,0,0:0:0:0:
152,119,19771,1,8,0:0:0:0:
192,87,20071,1,0,0:0:0:0:
194,106,20221,1,8,0:0:0:0:
182,100,20521,1,8,0:0:0:0:
182,100,20671,1,0,0:0:0:0:
178,82,20971,1,8,0:0:0:0:
176,87,21571,1,0,0:0:0:0:
175,87,21871,1,0,0:0:0:0:
175,87,22021,1,0,0:0:0:0:
175,87,22171,1,8,0:0:0:0:
191,86,22471,1,0,0:0:0:0:
175,87,22621,1,8,0:0:0:0:
166,77,22921,1,8,0:0:0:0:
171,87,23071,1,0,0:0:0:0:
171,87,23371,1,8,0:0:0:0:
174,97,23521,1,0,0:0:0:0:
174,97,23671,1,8,0:0:0:0:
174,97,23821,1,8,0:0:0:0:
174,97,23971,1,0,0:0:0:0:
200,92,24571,1,8,0:0:0:0:
182,93,24871,1,0,0:0:0:0:
182,93,25021,1,8,0:0:0:0:
182,93,25321,1,8,0:0:0:0:
190,105,25471,1,0,0:0:0:0:
190,105,25621,1,0,0:0:0:0:
189,105,25771,1,8,0:0:0:0:
190,105,26071,1,8,0:0:0:0:
183,52,26371,1,0,0:0:0:0:
177,92,26671,1,8,0:0:0:0:
222,79,26821,1,0,0:0:0:0:
187,100,26971,1,8,0:0:0:0:
187,98,27271,1,0,0:0:0:0:
203,66,27421,1,8,0:0:0:0:
171,61,27721,1,8,0:0:0:0:
205,79,27871,1,0,0:0:0:0:
171,60,28171,1,8,0:0:0:0:
190,85,28771,1,0,0:0:0:0:
156,200,29071,1,8,0:0:0:0:
156,200,29221,1,0,0:0:0:0:
156,200,29371,1,8,0:0:0:0:
191,99,29671,1,0,0:0:0:0:
157,86,29821,1,8,0:0:0:0:
187,110,30121,1,8,0:0:0:0:
206,77,30271,1,0,0:0:0:0:
156,74,30571,1,8,0:0:0:0:
203,84,30871,1,8,0:0:0:0:
165,122,31171,1,0,0:0:0:0:
168,102,31471,1,8,0:0:0:0:
195,97,31771,1,8,0:0:0:0:
144,115,31921,1,8,0:0:0:0:
144,115,32071,1,8,0:0:0:0:
408,160,32221,1,8,0:0:0:0:
392,192,32521,1,8,0:0:0:0:
205,84,32671,1,0,0:0:0:0:
205,84,32971,1,8,0:0:0:0:
174,128,33271,1,8,0:0:0:0:
174,128,33571,1,0,0:0:0:0:
181,90,34171,1,8,0:0:0:0:
192,180,34471,1,0,0:0:0:0:
187,98,34621,1,8,0:0:0:0:
187,195,34921,1,8,0:0:0:0:
186,87,35071,1,0,0:0:0:0:
187,28,35371,1,8,0:0:0:0:
149,109,35671,1,8,0:0:0:0:
146,134,35821,1,8,0:0:0:0:
149,109,35971,1,0,0:0:0:0:
135,107,36571,1,0,0:0:0:0:
177,64,37171,1,8,0:0:0:0:
196,117,38071,1,8,0:0:0:0:
196,117,38371,1,0,0:0:0:0:
170,155,38971,1,8,0:0:0:0:
170,155,39421,1,8,0:0:0:0:
168,163,39571,1,0,0:0:0:0:
167,177,39871,1,0,0:0:0:0:
344,144,40171,1,8,0:0:0:0:
166,178,40471,1,8,0:0:0:0:
167,177,40771,1,0,0:0:0:0:
204,163,41371,1,8,0:0:0:0:
204,163,41821,1,8,0:0:0:0:
203,164,41971,1,0,0:0:0:0:
360,196,42121,1,8,0:0:0:0:
204,163,42271,1,0,0:0:0:0:
193,168,42571,1,8,0:0:0:0:
191,171,42871,1,8,0:0:0:0:
191,170,43171,1,0,0:0:0:0:
158,137,43771,1,8,0:0:0:0:
170,142,43921,1,0,0:0:0:0:
167,144,44221,1,8,0:0:0:0:
368,136,44671,1,0,0:0:0:0:
380,136,44971,1,8,0:0:0:0:
151,138,45271,1,8,0:0:0:0:
151,138,45571,1,0,0:0:0:0:
151,138,45871,1,8,0:0:0:0:
151,138,46021,1,0,0:0:0:0:
151,138,46171,1,8,0:0:0:0:
150,147,46471,1,0,0:0:0:0:
151,147,46621,1,8,0:0:0:0:
192,106,46921,1,8,0:0:0:0:
192,106,47071,1,0,0:0:0:0:
192,106,47221,1,8,0:0:0:0:
192,106,47371,1,8,0:0:0:0:
192,106,47671,1,8,0:0:0:0:
192,106,47971,1,0,0:0:0:0:
210,113,49021,1,8,0:0:0:0:
201,119,49471,1,0,0:0:0:0:
201,119,49771,1,8,0:0:0:0:
146,149,50371,1,8,0:0:0:0:
169,130,50671,1,0,0:0:0:0:
169,131,50971,1,0,0:0:0:0:
179,65,51421,1,8,0:0:0:0:
160,109,51571,1,0,0:0:0:0:
176,156,51721,1,8,0:0:0:0:
160,110,51871,1,0,0:0:0:0:
157,112,52171,1,8,0:0:0:0:
149,115,52771,1,0,0:0:0:0:
151,106,53071,1,8,0:0:0:0:
151,106,53371,1,8,0:0:0:0:
151,106,53821,1,8,0:0:0:0:
151,106,53971,1,0,0:0:0:0:
216,52,54121,1,8,0:0:0:0:
171,82,54271,1,0,0:0:0:0:
161,57,54571,1,8,0:0:0:0:
138,100,55171,1,0,0:0:0:0:
167,79,55471,1,8,0:0:0:0:
167,79,55771,1,8,0:0:0:0:
174,81,56071,1,0,0:0:0:0:
165,87,56221,1,8,0:0:0:0:
164,87,56521,1,8,0:0:0:0:
201,62,56671,1,8,0:0:0:0:
194,85,56821,1,0,0:0:0:0:
194,69,56971,1,8,0:0:0:0:
248,172,57271,1,0,0:0:0:0:
194,72,57571,1,0,0:0:0:0:
181,83,58171,1,8,0:0:0:0:
152,89,58471,1,0,0:0:0:0:
152,89,58621,1,8,0:0:0:0:
152,89,58921,1,8,0:0:0:0:
158,46,59071,1,0,0:0:0:0:
181,62,59371,1,8,0:0:0:0:
177,82,59671,1,8,0:0:0:0:
214,96,59971,1,0,0:0:0:0:
215,90,60571,1,8,0:0:0:0:
191,102,60871,1,0,0:0:0:0:
191,102,61021,1,8,0:0:0:0:
191,102,61321,1,8,0:0:0:0:
191,102,61471,1,0,0:0:0:0:
180,92,61621,1,0,0:0:0:0:
180,92,61771,1,8,0:0:0:0:
180,92,62071,1,8,0:0:0:0:
184,66,62371,1,0,0:0:0:0:
179,118,63871,1,0,0:0:0:0:
179,118,64771,1,0,0:0:0:0:
170,97,67171,1,8,0:0:0:0:
142,100,67371,1,0,0:0:0:0:
142,100,67771,1,8,0:0:0:0:
142,100,68171,1,0,0:0:0:0:
142,100,68371,1,8,0:0:0:0:
176,74,68571,1,0,0:0:0:0:
171,118,68971,1,8,0:0:0:0:
154,173,69371,1,0,0:0:0:0:
154,173,69571,1,8,0:0:0:0:
175,141,69771,1,0,0:0:0:0:
173,143,70171,1,8,0:0:0:0:
171,87,70771,1,0,0:0:0:0:
156,102,70971,1,8,0:0:0:0:
324,204,71171,1,0,0:0:0:0:
156,102,71371,1,8,0:0:0:0:
184,103,71971,1,0,0:0:0:0:
171,78,72571,1,8,0:0:0:0:
171,90,72871,1,0,0:0:0:0:
169,92,73021,1,8,0:0:0:0:
177,82,73321,1,8,0:0:0:0:
173,101,73471,1,0,0:0:0:0:
177,127,73771,1,8,0:0:0:0:
182,95,74071,1,8,0:0:0:0:
195,97,74371,1,0,0:0:0:0:
161,99,74971,1,8,0:0:0:0:
165,138,75271,1,0,0:0:0:0:
165,138,75421,1,8,0:0:0:0:
182,127,75721,1,8,0:0:0:0:
182,127,75871,1,0,0:0:0:0:
182,127,76021,1,0,0:0:0:0:
182,127,76171,1,8,0:0:0:0:
194,91,76471,1,8,0:0:0:0:
194,91,76771,1,0,0:0:0:0:
172,207,77071,1,8,0:0:0:0:
172,207,77221,1,8,0:0:0:0:
172,207,77371,1,8,0:0:0:0:
196,143,77821,1,8,0:0:0:0:
186,154,78271,1,0,0:0:0:0:
169,131,78571,1,8,0:0:0:0:
189,122,79171,1,0,0:0:0:0:
187,117,79471,1,0,0:0:0:0:
189,122,79621,1,0,0:0:0:0:
189,122,79771,1,8,0:0:0:0:
131,84,80071,1,0,0:0:0:0:
131,84,80221,1,8,0:0:0:0:
151,123,80521,1,8,0:0:0:0:
151,123,80671,1,0,0:0:0:0:
151,123,80971,1,8,0:0:0:0:
312,192,81271,1,0,0:0:0:0:
151,123,81571,1,0,0:0:0:0:
164,72,81871,1,0,0:0:0:0:
149,129,82771,1,8,0:0:0:0:
126,132,83071,5,0,0:0:0:0:
128,124,83971,1,0,0:0:0:0:
128,124,84271,1,0,0:0:0:0:
148,107,85171,1,8,0:0:0:0:
147,151,85471,1,0,0:0:0:0:
147,151,86371,1,0,0:0:0:0:
201,144,86671,1,0,0:0:0:0:
201,153,86971,1,8,0:0:0:0:
204,146,87271,1,0,0:0:0:0:
201,144,87421,1,8,0:0:0:0:
178,163,87721,1,0,0:0:0:0:
178,163,87871,1,0,0:0:0:0:
178,163,88171,1,8,0:0:0:0:
188,183,88471,1,0,0:0:0:0:
186,184,88771,1,0,0:0:0:0:
188,183,89221,1,0,0:0:0:0:
188,183,89371,1,8,0:0:0:0:
221,82,89671,1,0,0:0:0:0:
185,155,89821,1,8,0:0:0:0:
216,161,90121,1,8,0:0:0:0:
216,116,90271,1,0,0:0:0:0:
221,142,90421,1,0,0:0:0:0:
220,141,90571,1,8,0:0:0:0:
221,143,90871,1,8,0:0:0:0:
220,142,91171,1,0,0:0:0:0:
188,143,91621,1,0,0:0:0:0:
217,124,91771,1,8,0:0:0:0:
204,163,92071,1,0,0:0:0:0:
204,163,92221,1,8,0:0:0:0:
204,163,92521,1,8,0:0:0:0:
204,163,92671,1,0,0:0:0:0:
204,163,92821,1,0,0:0:0:0:
171,144,92971,1,8,0:0:0:0:
171,144,93571,1,0,0:0:0:0:
174,143,95071,1,0,0:0:0:0:
180,124,95671,1,8,0:0:0:0:
181,124,95971,1,0,0:0:0:0:
203,141,96121,1,8,0:0:0:0:
186,153,96571,1,8,0:0:0:0:
190,146,96721,1,0,0:0:0:0:
396,224,97021,1,8,0:0:0:0:
224,192,97171,1,0,0:0:0:0:
181,54,97471,1,0,0:0:0:0:
181,54,97771,1,8,0:0:0:0:
174,160,98071,1,0,0:0:0:0:
218,105,98371,1,0,0:0:0:0:
192,145,100471,1,0,0:0:0:0:
192,145,100771,1,0,0:0:0:0:
178,78,101071,1,0,0:0:0:0:
178,78,101371,1,8,0:0:0:0:
162,62,101671,1,0,0:0:0:0:
162,62,101821,1,8,0:0:0:0:
189,67,102121,1,8,0:0:0:0:
189,67,102271,1,0,0:0:0:0:
189,52,102421,1,0,0:0:0:0:
186,64,102571,1,8,0:0:0:0:
412,192,102871,1,8,0:0:0:0:
182,66,103171,1,0,0:0:0:0:
210,76,105271,1,0,0:0:0:0:
133,247,114721,5,0,0:0:0:0:
133,247,114871,1,8,0:0:0:0:
156,169,115021,1,8,0:0:0:0:
122,184,115171,5,0,0:0:0:0:
152,119,115471,1,0,0:0:0:0:
152,119,115621,1,0,0:0:0:0:
152,119,115771,1,8,0:0:0:0:
192,87,116071,1,0,0:0:0:0:
194,106,116221,1,8,0:0:0:0:
182,100,116521,1,8,0:0:0:0:
182,100,116671,1,0,0:0:0:0:
178,82,116971,1,8,0:0:0:0:
176,87,117571,1,0,0:0:0:0:
175,87,117871,1,0,0:0:0:0:
175,87,118021,1,0,0:0:0:0:
175,87,118171,1,8,0:0:0:0:
191,86,118471,1,0,0:0:0:0:
175,87,118621,1,8,0:0:0:0:
166,77,118921,1,8,0:0:0:0:
171,87,119071,1,0,0:0:0:0:
171,87,119371,1,8,0:0:0:0:
174,97,119521,1,0,0:0:0:0:
174,97,119671,1,8,0:0:0:0:
174,97,119821,1,8,0:0:0:0:
174,97,119971,1,0,0:0:0:0:
200,92,120571,1,8,0:0:0:0:
182,93,120871,1,0,0:0:0:0:
182,93,121021,1,8,0:0:0:0:
182,93,121321,1,8,0:0:0:0:
190,105,121471,1,0,0:0:0:0:
190,105,121621,1,0,0:0:0:0:
189,105,121771,1,8,0:0:0:0:
190,105,122071,1,8,0:0:0:0:
183,52,122371,1,0,0:0:0:0:
177,92,122671,1,8,0:0:0:0:
222,79,122821,1,0,0:0:0:0:
187,100,122971,1,8,0:0:0:0:
187,98,123271,1,0,0:0:0:0:
203,66,123421,1,8,0:0:0:0:
171,61,123721,1,8,0:0:0:0:
205,79,123871,1,0,0:0:0:0:
171,60,124171,1,8,0:0:0:0:
190,85,124771,1,0,0:0:0:0:
156,200,125071,1,8,0:0:0:0:
156,200,125221,1,0,0:0:0:0:
156,200,125371,1,8,0:0:0:0:
191,99,125671,1,0,0:0:0:0:
157,86,125821,1,8,0:0:0:0:
187,110,126121,1,8,0:0:0:0:
206,77,126271,1,0,0:0:0:0:
156,74,126571,1,8,0:0:0:0:
203,84,126871,1,8,0:0:0:0:
165,122,127171,1,0,0:0:0:0:
168,102,127471,1,8,0:0:0:0:
136,92,127621,1,0,0:0:0:0:
144,115,127771,1,8,0:0:0:0:
205,84,128071,1,0,0:0:0:0:
144,115,128221,1,8,0:0:0:0:
408,160,128521,1,8,0:0:0:0:
205,84,128671,1,0,0:0:0:0:
205,84,128971,1,8,0:0:0:0:
174,128,129271,1,8,0:0:0:0:
174,128,129571,1,0,0:0:0:0:
181,90,130171,1,8,0:0:0:0:
192,180,130471,1,0,0:0:0:0:
187,98,130621,1,8,0:0:0:0:
187,195,130921,1,8,0:0:0:0:
186,87,131071,1,0,0:0:0:0:
187,28,131371,1,8,0:0:0:0:
149,109,131671,1,8,0:0:0:0:
146,134,131821,1,8,0:0:0:0:
149,109,131971,1,0,0:0:0:0:
135,107,132571,1,0,0:0:0:0:
177,64,133171,1,8,0:0:0:0:
196,117,134071,1,8,0:0:0:0:
196,117,134371,1,0,0:0:0:0:
210,231,135871,5,0,0:0:0:0:
154,96,136771,1,0,0:0:0:0:
217,83,137371,1,0,0:0:0:0:
170,167,137971,1,8,0:0:0:0:
196,119,138271,1,0,0:0:0:0:
196,119,138571,1,8,0:0:0:0:
166,100,138871,1,8,0:0:0:0:
196,119,139171,1,0,0:0:0:0:
200,122,139471,1,0,0:0:0:0:
200,122,139771,1,8,0:0:0:0:
201,122,140221,1,8,0:0:0:0:
200,122,140671,1,0,0:0:0:0:
200,122,140971,1,8,0:0:0:0:
209,72,141571,1,0,0:0:0:0:
208,77,141871,1,0,0:0:0:0:
208,77,142171,1,8,0:0:0:0:
182,90,142621,1,8,0:0:0:0:
182,90,142921,1,8,0:0:0:0:
182,90,143071,1,0,0:0:0:0:
182,90,143371,1,8,0:0:0:0:
182,90,143671,1,8,0:0:0:0:
182,90,143971,1,0,0:0:0:0:
204,84,144571,1,8,0:0:0:0:
196,87,145021,1,8,0:0:0:0:
163,76,145471,1,0,0:0:0:0:
169,101,145771,1,8,0:0:0:0:
169,99,146071,1,8,0:0:0:0:
179,83,146371,1,0,0:0:0:0:
179,82,146671,1,0,0:0:0:0:
179,82,146971,1,8,0:0:0:0:
179,83,147421,1,8,0:0:0:0:
179,82,147721,1,8,0:0:0:0:
179,82,147871,1,0,0:0:0:0:
179,83,148171,1,8,0:0:0:0:
179,82,148471,1,8,0:0:0:0:
179,82,148771,1,0,0:0:0:0:
