osu file format v14

[General]
AudioFilename: audio.mp3
AudioLeadIn: 0
PreviewTime: 67792
Countdown: 0
SampleSet: Soft
StackLeniency: 0.7
Mode: 3
LetterboxInBreaks: 0
SpecialStyle: 0
WidescreenStoryboard: 1

[Editor]
DistanceSpacing: 1
BeatDivisor: 6
GridSize: 4
TimelineZoom: 2.2

[Metadata]
Title:Power Stance
TitleUnicode:Power Stance
Artist:Holo Bass
ArtistUnicode:Holo Bass
Creator:MapleSyrup-
Version:Domination
Source:
Tags:Electronic DnB Drum & Bass Neurofunk Instrumental female Hakos Baelz HololiveEN Hololive English Vtuber Virtual Youtuber HoloCouncil HoloBass ホロライブ バーチャルユーチューバー remix ハコス・ベールズ hololive council holoEN MWC2022 MWC 2022 MWC7K 2022 MWC 7K 2022 osu!mania 7K World Cup 2022 Hybrid Rice+LN Quarterfinals QF
BeatmapID:3518394
BeatmapSetID:1681558

[Difficulty]
HPDrainRate:8
CircleSize:7
OverallDifficulty:7.5
ApproachRate:5
SliderMultiplier:1.4
SliderTickRate:1

[Events]
//Background and Video events
0,0,"BG.jpg",0,0
//Break Periods
//Storyboard Layer 0 (Background)
//Storyboard Layer 1 (Fail)
//Storyboard Layer 2 (Pass)
//Storyboard Layer 3 (Foreground)
//Storyboard Layer 4 (Overlay)
//Storyboard Sound Samples

[TimingPoints]
910,348.837209302326,4,2,1,45,1,0

[HitObjects]
256,192,909,128,0,1433:0:0:0:0:
475,192,909,128,0,1607:0:0:0:0:
402,192,909,128,0,1607:0:0:0:0:
36,192,909,128,0,1607:0:0:0:0:
109,192,909,128,0,1607:0:0:0:0:
329,192,1433,1,0,0:0:0:0:
182,192,1607,1,0,0:0:0:0:
109,192,2828,128,0,3003:0:0:0:0:
329,192,2828,128,0,3003:0:0:0:0:
182,192,3061,128,0,3148:0:0:0:0:
402,192,3061,128,0,3148:0:0:0:0:
182,192,4049,128,0,4311:0:0:0:0:
36,192,4049,128,0,4223:0:0:0:0:
256,192,4572,128,0,4834:0:0:0:0:
109,192,4572,128,0,4747:0:0:0:0:
329,192,5096,128,0,5357:0:0:0:0:
475,192,5096,128,0,5270:0:0:0:0:
256,192,5619,128,0,5880:0:0:0:0:
402,192,5619,128,0,5793:0:0:0:0:
256,192,6491,128,0,7189:0:0:0:0:
475,192,6491,128,0,7189:0:0:0:0:
402,192,6491,128,0,7189:0:0:0:0:
109,192,6491,128,0,7189:0:0:0:0:
36,192,6491,128,0,7189:0:0:0:0:
329,192,7537,128,0,9107:0:0:0:0:
182,192,8410,128,0,9805:0:0:0:0:
402,192,9107,128,0,11026:0:0:0:0:
109,192,9805,128,0,11026:0:0:0:0:
329,192,11026,128,0,11375:0:0:0:0:
182,192,11026,128,0,11375:0:0:0:0:
256,192,11375,128,0,11549:0:0:0:0:
36,192,11375,128,0,11985:0:0:0:0:
475,192,11375,128,0,11985:0:0:0:0:
329,192,11549,128,0,11723:0:0:0:0:
182,192,11723,128,0,11898:0:0:0:0:
256,192,11898,128,0,12072:0:0:0:0:
475,192,12072,128,0,12770:0:0:0:0:
402,192,12072,128,0,12770:0:0:0:0:
36,192,12072,128,0,12770:0:0:0:0:
109,192,12072,128,0,12770:0:0:0:0:
329,192,12247,1,0,0:0:0:0:
182,192,12247,1,0,0:0:0:0:
256,192,12290,128,0,12596:0:0:0:0:
329,192,12596,1,0,0:0:0:0:
182,192,12770,1,0,0:0:0:0:
402,192,13991,128,0,14165:0:0:0:0:
182,192,13991,128,0,14165:0:0:0:0:
109,192,14223,128,0,14311:0:0:0:0:
329,192,14223,128,0,14311:0:0:0:0:
256,192,15212,128,0,15473:0:0:0:0:
402,192,15212,128,0,15386:0:0:0:0:
329,192,15735,128,0,15997:0:0:0:0:
475,192,15735,128,0,15910:0:0:0:0:
36,192,16258,128,0,16433:0:0:0:0:
182,192,16258,128,0,16520:0:0:0:0:
109,192,16782,128,0,16956:0:0:0:0:
256,192,16782,128,0,17043:0:0:0:0:
402,192,17654,1,0,0:0:0:0:
402,192,17828,128,0,18177:0:0:0:0:
182,192,18003,128,0,18351:0:0:0:0:
329,192,18177,128,0,18351:0:0:0:0:
109,192,18351,1,0,0:0:0:0:
109,192,18526,128,0,18875:0:0:0:0:
329,192,18700,128,0,19049:0:0:0:0:
182,192,18875,128,0,19049:0:0:0:0:
256,192,19049,1,0,0:0:0:0:
256,192,19223,128,0,19572:0:0:0:0:
329,192,19398,128,0,19747:0:0:0:0:
402,192,19572,128,0,19747:0:0:0:0:
109,192,19747,1,0,0:0:0:0:
109,192,19921,128,0,20444:0:0:0:0:
256,192,20096,128,0,20444:0:0:0:0:
402,192,20096,128,0,20444:0:0:0:0:
475,192,20444,1,0,0:0:0:0:
475,192,20619,128,0,20968:0:0:0:0:
329,192,20793,128,0,21142:0:0:0:0:
182,192,20968,128,0,21142:0:0:0:0:
36,192,21142,1,0,0:0:0:0:
36,192,21316,128,0,21665:0:0:0:0:
182,192,21491,128,0,21840:0:0:0:0:
329,192,21665,128,0,21840:0:0:0:0:
256,192,23235,128,0,23584:0:0:0:0:
36,192,23235,128,0,23584:0:0:0:0:
475,192,23235,1,0,0:0:0:0:
402,192,23235,1,0,0:0:0:0:
109,192,23584,128,0,23758:0:0:0:0:
329,192,23584,128,0,23758:0:0:0:0:
182,192,23758,128,0,23933:0:0:0:0:
402,192,23758,128,0,24282:0:0:0:0:
256,192,23933,128,0,24282:0:0:0:0:
36,192,23933,128,0,24282:0:0:0:0:
329,192,24282,128,0,24456:0:0:0:0:
109,192,24282,128,0,24456:0:0:0:0:
182,192,24456,128,0,24630:0:0:0:0:
402,192,24456,128,0,24979:0:0:0:0:
256,192,24630,128,0,24979:0:0:0:0:
36,192,24630,128,0,24979:0:0:0:0:
329,192,24979,128,0,25154:0:0:0:0:
109,192,24979,128,0,25154:0:0:0:0:
402,192,25154,128,0,25503:0:0:0:0:
182,192,25154,128,0,25328:0:0:0:0:
256,192,25328,128,0,25503:0:0:0:0:
36,192,25328,128,0,25503:0:0:0:0:
329,192,25503,128,0,26026:0:0:0:0:
109,192,25503,128,0,25677:0:0:0:0:
182,192,25677,128,0,26026:0:0:0:0:
36,192,25677,128,0,26026:0:0:0:0:
256,192,26026,128,0,26375:0:0:0:0:
475,192,26026,128,0,26375:0:0:0:0:
402,192,26375,128,0,26549:0:0:0:0:
182,192,26375,128,0,26549:0:0:0:0:
329,192,26549,128,0,26723:0:0:0:0:
109,192,26549,128,0,27072:0:0:0:0:
256,192,26723,128,0,27072:0:0:0:0:
475,192,26723,128,0,27072:0:0:0:0:
182,192,27072,128,0,27247:0:0:0:0:
402,192,27072,128,0,27247:0:0:0:0:
329,192,27247,128,0,27421:0:0:0:0:
109,192,27247,128,0,27770:0:0:0:0:
256,192,27421,128,0,27770:0:0:0:0:
475,192,27421,128,0,27770:0:0:0:0:
182,192,27770,128,0,27944:0:0:0:0:
402,192,27770,128,0,27944:0:0:0:0:
109,192,27944,128,0,28293:0:0:0:0:
329,192,27944,128,0,28119:0:0:0:0:
256,192,28119,128,0,28293:0:0:0:0:
475,192,28119,128,0,28293:0:0:0:0:
182,192,28293,128,0,28816:0:0:0:0:
402,192,28293,128,0,28468:0:0:0:0:
329,192,28468,128,0,28816:0:0:0:0:
475,192,28468,128,0,28816:0:0:0:0:
36,192,28816,128,0,28991:0:0:0:0:
256,192,28816,128,0,29165:0:0:0:0:
109,192,28991,128,0,29165:0:0:0:0:
329,192,29165,128,0,29340:0:0:0:0:
182,192,29165,128,0,29514:0:0:0:0:
402,192,29340,128,0,29514:0:0:0:0:
475,192,29514,128,0,29689:0:0:0:0:
256,192,29514,128,0,29863:0:0:0:0:
402,192,29689,128,0,29863:0:0:0:0:
182,192,29863,128,0,30037:0:0:0:0:
329,192,29863,128,0,30212:0:0:0:0:
109,192,30037,128,0,30212:0:0:0:0:
36,192,30212,128,0,30386:0:0:0:0:
256,192,30212,128,0,30561:0:0:0:0:
109,192,30386,128,0,30561:0:0:0:0:
329,192,30561,128,0,30735:0:0:0:0:
182,192,30561,128,0,30910:0:0:0:0:
402,192,30735,128,0,30910:0:0:0:0:
256,192,30910,128,0,31084:0:0:0:0:
475,192,30910,128,0,31084:0:0:0:0:
182,192,31084,128,0,31607:0:0:0:0:
36,192,31084,128,0,31607:0:0:0:0:
475,192,31258,128,0,31607:0:0:0:0:
329,192,31258,128,0,31607:0:0:0:0:
256,192,31607,128,0,31956:0:0:0:0:
182,192,31956,128,0,32130:0:0:0:0:
329,192,31956,128,0,32130:0:0:0:0:
402,192,32130,128,0,32305:0:0:0:0:
109,192,32130,128,0,32305:0:0:0:0:
256,192,32305,128,0,32654:0:0:0:0:
402,192,32654,128,0,32828:0:0:0:0:
109,192,32654,128,0,32828:0:0:0:0:
182,192,32828,128,0,33003:0:0:0:0:
329,192,32828,128,0,33003:0:0:0:0:
475,192,33003,128,0,34311:0:0:0:0:
36,192,33003,128,0,34311:0:0:0:0:
402,192,33700,1,0,0:0:0:0:
256,192,33700,1,0,0:0:0:0:
182,192,33787,1,0,0:0:0:0:
109,192,33875,1,0,0:0:0:0:
402,192,33875,1,0,0:0:0:0:
329,192,33962,1,0,0:0:0:0:
256,192,34049,1,0,0:0:0:0:
109,192,34049,1,0,0:0:0:0:
329,192,34136,1,0,0:0:0:0:
402,192,34223,1,0,0:0:0:0:
182,192,34223,1,0,0:0:0:0:
256,192,34311,1,0,0:0:0:0:
475,192,34398,1,0,0:0:0:0:
36,192,34398,1,0,0:0:0:0:
109,192,34398,1,0,0:0:0:0:
329,192,34398,1,0,0:0:0:0:
402,192,34572,1,0,0:0:0:0:
475,192,34572,1,0,0:0:0:0:
182,192,34660,1,0,0:0:0:0:
109,192,34660,1,0,0:0:0:0:
256,192,34747,128,0,34834:0:0:0:0:
36,192,34747,1,0,0:0:0:0:
329,192,34790,128,0,34878:0:0:0:0:
402,192,34834,128,0,34921:0:0:0:0:
475,192,34878,128,0,34965:0:0:0:0:
182,192,34921,1,0,0:0:0:0:
36,192,34921,1,0,0:0:0:0:
256,192,35008,1,0,0:0:0:0:
329,192,35096,1,0,0:0:0:0:
475,192,35096,1,0,0:0:0:0:
109,192,35096,1,0,0:0:0:0:
182,192,35096,1,0,0:0:0:0:
256,192,35270,1,0,0:0:0:0:
109,192,35270,1,0,0:0:0:0:
402,192,35357,1,0,0:0:0:0:
475,192,35357,1,0,0:0:0:0:
182,192,35444,128,0,35532:0:0:0:0:
36,192,35444,1,0,0:0:0:0:
256,192,35488,128,0,35575:0:0:0:0:
329,192,35532,128,0,35619:0:0:0:0:
402,192,35575,128,0,35662:0:0:0:0:
109,192,35619,1,0,0:0:0:0:
36,192,35619,1,0,0:0:0:0:
182,192,35706,1,0,0:0:0:0:
256,192,35793,1,0,0:0:0:0:
402,192,35793,1,0,0:0:0:0:
475,192,35793,1,0,0:0:0:0:
329,192,35793,1,0,0:0:0:0:
329,192,35968,1,0,0:0:0:0:
475,192,35968,1,0,0:0:0:0:
109,192,36055,1,0,0:0:0:0:
36,192,36055,1,0,0:0:0:0:
256,192,36142,128,0,36229:0:0:0:0:
402,192,36142,1,0,0:0:0:0:
182,192,36186,128,0,36273:0:0:0:0:
109,192,36229,128,0,36316:0:0:0:0:
36,192,36273,128,0,36360:0:0:0:0:
329,192,36316,1,0,0:0:0:0:
402,192,36316,1,0,0:0:0:0:
256,192,36404,1,0,0:0:0:0:
182,192,36491,1,0,0:0:0:0:
36,192,36491,1,0,0:0:0:0:
475,192,36491,1,0,0:0:0:0:
329,192,36491,1,0,0:0:0:0:
109,192,36665,1,0,0:0:0:0:
182,192,36665,1,0,0:0:0:0:
475,192,36753,1,0,0:0:0:0:
402,192,36753,1,0,0:0:0:0:
329,192,36840,128,0,36927:0:0:0:0:
36,192,36840,1,0,0:0:0:0:
256,192,36883,128,0,36971:0:0:0:0:
182,192,36927,128,0,37014:0:0:0:0:
109,192,36971,128,0,37058:0:0:0:0:
402,192,37014,1,0,0:0:0:0:
475,192,37014,1,0,0:0:0:0:
329,192,37101,1,0,0:0:0:0:
256,192,37189,1,0,0:0:0:0:
109,192,37189,1,0,0:0:0:0:
182,192,37189,1,0,0:0:0:0:
36,192,37189,1,0,0:0:0:0:
182,192,37363,1,0,0:0:0:0:
329,192,37363,1,0,0:0:0:0:
402,192,37450,1,0,0:0:0:0:
475,192,37450,1,0,0:0:0:0:
109,192,37537,128,0,37625:0:0:0:0:
36,192,37537,1,0,0:0:0:0:
182,192,37581,128,0,37668:0:0:0:0:
256,192,37625,128,0,37712:0:0:0:0:
329,192,37668,128,0,37755:0:0:0:0:
402,192,37712,1,0,0:0:0:0:
36,192,37712,1,0,0:0:0:0:
109,192,37799,1,0,0:0:0:0:
402,192,37886,1,0,0:0:0:0:
182,192,37886,1,0,0:0:0:0:
475,192,37886,1,0,0:0:0:0:
256,192,37886,1,0,0:0:0:0:
182,192,38061,1,0,0:0:0:0:
36,192,38061,1,0,0:0:0:0:
256,192,38148,1,0,0:0:0:0:
475,192,38148,1,0,0:0:0:0:
402,192,38235,128,0,38322:0:0:0:0:
36,192,38235,1,0,0:0:0:0:
329,192,38279,128,0,38366:0:0:0:0:
256,192,38322,128,0,38410:0:0:0:0:
182,192,38366,128,0,38453:0:0:0:0:
109,192,38410,1,0,0:0:0:0:
475,192,38410,1,0,0:0:0:0:
402,192,38497,1,0,0:0:0:0:
109,192,38584,1,0,0:0:0:0:
329,192,38584,1,0,0:0:0:0:
182,192,38584,1,0,0:0:0:0:
36,192,38584,1,0,0:0:0:0:
256,192,38584,1,0,0:0:0:0:
329,192,39979,1,0,0:0:0:0:
402,192,39979,1,0,0:0:0:0:
475,192,39979,1,0,0:0:0:0:
109,192,39979,1,0,0:0:0:0:
36,192,39979,1,0,0:0:0:0:
36,192,40154,128,0,40415:0:0:0:0:
182,192,40154,1,0,0:0:0:0:
109,192,40241,128,0,40415:0:0:0:0:
256,192,40241,1,0,0:0:0:0:
182,192,40328,128,0,40415:0:0:0:0:
402,192,40328,1,0,0:0:0:0:
475,192,40328,1,0,0:0:0:0:
329,192,40328,1,0,0:0:0:0:
402,192,40503,128,0,40764:0:0:0:0:
256,192,40503,1,0,0:0:0:0:
329,192,40590,128,0,40764:0:0:0:0:
182,192,40590,1,0,0:0:0:0:
256,192,40677,128,0,40764:0:0:0:0:
109,192,40677,1,0,0:0:0:0:
36,192,40677,1,0,0:0:0:0:
475,192,40677,1,0,0:0:0:0:
109,192,40851,128,0,41113:0:0:0:0:
329,192,40851,1,0,0:0:0:0:
182,192,40939,128,0,41113:0:0:0:0:
402,192,40939,1,0,0:0:0:0:
256,192,41026,128,0,41113:0:0:0:0:
475,192,41026,1,0,0:0:0:0:
36,192,41026,1,0,0:0:0:0:
329,192,41026,1,0,0:0:0:0:
329,192,41200,128,0,41462:0:0:0:0:
109,192,41200,1,0,0:0:0:0:
402,192,41287,128,0,41462:0:0:0:0:
182,192,41287,1,0,0:0:0:0:
475,192,41375,128,0,41462:0:0:0:0:
256,192,41375,1,0,0:0:0:0:
36,192,41375,1,0,0:0:0:0:
109,192,41375,1,0,0:0:0:0:
182,192,41549,128,0,41811:0:0:0:0:
402,192,41549,1,0,0:0:0:0:
109,192,41636,128,0,41811:0:0:0:0:
329,192,41636,1,0,0:0:0:0:
36,192,41723,128,0,41811:0:0:0:0:
475,192,41723,1,0,0:0:0:0:
256,192,41723,1,0,0:0:0:0:
402,192,41723,1,0,0:0:0:0:
475,192,41898,128,0,42160:0:0:0:0:
329,192,41898,1,0,0:0:0:0:
402,192,41985,128,0,42160:0:0:0:0:
256,192,41985,1,0,0:0:0:0:
329,192,42072,128,0,42160:0:0:0:0:
182,192,42072,1,0,0:0:0:0:
109,192,42072,1,0,0:0:0:0:
36,192,42072,1,0,0:0:0:0:
36,192,42247,1,0,0:0:0:0:
256,192,42247,1,0,0:0:0:0:
109,192,42334,1,0,0:0:0:0:
329,192,42334,1,0,0:0:0:0:
182,192,42421,1,0,0:0:0:0:
402,192,42421,1,0,0:0:0:0:
475,192,42421,1,0,0:0:0:0:
475,192,42537,1,0,0:0:0:0:
402,192,42537,1,0,0:0:0:0:
475,192,42654,1,0,0:0:0:0:
402,192,42654,1,0,0:0:0:0:
475,192,45561,1,0,0:0:0:0:
36,192,45561,128,0,45648:0:0:0:0:
109,192,45561,128,0,45735:0:0:0:0:
182,192,45561,128,0,45822:0:0:0:0:
256,192,45561,128,0,45910:0:0:0:0:
402,192,45910,1,0,0:0:0:0:
475,192,45910,1,0,0:0:0:0:
36,192,45910,1,0,0:0:0:0:
109,192,45910,1,0,0:0:0:0:
329,192,45997,1,0,0:0:0:0:
109,192,46084,1,0,0:0:0:0:
256,192,46084,1,0,0:0:0:0:
329,192,46171,1,0,0:0:0:0:
36,192,46258,1,0,0:0:0:0:
475,192,46258,128,0,46433:0:0:0:0:
182,192,46258,128,0,46346:0:0:0:0:
402,192,46258,128,0,46607:0:0:0:0:
256,192,46346,128,0,46433:0:0:0:0:
109,192,46433,128,0,46520:0:0:0:0:
329,192,46433,128,0,46782:0:0:0:0:
182,192,46520,128,0,46607:0:0:0:0:
475,192,46607,1,0,0:0:0:0:
36,192,46607,128,0,46694:0:0:0:0:
256,192,46607,128,0,46956:0:0:0:0:
109,192,46694,128,0,46782:0:0:0:0:
182,192,46782,128,0,46956:0:0:0:0:
402,192,46782,128,0,46956:0:0:0:0:
36,192,46869,128,0,46956:0:0:0:0:
109,192,46956,1,0,0:0:0:0:
329,192,46956,1,0,0:0:0:0:
475,192,46956,1,0,0:0:0:0:
182,192,47043,1,0,0:0:0:0:
402,192,47130,1,0,0:0:0:0:
256,192,47130,1,0,0:0:0:0:
256,192,47218,1,0,0:0:0:0:
182,192,47305,1,0,0:0:0:0:
36,192,47305,1,0,0:0:0:0:
475,192,47305,1,0,0:0:0:0:
109,192,47305,1,0,0:0:0:0:
329,192,47392,1,0,0:0:0:0:
402,192,47479,1,0,0:0:0:0:
256,192,47479,1,0,0:0:0:0:
182,192,47566,1,0,0:0:0:0:
36,192,47654,128,0,47828:0:0:0:0:
109,192,47654,128,0,48003:0:0:0:0:
329,192,47654,128,0,47741:0:0:0:0:
475,192,47654,1,0,0:0:0:0:
256,192,47741,128,0,47828:0:0:0:0:
182,192,47828,128,0,48003:0:0:0:0:
402,192,47828,128,0,47915:0:0:0:0:
329,192,47915,128,0,48003:0:0:0:0:
36,192,48003,1,0,0:0:0:0:
475,192,48003,128,0,48090:0:0:0:0:
256,192,48003,1,0,0:0:0:0:
402,192,48046,128,0,48133:0:0:0:0:
329,192,48090,128,0,48177:0:0:0:0:
36,192,48177,128,0,48264:0:0:0:0:
256,192,48177,1,0,0:0:0:0:
109,192,48221,128,0,48308:0:0:0:0:
182,192,48264,128,0,48351:0:0:0:0:
329,192,48351,1,0,0:0:0:0:
475,192,48351,1,0,0:0:0:0:
402,192,48351,1,0,0:0:0:0:
256,192,48395,1,0,0:0:0:0:
182,192,48439,1,0,0:0:0:0:
109,192,48482,1,0,0:0:0:0:
402,192,48526,1,0,0:0:0:0:
329,192,48584,1,0,0:0:0:0:
256,192,48642,1,0,0:0:0:0:
182,192,48700,1,0,0:0:0:0:
36,192,48700,1,0,0:0:0:0:
109,192,48700,1,0,0:0:0:0:
329,192,48787,1,0,0:0:0:0:
256,192,48875,1,0,0:0:0:0:
182,192,48875,1,0,0:0:0:0:
402,192,48962,1,0,0:0:0:0:
329,192,49049,128,0,49398:0:0:0:0:
256,192,49049,1,0,0:0:0:0:
36,192,49049,128,0,49136:0:0:0:0:
475,192,49049,128,0,49223:0:0:0:0:
182,192,49136,128,0,49223:0:0:0:0:
402,192,49223,128,0,49572:0:0:0:0:
109,192,49223,128,0,49311:0:0:0:0:
256,192,49311,128,0,49398:0:0:0:0:
475,192,49398,128,0,49747:0:0:0:0:
182,192,49398,128,0,49485:0:0:0:0:
36,192,49398,1,0,0:0:0:0:
329,192,49485,128,0,49572:0:0:0:0:
109,192,49572,128,0,49747:0:0:0:0:
256,192,49572,128,0,49660:0:0:0:0:
36,192,49572,128,0,49747:0:0:0:0:
402,192,49660,128,0,49747:0:0:0:0:
182,192,49747,1,0,0:0:0:0:
329,192,49747,1,0,0:0:0:0:
256,192,49747,1,0,0:0:0:0:
402,192,49834,1,0,0:0:0:0:
182,192,49921,1,0,0:0:0:0:
475,192,49921,1,0,0:0:0:0:
182,192,50008,1,0,0:0:0:0:
329,192,50096,1,0,0:0:0:0:
256,192,50096,1,0,0:0:0:0:
109,192,50096,1,0,0:0:0:0:
36,192,50096,1,0,0:0:0:0:
402,192,50183,1,0,0:0:0:0:
475,192,50270,1,0,0:0:0:0:
182,192,50270,1,0,0:0:0:0:
256,192,50357,1,0,0:0:0:0:
475,192,50444,128,0,50793:0:0:0:0:
329,192,50444,128,0,50793:0:0:0:0:
36,192,50444,1,0,0:0:0:0:
109,192,50488,1,0,0:0:0:0:
182,192,50532,1,0,0:0:0:0:
256,192,50575,1,0,0:0:0:0:
36,192,50619,1,0,0:0:0:0:
402,192,50619,1,0,0:0:0:0:
36,192,50706,1,0,0:0:0:0:
256,192,50793,128,0,50968:0:0:0:0:
402,192,50793,128,0,50968:0:0:0:0:
109,192,50793,1,0,0:0:0:0:
329,192,50880,1,0,0:0:0:0:
182,192,50880,1,0,0:0:0:0:
36,192,50968,128,0,51142:0:0:0:0:
475,192,50968,1,0,0:0:0:0:
109,192,51026,128,0,51142:0:0:0:0:
182,192,51084,128,0,51142:0:0:0:0:
329,192,51142,128,0,51404:0:0:0:0:
256,192,51142,128,0,51491:0:0:0:0:
475,192,51142,128,0,51229:0:0:0:0:
402,192,51142,128,0,51316:0:0:0:0:
109,192,51491,1,0,0:0:0:0:
36,192,51491,1,0,0:0:0:0:
475,192,51491,1,0,0:0:0:0:
402,192,51491,1,0,0:0:0:0:
182,192,51578,1,0,0:0:0:0:
402,192,51665,1,0,0:0:0:0:
256,192,51665,1,0,0:0:0:0:
182,192,51753,1,0,0:0:0:0:
475,192,51840,1,0,0:0:0:0:
36,192,51840,128,0,52014:0:0:0:0:
329,192,51840,128,0,51927:0:0:0:0:
109,192,51840,128,0,52189:0:0:0:0:
256,192,51927,128,0,52014:0:0:0:0:
402,192,52014,128,0,52101:0:0:0:0:
182,192,52014,128,0,52363:0:0:0:0:
329,192,52101,128,0,52189:0:0:0:0:
36,192,52189,1,0,0:0:0:0:
475,192,52189,128,0,52276:0:0:0:0:
256,192,52189,128,0,52537:0:0:0:0:
402,192,52276,128,0,52363:0:0:0:0:
329,192,52363,128,0,52537:0:0:0:0:
109,192,52363,128,0,52537:0:0:0:0:
475,192,52450,128,0,52537:0:0:0:0:
402,192,52537,1,0,0:0:0:0:
182,192,52537,1,0,0:0:0:0:
36,192,52537,1,0,0:0:0:0:
329,192,52625,1,0,0:0:0:0:
109,192,52712,1,0,0:0:0:0:
256,192,52712,1,0,0:0:0:0:
256,192,52799,1,0,0:0:0:0:
329,192,52886,1,0,0:0:0:0:
475,192,52886,1,0,0:0:0:0:
36,192,52886,1,0,0:0:0:0:
402,192,52886,1,0,0:0:0:0:
182,192,52973,1,0,0:0:0:0:
109,192,53061,1,0,0:0:0:0:
256,192,53061,1,0,0:0:0:0:
329,192,53148,1,0,0:0:0:0:
475,192,53235,128,0,53410:0:0:0:0:
402,192,53235,128,0,53584:0:0:0:0:
182,192,53235,128,0,53322:0:0:0:0:
36,192,53235,1,0,0:0:0:0:
256,192,53322,128,0,53410:0:0:0:0:
329,192,53410,128,0,53584:0:0:0:0:
109,192,53410,128,0,53497:0:0:0:0:
182,192,53497,128,0,53584:0:0:0:0:
475,192,53584,1,0,0:0:0:0:
256,192,53584,1,0,0:0:0:0:
36,192,53584,128,0,53671:0:0:0:0:
109,192,53628,128,0,53715:0:0:0:0:
182,192,53671,128,0,53758:0:0:0:0:
475,192,53758,128,0,53846:0:0:0:0:
256,192,53758,1,0,0:0:0:0:
402,192,53802,128,0,53889:0:0:0:0:
329,192,53846,128,0,53933:0:0:0:0:
36,192,53933,128,0,54194:0:0:0:0:
182,192,53933,128,0,54194:0:0:0:0:
109,192,53933,1,0,0:0:0:0:
475,192,54107,1,0,0:0:0:0:
402,192,54194,1,0,0:0:0:0:
182,192,54282,128,0,54543:0:0:0:0:
329,192,54282,128,0,54543:0:0:0:0:
36,192,54282,1,0,0:0:0:0:
256,192,54369,1,0,0:0:0:0:
402,192,54456,1,0,0:0:0:0:
109,192,54456,1,0,0:0:0:0:
329,192,54630,128,0,54892:0:0:0:0:
475,192,54630,128,0,54892:0:0:0:0:
256,192,54630,1,0,0:0:0:0:
109,192,54630,1,0,0:0:0:0:
256,192,54805,1,0,0:0:0:0:
402,192,54805,1,0,0:0:0:0:
182,192,54892,1,0,0:0:0:0:
475,192,54979,128,0,55241:0:0:0:0:
36,192,54979,128,0,55241:0:0:0:0:
109,192,54979,1,0,0:0:0:0:
402,192,54979,1,0,0:0:0:0:
329,192,55154,1,0,0:0:0:0:
182,192,55154,1,0,0:0:0:0:
256,192,55241,1,0,0:0:0:0:
109,192,55328,128,0,55677:0:0:0:0:
402,192,55328,128,0,55677:0:0:0:0:
475,192,55328,1,0,0:0:0:0:
36,192,55328,1,0,0:0:0:0:
256,192,55503,128,0,55677:0:0:0:0:
329,192,55677,1,0,0:0:0:0:
182,192,55677,1,0,0:0:0:0:
182,192,55851,128,0,56026:0:0:0:0:
329,192,55851,128,0,56026:0:0:0:0:
256,192,56026,128,0,56723:0:0:0:0:
36,192,56026,1,0,0:0:0:0:
475,192,56026,1,0,0:0:0:0:
402,192,56113,1,0,0:0:0:0:
109,192,56113,1,0,0:0:0:0:
329,192,56200,1,0,0:0:0:0:
182,192,56200,1,0,0:0:0:0:
329,192,56375,1,0,0:0:0:0:
182,192,56375,1,0,0:0:0:0:
109,192,56549,1,0,0:0:0:0:
36,192,56549,1,0,0:0:0:0:
402,192,56549,1,0,0:0:0:0:
475,192,56549,1,0,0:0:0:0:
475,192,56723,1,0,0:0:0:0:
402,192,56723,1,0,0:0:0:0:
36,192,56723,1,0,0:0:0:0:
109,192,56767,1,0,0:0:0:0:
182,192,56811,1,0,0:0:0:0:
256,192,56854,1,0,0:0:0:0:
475,192,56898,1,0,0:0:0:0:
402,192,56941,1,0,0:0:0:0:
329,192,56985,1,0,0:0:0:0:
256,192,57029,1,0,0:0:0:0:
182,192,57072,1,0,0:0:0:0:
109,192,57072,1,0,0:0:0:0:
36,192,57072,1,0,0:0:0:0:
329,192,57160,1,0,0:0:0:0:
256,192,57247,1,0,0:0:0:0:
402,192,57247,128,0,57334:0:0:0:0:
475,192,57247,128,0,57334:0:0:0:0:
182,192,57334,1,0,0:0:0:0:
256,192,57421,1,0,0:0:0:0:
109,192,57421,1,0,0:0:0:0:
36,192,57421,1,0,0:0:0:0:
329,192,57508,1,0,0:0:0:0:
402,192,57596,128,0,57683:0:0:0:0:
182,192,57596,128,0,57683:0:0:0:0:
475,192,57596,128,0,57683:0:0:0:0:
256,192,57683,128,0,57770:0:0:0:0:
36,192,57770,1,0,0:0:0:0:
329,192,57770,128,0,57857:0:0:0:0:
109,192,57770,128,0,57857:0:0:0:0:
402,192,57770,128,0,57857:0:0:0:0:
182,192,57857,128,0,57944:0:0:0:0:
256,192,57944,128,0,58032:0:0:0:0:
36,192,57944,128,0,58032:0:0:0:0:
329,192,57944,128,0,58032:0:0:0:0:
109,192,58032,128,0,58119:0:0:0:0:
475,192,58119,1,0,0:0:0:0:
256,192,58119,1,0,0:0:0:0:
182,192,58119,1,0,0:0:0:0:
402,192,58206,1,0,0:0:0:0:
329,192,58293,1,0,0:0:0:0:
182,192,58293,1,0,0:0:0:0:
329,192,58380,1,0,0:0:0:0:
256,192,58468,1,0,0:0:0:0:
109,192,58468,1,0,0:0:0:0:
36,192,58468,1,0,0:0:0:0:
475,192,58468,1,0,0:0:0:0:
182,192,58555,1,0,0:0:0:0:
402,192,58642,1,0,0:0:0:0:
329,192,58642,128,0,58729:0:0:0:0:
475,192,58642,128,0,58729:0:0:0:0:
182,192,58729,1,0,0:0:0:0:
109,192,58816,1,0,0:0:0:0:
36,192,58816,1,0,0:0:0:0:
256,192,58816,1,0,0:0:0:0:
329,192,58904,1,0,0:0:0:0:
475,192,58991,128,0,59078:0:0:0:0:
182,192,58991,128,0,59078:0:0:0:0:
402,192,58991,128,0,59078:0:0:0:0:
256,192,59078,128,0,59165:0:0:0:0:
182,192,59165,128,0,59253:0:0:0:0:
402,192,59165,128,0,59253:0:0:0:0:
329,192,59165,128,0,59253:0:0:0:0:
109,192,59209,128,0,59296:0:0:0:0:
36,192,59253,128,0,59340:0:0:0:0:
256,192,59340,128,0,59427:0:0:0:0:
329,192,59340,128,0,59427:0:0:0:0:
475,192,59340,128,0,59427:0:0:0:0:
182,192,59383,128,0,59471:0:0:0:0:
109,192,59427,128,0,59514:0:0:0:0:
36,192,59514,1,0,0:0:0:0:
256,192,59514,1,0,0:0:0:0:
475,192,59514,1,0,0:0:0:0:
329,192,59558,1,0,0:0:0:0:
402,192,59601,1,0,0:0:0:0:
109,192,59645,1,0,0:0:0:0:
182,192,59689,1,0,0:0:0:0:
256,192,59747,1,0,0:0:0:0:
329,192,59805,1,0,0:0:0:0:
402,192,59863,1,0,0:0:0:0:
475,192,59863,1,0,0:0:0:0:
36,192,59863,1,0,0:0:0:0:
109,192,59950,1,0,0:0:0:0:
182,192,60037,1,0,0:0:0:0:
256,192,60037,128,0,60125:0:0:0:0:
475,192,60037,128,0,60125:0:0:0:0:
329,192,60125,1,0,0:0:0:0:
36,192,60212,1,0,0:0:0:0:
109,192,60212,1,0,0:0:0:0:
402,192,60212,1,0,0:0:0:0:
182,192,60299,1,0,0:0:0:0:
475,192,60386,128,0,60473:0:0:0:0:
109,192,60386,128,0,60473:0:0:0:0:
256,192,60386,128,0,60473:0:0:0:0:
329,192,60473,128,0,60561:0:0:0:0:
475,192,60561,1,0,0:0:0:0:
402,192,60561,128,0,60648:0:0:0:0:
36,192,60561,128,0,60648:0:0:0:0:
182,192,60561,128,0,60648:0:0:0:0:
256,192,60648,128,0,60735:0:0:0:0:
329,192,60735,128,0,60822:0:0:0:0:
475,192,60735,128,0,60822:0:0:0:0:
109,192,60735,128,0,60822:0:0:0:0:
182,192,60822,128,0,60910:0:0:0:0:
475,192,60910,128,0,61258:0:0:0:0:
36,192,60910,1,0,0:0:0:0:
256,192,60910,1,0,0:0:0:0:
36,192,61258,128,0,61607:0:0:0:0:
329,192,61433,1,0,0:0:0:0:
182,192,61433,1,0,0:0:0:0:
182,192,61607,1,0,0:0:0:0:
329,192,61607,1,0,0:0:0:0:
402,192,61607,128,0,61956:0:0:0:0:
109,192,61607,128,0,61956:0:0:0:0:
256,192,61782,128,0,61956:0:0:0:0:
182,192,61956,1,0,0:0:0:0:
36,192,61956,1,0,0:0:0:0:
475,192,61956,1,0,0:0:0:0:
182,192,62072,1,0,0:0:0:0:
36,192,62072,1,0,0:0:0:0:
329,192,62189,1,0,0:0:0:0:
475,192,62189,1,0,0:0:0:0:
329,192,62305,1,0,0:0:0:0:
475,192,62305,1,0,0:0:0:0:
109,192,62305,1,0,0:0:0:0:
182,192,62348,1,0,0:0:0:0:
256,192,62392,1,0,0:0:0:0:
402,192,62436,1,0,0:0:0:0:
36,192,62479,1,0,0:0:0:0:
109,192,62523,1,0,0:0:0:0:
182,192,62566,1,0,0:0:0:0:
329,192,62610,1,0,0:0:0:0:
256,192,62654,1,0,0:0:0:0:
402,192,62654,1,0,0:0:0:0:
475,192,62654,1,0,0:0:0:0:
182,192,62741,1,0,0:0:0:0:
256,192,62828,1,0,0:0:0:0:
109,192,62828,128,0,62915:0:0:0:0:
36,192,62828,128,0,62915:0:0:0:0:
329,192,62915,1,0,0:0:0:0:
402,192,63003,1,0,0:0:0:0:
475,192,63003,1,0,0:0:0:0:
256,192,63003,1,0,0:0:0:0:
182,192,63090,1,0,0:0:0:0:
36,192,63177,128,0,63264:0:0:0:0:
109,192,63177,128,0,63264:0:0:0:0:
329,192,63177,128,0,63264:0:0:0:0:
256,192,63264,128,0,63351:0:0:0:0:
475,192,63351,1,0,0:0:0:0:
182,192,63351,128,0,63439:0:0:0:0:
402,192,63351,128,0,63439:0:0:0:0:
109,192,63351,128,0,63439:0:0:0:0:
36,192,63439,1,0,0:0:0:0:
329,192,63439,128,0,63526:0:0:0:0:
256,192,63526,128,0,63613:0:0:0:0:
475,192,63526,128,0,63613:0:0:0:0:
182,192,63526,128,0,63613:0:0:0:0:
109,192,63613,1,0,0:0:0:0:
402,192,63613,128,0,63700:0:0:0:0:
329,192,63700,1,0,0:0:0:0:
256,192,63700,1,0,0:0:0:0:
36,192,63700,1,0,0:0:0:0:
109,192,63787,1,0,0:0:0:0:
182,192,63875,1,0,0:0:0:0:
329,192,63875,1,0,0:0:0:0:
182,192,63962,1,0,0:0:0:0:
256,192,64049,1,0,0:0:0:0:
402,192,64049,1,0,0:0:0:0:
475,192,64049,1,0,0:0:0:0:
36,192,64049,1,0,0:0:0:0:
329,192,64136,1,0,0:0:0:0:
109,192,64223,1,0,0:0:0:0:
182,192,64223,128,0,64311:0:0:0:0:
36,192,64223,128,0,64311:0:0:0:0:
329,192,64311,1,0,0:0:0:0:
402,192,64398,1,0,0:0:0:0:
475,192,64398,1,0,0:0:0:0:
256,192,64398,1,0,0:0:0:0:
182,192,64485,1,0,0:0:0:0:
36,192,64572,128,0,64660:0:0:0:0:
329,192,64572,128,0,64660:0:0:0:0:
109,192,64572,128,0,64660:0:0:0:0:
256,192,64660,128,0,64747:0:0:0:0:
329,192,64747,128,0,64834:0:0:0:0:
109,192,64747,128,0,64834:0:0:0:0:
182,192,64747,128,0,64834:0:0:0:0:
402,192,64790,128,0,64878:0:0:0:0:
475,192,64834,128,0,64921:0:0:0:0:
256,192,64921,128,0,65008:0:0:0:0:
182,192,64921,128,0,65008:0:0:0:0:
36,192,64921,128,0,65008:0:0:0:0:
329,192,64965,128,0,65052:0:0:0:0:
402,192,65008,128,0,65096:0:0:0:0:
109,192,65096,1,0,0:0:0:0:
475,192,65096,1,0,0:0:0:0:
36,192,65096,1,0,0:0:0:0:
182,192,65096,1,0,0:0:0:0:
475,192,65270,1,0,0:0:0:0:
475,192,65444,1,0,0:0:0:0:
256,192,65444,128,0,65793:0:0:0:0:
475,192,65619,1,0,0:0:0:0:
475,192,65793,1,0,0:0:0:0:
109,192,65793,1,0,0:0:0:0:
329,192,65793,128,0,66491:0:0:0:0:
475,192,65968,1,0,0:0:0:0:
109,192,65968,1,0,0:0:0:0:
475,192,66142,1,0,0:0:0:0:
182,192,66142,1,0,0:0:0:0:
475,192,66316,1,0,0:0:0:0:
182,192,66316,1,0,0:0:0:0:
475,192,66491,1,0,0:0:0:0:
256,192,66491,1,0,0:0:0:0:
36,192,66491,128,0,67189:0:0:0:0:
475,192,66665,1,0,0:0:0:0:
256,192,66665,1,0,0:0:0:0:
475,192,66840,1,0,0:0:0:0:
329,192,66840,1,0,0:0:0:0:
109,192,66840,128,0,67537:0:0:0:0:
475,192,67014,1,0,0:0:0:0:
329,192,67014,1,0,0:0:0:0:
475,192,67189,1,0,0:0:0:0:
402,192,67189,1,0,0:0:0:0:
182,192,67189,128,0,67886:0:0:0:0:
475,192,67363,1,0,0:0:0:0:
402,192,67363,1,0,0:0:0:0:
475,192,67537,1,0,0:0:0:0:
256,192,67537,128,0,67886:0:0:0:0:
329,192,67625,1,0,0:0:0:0:
475,192,67712,1,0,0:0:0:0:
402,192,67799,1,0,0:0:0:0:
329,192,67886,128,0,68061:0:0:0:0:
36,192,67886,1,0,0:0:0:0:
109,192,67886,1,0,0:0:0:0:
36,192,68061,1,0,0:0:0:0:
36,192,68235,1,0,0:0:0:0:
36,192,68410,1,0,0:0:0:0:
36,192,68584,1,0,0:0:0:0:
329,192,68584,128,0,68758:0:0:0:0:
36,192,68758,1,0,0:0:0:0:
182,192,68933,1,0,0:0:0:0:
256,192,68933,1,0,0:0:0:0:
475,192,68933,1,0,0:0:0:0:
36,192,69107,1,0,0:0:0:0:
329,192,69282,128,0,69456:0:0:0:0:
109,192,69282,1,0,0:0:0:0:
182,192,69282,1,0,0:0:0:0:
402,192,69282,1,0,0:0:0:0:
475,192,69282,1,0,0:0:0:0:
36,192,69456,1,0,0:0:0:0:
256,192,69456,1,0,0:0:0:0:
256,192,69630,1,0,0:0:0:0:
182,192,69630,1,0,0:0:0:0:
475,192,69630,1,0,0:0:0:0:
402,192,69630,1,0,0:0:0:0:
36,192,69805,1,0,0:0:0:0:
36,192,69979,1,0,0:0:0:0:
329,192,69979,128,0,70154:0:0:0:0:
182,192,70154,1,0,0:0:0:0:
109,192,70154,1,0,0:0:0:0:
402,192,70154,1,0,0:0:0:0:
182,192,70328,1,0,0:0:0:0:
256,192,70328,1,0,0:0:0:0:
475,192,70328,1,0,0:0:0:0:
402,192,70328,1,0,0:0:0:0:
36,192,70503,1,0,0:0:0:0:
329,192,70677,128,0,70851:0:0:0:0:
182,192,70677,1,0,0:0:0:0:
109,192,70677,1,0,0:0:0:0:
402,192,70677,1,0,0:0:0:0:
36,192,70851,1,0,0:0:0:0:
182,192,71026,1,0,0:0:0:0:
256,192,71026,1,0,0:0:0:0:
475,192,71026,1,0,0:0:0:0:
402,192,71026,1,0,0:0:0:0:
36,192,71200,1,0,0:0:0:0:
36,192,71375,1,0,0:0:0:0:
329,192,71375,128,0,71549:0:0:0:0:
109,192,71549,1,0,0:0:0:0:
182,192,71549,1,0,0:0:0:0:
402,192,71549,1,0,0:0:0:0:
182,192,71723,1,0,0:0:0:0:
256,192,71723,1,0,0:0:0:0:
475,192,71723,1,0,0:0:0:0:
402,192,71723,1,0,0:0:0:0:
36,192,71898,1,0,0:0:0:0:
329,192,72072,128,0,72247:0:0:0:0:
182,192,72072,1,0,0:0:0:0:
109,192,72072,1,0,0:0:0:0:
402,192,72072,1,0,0:0:0:0:
475,192,72072,128,0,72770:0:0:0:0:
36,192,72247,1,0,0:0:0:0:
256,192,72421,1,0,0:0:0:0:
182,192,72421,1,0,0:0:0:0:
402,192,72421,1,0,0:0:0:0:
329,192,72421,1,0,0:0:0:0:
36,192,72596,1,0,0:0:0:0:
36,192,72770,1,0,0:0:0:0:
329,192,72770,128,0,72944:0:0:0:0:
182,192,72944,1,0,0:0:0:0:
109,192,72944,1,0,0:0:0:0:
402,192,72944,1,0,0:0:0:0:
402,192,73119,128,0,73293:0:0:0:0:
475,192,73119,1,0,0:0:0:0:
256,192,73119,1,0,0:0:0:0:
182,192,73119,1,0,0:0:0:0:
329,192,73119,1,0,0:0:0:0:
36,192,73293,1,0,0:0:0:0:
329,192,73468,128,0,73642:0:0:0:0:
182,192,73468,1,0,0:0:0:0:
109,192,73468,1,0,0:0:0:0:
402,192,73468,1,0,0:0:0:0:
36,192,73642,1,0,0:0:0:0:
182,192,73816,1,0,0:0:0:0:
256,192,73816,1,0,0:0:0:0:
475,192,73816,1,0,0:0:0:0:
402,192,73816,1,0,0:0:0:0:
36,192,73991,1,0,0:0:0:0:
36,192,74165,1,0,0:0:0:0:
329,192,74165,128,0,74340:0:0:0:0:
182,192,74340,1,0,0:0:0:0:
109,192,74340,1,0,0:0:0:0:
402,192,74340,1,0,0:0:0:0:
182,192,74514,1,0,0:0:0:0:
256,192,74514,1,0,0:0:0:0:
475,192,74514,1,0,0:0:0:0:
402,192,74514,1,0,0:0:0:0:
36,192,74689,1,0,0:0:0:0:
329,192,74863,128,0,75037:0:0:0:0:
109,192,74863,1,0,0:0:0:0:
182,192,74863,1,0,0:0:0:0:
402,192,74863,1,0,0:0:0:0:
36,192,75037,1,0,0:0:0:0:
256,192,75037,1,0,0:0:0:0:
182,192,75212,1,0,0:0:0:0:
256,192,75212,1,0,0:0:0:0:
475,192,75212,1,0,0:0:0:0:
402,192,75212,1,0,0:0:0:0:
36,192,75386,1,0,0:0:0:0:
36,192,75561,1,0,0:0:0:0:
329,192,75561,128,0,75735:0:0:0:0:
182,192,75735,1,0,0:0:0:0:
109,192,75735,1,0,0:0:0:0:
402,192,75735,1,0,0:0:0:0:
256,192,75910,1,0,0:0:0:0:
182,192,75910,1,0,0:0:0:0:
475,192,75910,1,0,0:0:0:0:
402,192,75910,1,0,0:0:0:0:
36,192,76084,1,0,0:0:0:0:
329,192,76258,128,0,76433:0:0:0:0:
182,192,76258,1,0,0:0:0:0:
109,192,76258,1,0,0:0:0:0:
402,192,76258,1,0,0:0:0:0:
36,192,76433,1,0,0:0:0:0:
182,192,76607,1,0,0:0:0:0:
256,192,76607,1,0,0:0:0:0:
475,192,76607,1,0,0:0:0:0:
402,192,76607,1,0,0:0:0:0:
36,192,76782,1,0,0:0:0:0:
36,192,76956,1,0,0:0:0:0:
329,192,76956,128,0,77130:0:0:0:0:
182,192,77130,1,0,0:0:0:0:
109,192,77130,1,0,0:0:0:0:
402,192,77130,1,0,0:0:0:0:
182,192,77305,1,0,0:0:0:0:
256,192,77305,1,0,0:0:0:0:
402,192,77305,1,0,0:0:0:0:
475,192,77305,1,0,0:0:0:0:
36,192,77479,1,0,0:0:0:0:
475,192,77654,128,0,78351:0:0:0:0:
402,192,77654,1,0,0:0:0:0:
109,192,77654,1,0,0:0:0:0:
182,192,77654,1,0,0:0:0:0:
256,192,77654,1,0,0:0:0:0:
36,192,77828,1,0,0:0:0:0:
36,192,78003,1,0,0:0:0:0:
329,192,78003,128,0,78351:0:0:0:0:
36,192,78177,1,0,0:0:0:0:
36,192,78351,1,0,0:0:0:0:
256,192,78351,128,0,78439:0:0:0:0:
182,192,78526,1,0,0:0:0:0:
109,192,78526,1,0,0:0:0:0:
402,192,78526,1,0,0:0:0:0:
256,192,78526,128,0,78613:0:0:0:0:
36,192,78700,1,0,0:0:0:0:
256,192,78700,128,0,78787:0:0:0:0:
36,192,78875,1,0,0:0:0:0:
256,192,78875,128,0,78962:0:0:0:0:
329,192,79049,1,0,0:0:0:0:
402,192,79049,128,0,79223:0:0:0:0:
475,192,79049,1,0,0:0:0:0:
109,192,79049,1,0,0:0:0:0:
182,192,79136,1,0,0:0:0:0:
256,192,79223,1,0,0:0:0:0:
36,192,79223,1,0,0:0:0:0:
109,192,79311,1,0,0:0:0:0:
475,192,79398,1,0,0:0:0:0:
256,192,79398,1,0,0:0:0:0:
329,192,79398,1,0,0:0:0:0:
182,192,79456,1,0,0:0:0:0:
402,192,79485,1,0,0:0:0:0:
109,192,79514,1,0,0:0:0:0:
256,192,79572,1,0,0:0:0:0:
36,192,79572,1,0,0:0:0:0:
329,192,79660,1,0,0:0:0:0:
402,192,79747,128,0,79921:0:0:0:0:
182,192,79747,1,0,0:0:0:0:
36,192,79747,1,0,0:0:0:0:
256,192,79834,1,0,0:0:0:0:
109,192,79921,1,0,0:0:0:0:
475,192,79921,1,0,0:0:0:0:
182,192,80008,1,0,0:0:0:0:
256,192,80096,1,0,0:0:0:0:
475,192,80096,1,0,0:0:0:0:
329,192,80096,1,0,0:0:0:0:
182,192,80154,1,0,0:0:0:0:
402,192,80183,1,0,0:0:0:0:
109,192,80212,1,0,0:0:0:0:
256,192,80270,1,0,0:0:0:0:
36,192,80270,1,0,0:0:0:0:
329,192,80357,1,0,0:0:0:0:
402,192,80444,128,0,80619:0:0:0:0:
109,192,80444,1,0,0:0:0:0:
475,192,80444,1,0,0:0:0:0:
182,192,80532,1,0,0:0:0:0:
256,192,80619,1,0,0:0:0:0:
36,192,80619,1,0,0:0:0:0:
109,192,80706,1,0,0:0:0:0:
256,192,80793,1,0,0:0:0:0:
475,192,80793,1,0,0:0:0:0:
329,192,80793,1,0,0:0:0:0:
182,192,80851,1,0,0:0:0:0:
402,192,80880,1,0,0:0:0:0:
109,192,80910,1,0,0:0:0:0:
256,192,80968,1,0,0:0:0:0:
36,192,80968,1,0,0:0:0:0:
329,192,81055,1,0,0:0:0:0:
402,192,81142,128,0,81316:0:0:0:0:
182,192,81142,1,0,0:0:0:0:
36,192,81142,1,0,0:0:0:0:
256,192,81229,1,0,0:0:0:0:
109,192,81316,1,0,0:0:0:0:
475,192,81316,1,0,0:0:0:0:
182,192,81404,1,0,0:0:0:0:
475,192,81491,1,0,0:0:0:0:
256,192,81491,1,0,0:0:0:0:
329,192,81491,1,0,0:0:0:0:
182,192,81549,1,0,0:0:0:0:
402,192,81578,1,0,0:0:0:0:
109,192,81607,1,0,0:0:0:0:
256,192,81665,1,0,0:0:0:0:
36,192,81665,1,0,0:0:0:0:
329,192,81753,1,0,0:0:0:0:
402,192,81840,128,0,82014:0:0:0:0:
109,192,81840,1,0,0:0:0:0:
475,192,81840,1,0,0:0:0:0:
182,192,81927,1,0,0:0:0:0:
256,192,82014,1,0,0:0:0:0:
36,192,82014,1,0,0:0:0:0:
109,192,82101,1,0,0:0:0:0:
256,192,82189,1,0,0:0:0:0:
475,192,82189,1,0,0:0:0:0:
329,192,82189,1,0,0:0:0:0:
182,192,82247,1,0,0:0:0:0:
402,192,82276,1,0,0:0:0:0:
109,192,82305,1,0,0:0:0:0:
256,192,82363,1,0,0:0:0:0:
36,192,82363,1,0,0:0:0:0:
329,192,82450,1,0,0:0:0:0:
402,192,82537,128,0,82712:0:0:0:0:
182,192,82537,1,0,0:0:0:0:
36,192,82537,1,0,0:0:0:0:
256,192,82625,1,0,0:0:0:0:
109,192,82712,1,0,0:0:0:0:
475,192,82712,1,0,0:0:0:0:
182,192,82799,1,0,0:0:0:0:
475,192,82886,1,0,0:0:0:0:
256,192,82886,1,0,0:0:0:0:
329,192,82886,1,0,0:0:0:0:
182,192,82944,1,0,0:0:0:0:
402,192,82973,1,0,0:0:0:0:
109,192,83003,1,0,0:0:0:0:
256,192,83061,1,0,0:0:0:0:
36,192,83061,1,0,0:0:0:0:
329,192,83148,1,0,0:0:0:0:
402,192,83235,128,0,83410:0:0:0:0:
109,192,83235,1,0,0:0:0:0:
475,192,83235,1,0,0:0:0:0:
182,192,83322,1,0,0:0:0:0:
256,192,83410,1,0,0:0:0:0:
36,192,83410,1,0,0:0:0:0:
109,192,83497,1,0,0:0:0:0:
256,192,83584,1,0,0:0:0:0:
475,192,83584,1,0,0:0:0:0:
329,192,83584,1,0,0:0:0:0:
182,192,83642,1,0,0:0:0:0:
402,192,83671,1,0,0:0:0:0:
109,192,83700,1,0,0:0:0:0:
256,192,83758,1,0,0:0:0:0:
36,192,83758,1,0,0:0:0:0:
329,192,83846,1,0,0:0:0:0:
402,192,83933,128,0,84107:0:0:0:0:
182,192,83933,1,0,0:0:0:0:
36,192,83933,1,0,0:0:0:0:
256,192,84020,1,0,0:0:0:0:
109,192,84107,1,0,0:0:0:0:
475,192,84107,1,0,0:0:0:0:
182,192,84194,1,0,0:0:0:0:
475,192,84282,128,0,84456:0:0:0:0:
256,192,84282,1,0,0:0:0:0:
402,192,84282,1,0,0:0:0:0:
329,192,84282,1,0,0:0:0:0:
182,192,84340,1,0,0:0:0:0:
109,192,84398,1,0,0:0:0:0:
329,192,84456,1,0,0:0:0:0:
36,192,84456,1,0,0:0:0:0:
256,192,84514,1,0,0:0:0:0:
182,192,84572,1,0,0:0:0:0:
402,192,84630,128,0,84805:0:0:0:0:
109,192,84630,1,0,0:0:0:0:
475,192,84630,1,0,0:0:0:0:
256,192,84689,1,0,0:0:0:0:
329,192,84747,1,0,0:0:0:0:
182,192,84805,1,0,0:0:0:0:
36,192,84805,1,0,0:0:0:0:
109,192,84892,1,0,0:0:0:0:
256,192,84979,1,0,0:0:0:0:
475,192,84979,1,0,0:0:0:0:
329,192,84979,1,0,0:0:0:0:
182,192,85037,1,0,0:0:0:0:
402,192,85066,1,0,0:0:0:0:
109,192,85096,1,0,0:0:0:0:
256,192,85154,1,0,0:0:0:0:
36,192,85154,1,0,0:0:0:0:
329,192,85241,1,0,0:0:0:0:
402,192,85328,128,0,85503:0:0:0:0:
182,192,85328,1,0,0:0:0:0:
36,192,85328,1,0,0:0:0:0:
256,192,85415,1,0,0:0:0:0:
109,192,85503,1,0,0:0:0:0:
475,192,85503,1,0,0:0:0:0:
182,192,85590,1,0,0:0:0:0:
329,192,85677,1,0,0:0:0:0:
475,192,85677,1,0,0:0:0:0:
256,192,85677,1,0,0:0:0:0:
182,192,85735,1,0,0:0:0:0:
402,192,85764,1,0,0:0:0:0:
109,192,85793,1,0,0:0:0:0:
256,192,85851,1,0,0:0:0:0:
36,192,85851,1,0,0:0:0:0:
329,192,85939,1,0,0:0:0:0:
402,192,86026,128,0,86200:0:0:0:0:
109,192,86026,1,0,0:0:0:0:
475,192,86026,1,0,0:0:0:0:
182,192,86113,1,0,0:0:0:0:
256,192,86200,1,0,0:0:0:0:
36,192,86200,1,0,0:0:0:0:
109,192,86287,1,0,0:0:0:0:
256,192,86375,1,0,0:0:0:0:
329,192,86375,1,0,0:0:0:0:
475,192,86375,1,0,0:0:0:0:
182,192,86433,1,0,0:0:0:0:
402,192,86462,1,0,0:0:0:0:
109,192,86491,1,0,0:0:0:0:
256,192,86549,1,0,0:0:0:0:
36,192,86549,1,0,0:0:0:0:
329,192,86636,1,0,0:0:0:0:
402,192,86723,128,0,86898:0:0:0:0:
182,192,86723,1,0,0:0:0:0:
36,192,86723,1,0,0:0:0:0:
256,192,86811,1,0,0:0:0:0:
109,192,86898,1,0,0:0:0:0:
475,192,86898,1,0,0:0:0:0:
182,192,86985,1,0,0:0:0:0:
256,192,87072,1,0,0:0:0:0:
475,192,87072,1,0,0:0:0:0:
329,192,87072,1,0,0:0:0:0:
182,192,87130,1,0,0:0:0:0:
402,192,87160,1,0,0:0:0:0:
109,192,87189,1,0,0:0:0:0:
256,192,87247,1,0,0:0:0:0:
36,192,87247,1,0,0:0:0:0:
182,192,87334,1,0,0:0:0:0:
329,192,87421,128,0,87596:0:0:0:0:
109,192,87421,1,0,0:0:0:0:
475,192,87421,128,0,87508:0:0:0:0:
402,192,87421,1,0,0:0:0:0:
475,192,87596,128,0,87683:0:0:0:0:
36,192,87596,1,0,0:0:0:0:
402,192,87770,128,0,87857:0:0:0:0:
256,192,87770,1,0,0:0:0:0:
182,192,87828,1,0,0:0:0:0:
109,192,87886,1,0,0:0:0:0:
402,192,87944,128,0,88032:0:0:0:0:
36,192,87944,1,0,0:0:0:0:
475,192,87944,1,0,0:0:0:0:
182,192,88119,128,0,88293:0:0:0:0:
329,192,88119,128,0,88206:0:0:0:0:
36,192,88119,1,0,0:0:0:0:
329,192,88293,128,0,88380:0:0:0:0:
402,192,88293,1,0,0:0:0:0:
109,192,88293,1,0,0:0:0:0:
256,192,88468,128,0,88555:0:0:0:0:
475,192,88468,1,0,0:0:0:0:
182,192,88526,1,0,0:0:0:0:
109,192,88584,1,0,0:0:0:0:
256,192,88642,128,0,88816:0:0:0:0:
36,192,88642,1,0,0:0:0:0:
402,192,88642,1,0,0:0:0:0:
36,192,88816,1,0,0:0:0:0:
329,192,88816,1,0,0:0:0:0:
475,192,88816,1,0,0:0:0:0:
109,192,88816,128,0,89096:0:0:0:0:
475,192,88956,1,0,0:0:0:0:
329,192,88956,1,0,0:0:0:0:
182,192,89096,1,0,0:0:0:0:
36,192,89096,1,0,0:0:0:0:
402,192,89096,128,0,89514:0:0:0:0:
36,192,89235,1,0,0:0:0:0:
182,192,89235,1,0,0:0:0:0:
475,192,89514,1,0,0:0:0:0:
329,192,89558,1,0,0:0:0:0:
256,192,89601,1,0,0:0:0:0:
182,192,89645,1,0,0:0:0:0:
109,192,89689,1,0,0:0:0:0:
402,192,89732,1,0,0:0:0:0:
329,192,89776,1,0,0:0:0:0:
182,192,89819,1,0,0:0:0:0:
36,192,89863,1,0,0:0:0:0:
256,192,89921,1,0,0:0:0:0:
36,192,89979,1,0,0:0:0:0:
329,192,90037,1,0,0:0:0:0:
36,192,90096,1,0,0:0:0:0:
402,192,90154,1,0,0:0:0:0:
475,192,90212,128,0,90735:0:0:0:0:
36,192,90212,128,0,90299:0:0:0:0:
109,192,90212,128,0,90386:0:0:0:0:
182,192,90212,128,0,90473:0:0:0:0:
256,192,90212,1,0,0:0:0:0:
329,192,90473,128,0,90735:0:0:0:0:
109,192,90561,1,0,0:0:0:0:
182,192,90561,1,0,0:0:0:0:
402,192,90561,1,0,0:0:0:0:
36,192,90735,128,0,90822:0:0:0:0:
109,192,90735,128,0,90822:0:0:0:0:
256,192,90735,1,0,0:0:0:0:
329,192,90822,1,0,0:0:0:0:
36,192,90910,128,0,91433:0:0:0:0:
182,192,90910,1,0,0:0:0:0:
402,192,90910,1,0,0:0:0:0:
475,192,90910,1,0,0:0:0:0:
256,192,90997,1,0,0:0:0:0:
329,192,91084,1,0,0:0:0:0:
475,192,91084,1,0,0:0:0:0:
182,192,91171,128,0,91433:0:0:0:0:
109,192,91171,1,0,0:0:0:0:
329,192,91258,1,0,0:0:0:0:
402,192,91258,1,0,0:0:0:0:
475,192,91258,1,0,0:0:0:0:
256,192,91346,1,0,0:0:0:0:
402,192,91433,128,0,91520:0:0:0:0:
475,192,91433,128,0,91520:0:0:0:0:
109,192,91433,1,0,0:0:0:0:
182,192,91520,1,0,0:0:0:0:
475,192,91607,128,0,92130:0:0:0:0:
329,192,91607,1,0,0:0:0:0:
256,192,91607,1,0,0:0:0:0:
36,192,91607,128,0,91782:0:0:0:0:
256,192,91782,1,0,0:0:0:0:
402,192,91869,128,0,92130:0:0:0:0:
256,192,91869,1,0,0:0:0:0:
109,192,91956,1,0,0:0:0:0:
182,192,91956,1,0,0:0:0:0:
329,192,91956,1,0,0:0:0:0:
182,192,92130,128,0,92218:0:0:0:0:
36,192,92130,128,0,92218:0:0:0:0:
256,192,92130,1,0,0:0:0:0:
329,192,92218,1,0,0:0:0:0:
36,192,92305,128,0,92828:0:0:0:0:
109,192,92305,1,0,0:0:0:0:
402,192,92305,1,0,0:0:0:0:
475,192,92305,1,0,0:0:0:0:
182,192,92392,1,0,0:0:0:0:
256,192,92479,1,0,0:0:0:0:
402,192,92479,1,0,0:0:0:0:
109,192,92566,128,0,92828:0:0:0:0:
182,192,92566,1,0,0:0:0:0:
475,192,92654,1,0,0:0:0:0:
402,192,92654,128,0,92741:0:0:0:0:
329,192,92697,128,0,92785:0:0:0:0:
256,192,92741,1,0,0:0:0:0:
475,192,92828,128,0,92915:0:0:0:0:
182,192,92828,1,0,0:0:0:0:
402,192,92872,128,0,92959:0:0:0:0:
109,192,92915,1,0,0:0:0:0:
329,192,93003,128,0,93526:0:0:0:0:
475,192,93003,1,0,0:0:0:0:
36,192,93003,1,0,0:0:0:0:
109,192,93046,1,0,0:0:0:0:
182,192,93090,1,0,0:0:0:0:
256,192,93133,1,0,0:0:0:0:
36,192,93177,1,0,0:0:0:0:
109,192,93235,1,0,0:0:0:0:
402,192,93264,128,0,93526:0:0:0:0:
182,192,93293,1,0,0:0:0:0:
36,192,93351,1,0,0:0:0:0:
256,192,93351,1,0,0:0:0:0:
475,192,93351,1,0,0:0:0:0:
182,192,93526,128,0,93613:0:0:0:0:
36,192,93526,128,0,93613:0:0:0:0:
475,192,93526,1,0,0:0:0:0:
402,192,93613,1,0,0:0:0:0:
182,192,93700,128,0,94223:0:0:0:0:
109,192,93700,1,0,0:0:0:0:
329,192,93700,1,0,0:0:0:0:
36,192,93700,1,0,0:0:0:0:
402,192,93787,1,0,0:0:0:0:
475,192,93875,1,0,0:0:0:0:
256,192,93875,1,0,0:0:0:0:
109,192,93962,128,0,94223:0:0:0:0:
36,192,93962,1,0,0:0:0:0:
329,192,94049,1,0,0:0:0:0:
475,192,94049,1,0,0:0:0:0:
402,192,94049,1,0,0:0:0:0:
256,192,94136,1,0,0:0:0:0:
329,192,94223,128,0,94311:0:0:0:0:
402,192,94223,128,0,94311:0:0:0:0:
36,192,94223,1,0,0:0:0:0:
109,192,94311,1,0,0:0:0:0:
402,192,94398,128,0,94921:0:0:0:0:
475,192,94398,1,0,0:0:0:0:
182,192,94398,128,0,94572:0:0:0:0:
256,192,94398,1,0,0:0:0:0:
109,192,94572,1,0,0:0:0:0:
475,192,94660,128,0,94921:0:0:0:0:
109,192,94660,1,0,0:0:0:0:
256,192,94747,1,0,0:0:0:0:
329,192,94747,1,0,0:0:0:0:
36,192,94747,1,0,0:0:0:0:
182,192,94921,128,0,95008:0:0:0:0:
109,192,94921,128,0,95008:0:0:0:0:
475,192,95096,128,0,95444:0:0:0:0:
329,192,95096,128,0,95444:0:0:0:0:
36,192,95096,1,0,0:0:0:0:
109,192,95139,1,0,0:0:0:0:
182,192,95183,1,0,0:0:0:0:
256,192,95226,1,0,0:0:0:0:
402,192,95270,1,0,0:0:0:0:
36,192,95270,1,0,0:0:0:0:
36,192,95357,1,0,0:0:0:0:
256,192,95444,128,0,95619:0:0:0:0:
402,192,95444,128,0,95619:0:0:0:0:
109,192,95444,1,0,0:0:0:0:
329,192,95532,1,0,0:0:0:0:
182,192,95532,1,0,0:0:0:0:
36,192,95619,128,0,95793:0:0:0:0:
475,192,95619,1,0,0:0:0:0:
109,192,95677,128,0,95793:0:0:0:0:
182,192,95735,128,0,95793:0:0:0:0:
256,192,95793,128,0,96316:0:0:0:0:
329,192,95793,128,0,96055:0:0:0:0:
402,192,95793,128,0,95968:0:0:0:0:
475,192,95793,128,0,95880:0:0:0:0:
109,192,96055,128,0,96316:0:0:0:0:
329,192,96142,1,0,0:0:0:0:
402,192,96142,1,0,0:0:0:0:
475,192,96142,1,0,0:0:0:0:
475,192,96316,128,0,96404:0:0:0:0:
402,192,96316,128,0,96404:0:0:0:0:
36,192,96316,1,0,0:0:0:0:
109,192,96404,1,0,0:0:0:0:
475,192,96491,128,0,97014:0:0:0:0:
329,192,96491,1,0,0:0:0:0:
182,192,96491,1,0,0:0:0:0:
109,192,96578,1,0,0:0:0:0:
36,192,96665,1,0,0:0:0:0:
256,192,96665,1,0,0:0:0:0:
402,192,96753,128,0,97014:0:0:0:0:
182,192,96753,1,0,0:0:0:0:
109,192,96840,1,0,0:0:0:0:
36,192,96840,1,0,0:0:0:0:
329,192,96840,1,0,0:0:0:0:
256,192,96927,1,0,0:0:0:0:
109,192,97014,128,0,97101:0:0:0:0:
36,192,97014,128,0,97101:0:0:0:0:
182,192,97014,1,0,0:0:0:0:
256,192,97101,1,0,0:0:0:0:
36,192,97189,128,0,97712:0:0:0:0:
402,192,97189,1,0,0:0:0:0:
475,192,97189,128,0,97363:0:0:0:0:
329,192,97189,1,0,0:0:0:0:
329,192,97363,1,0,0:0:0:0:
109,192,97450,128,0,97712:0:0:0:0:
329,192,97450,1,0,0:0:0:0:
256,192,97537,1,0,0:0:0:0:
475,192,97537,1,0,0:0:0:0:
402,192,97537,1,0,0:0:0:0:
475,192,97712,128,0,97799:0:0:0:0:
329,192,97712,128,0,97799:0:0:0:0:
182,192,97712,1,0,0:0:0:0:
109,192,97799,1,0,0:0:0:0:
475,192,97886,128,0,98410:0:0:0:0:
402,192,97886,1,0,0:0:0:0:
36,192,97886,1,0,0:0:0:0:
256,192,97886,1,0,0:0:0:0:
182,192,97973,1,0,0:0:0:0:
109,192,98061,1,0,0:0:0:0:
36,192,98061,1,0,0:0:0:0:
329,192,98148,128,0,98410:0:0:0:0:
256,192,98148,1,0,0:0:0:0:
182,192,98235,1,0,0:0:0:0:
109,192,98235,128,0,98322:0:0:0:0:
36,192,98279,128,0,98366:0:0:0:0:
256,192,98322,1,0,0:0:0:0:
182,192,98410,128,0,98497:0:0:0:0:
402,192,98410,1,0,0:0:0:0:
109,192,98453,128,0,98540:0:0:0:0:
329,192,98497,1,0,0:0:0:0:
36,192,98584,128,0,98933:0:0:0:0:
475,192,98584,128,0,98933:0:0:0:0:
256,192,98584,1,0,0:0:0:0:
182,192,98758,1,0,0:0:0:0:
329,192,98758,1,0,0:0:0:0:
256,192,98846,1,0,0:0:0:0:
182,192,98933,1,0,0:0:0:0:
329,192,98933,1,0,0:0:0:0:
402,192,99020,1,0,0:0:0:0:
109,192,99020,1,0,0:0:0:0:
182,192,99107,128,0,99282:0:0:0:0:
329,192,99107,128,0,99282:0:0:0:0:
475,192,99107,1,0,0:0:0:0:
36,192,99107,1,0,0:0:0:0:
256,192,99282,128,0,99630:0:0:0:0:
475,192,99282,1,0,0:0:0:0:
36,192,99282,1,0,0:0:0:0:
402,192,99456,1,0,0:0:0:0:
109,192,99456,1,0,0:0:0:0:
182,192,99543,1,0,0:0:0:0:
329,192,99543,1,0,0:0:0:0:
109,192,99630,1,0,0:0:0:0:
402,192,99630,1,0,0:0:0:0:
402,192,99805,128,0,99979:0:0:0:0:
109,192,99805,128,0,99979:0:0:0:0:
475,192,99805,1,0,0:0:0:0:
36,192,99805,1,0,0:0:0:0:
182,192,99892,1,0,0:0:0:0:
329,192,99892,1,0,0:0:0:0:
256,192,99979,128,0,100241:0:0:0:0:
475,192,99979,128,0,100415:0:0:0:0:
36,192,99979,128,0,100415:0:0:0:0:
329,192,100241,1,0,0:0:0:0:
182,192,100241,1,0,0:0:0:0:
329,192,100415,128,0,100677:0:0:0:0:
182,192,100415,128,0,100677:0:0:0:0:
109,192,100677,128,0,101026:0:0:0:0:
402,192,100677,128,0,101026:0:0:0:0:
256,192,100851,128,0,100968:0:0:0:0:
475,192,100910,128,0,101287:0:0:0:0:
36,192,100910,128,0,101287:0:0:0:0:
182,192,101200,1,0,0:0:0:0:
329,192,101200,1,0,0:0:0:0:
256,192,101200,128,0,101287:0:0:0:0:
36,192,101375,128,0,101898:0:0:0:0:
475,192,101375,1,0,0:0:0:0:
256,192,101375,1,0,0:0:0:0:
109,192,101375,1,0,0:0:0:0:
329,192,101418,1,0,0:0:0:0:
182,192,101462,1,0,0:0:0:0:
402,192,101505,1,0,0:0:0:0:
256,192,101549,1,0,0:0:0:0:
475,192,101593,1,0,0:0:0:0:
182,192,101636,128,0,101898:0:0:0:0:
329,192,101636,1,0,0:0:0:0:
109,192,101680,1,0,0:0:0:0:
402,192,101723,1,0,0:0:0:0:
475,192,101723,1,0,0:0:0:0:
256,192,101723,1,0,0:0:0:0:
475,192,101898,128,0,101985:0:0:0:0:
402,192,101898,128,0,101985:0:0:0:0:
329,192,101898,1,0,0:0:0:0:
182,192,101985,1,0,0:0:0:0:
475,192,102072,128,0,102596:0:0:0:0:
329,192,102072,1,0,0:0:0:0:
36,192,102072,1,0,0:0:0:0:
109,192,102072,1,0,0:0:0:0:
256,192,102160,1,0,0:0:0:0:
182,192,102247,1,0,0:0:0:0:
36,192,102247,1,0,0:0:0:0:
329,192,102334,128,0,102596:0:0:0:0:
402,192,102334,1,0,0:0:0:0:
182,192,102421,1,0,0:0:0:0:
109,192,102421,1,0,0:0:0:0:
36,192,102421,1,0,0:0:0:0:
256,192,102508,1,0,0:0:0:0:
109,192,102596,128,0,102683:0:0:0:0:
36,192,102596,128,0,102683:0:0:0:0:
402,192,102596,1,0,0:0:0:0:
329,192,102683,1,0,0:0:0:0:
36,192,102770,128,0,103293:0:0:0:0:
182,192,102770,1,0,0:0:0:0:
256,192,102770,1,0,0:0:0:0:
475,192,102770,128,0,102944:0:0:0:0:
256,192,102944,1,0,0:0:0:0:
109,192,103032,128,0,103293:0:0:0:0:
256,192,103032,1,0,0:0:0:0:
402,192,103119,1,0,0:0:0:0:
329,192,103119,1,0,0:0:0:0:
182,192,103119,1,0,0:0:0:0:
329,192,103293,128,0,103380:0:0:0:0:
475,192,103293,128,0,103380:0:0:0:0:
256,192,103293,1,0,0:0:0:0:
182,192,103380,1,0,0:0:0:0:
475,192,103468,128,0,103991:0:0:0:0:
402,192,103468,1,0,0:0:0:0:
109,192,103468,1,0,0:0:0:0:
36,192,103468,1,0,0:0:0:0:
329,192,103555,1,0,0:0:0:0:
256,192,103642,1,0,0:0:0:0:
109,192,103642,1,0,0:0:0:0:
402,192,103729,128,0,103991:0:0:0:0:
329,192,103729,1,0,0:0:0:0:
36,192,103816,1,0,0:0:0:0:
109,192,103816,128,0,103904:0:0:0:0:
182,192,103860,128,0,103947:0:0:0:0:
256,192,103904,1,0,0:0:0:0:
36,192,103991,128,0,104078:0:0:0:0:
329,192,103991,1,0,0:0:0:0:
109,192,104035,128,0,104122:0:0:0:0:
402,192,104078,1,0,0:0:0:0:
182,192,104165,128,0,104689:0:0:0:0:
36,192,104165,1,0,0:0:0:0:
475,192,104165,1,0,0:0:0:0:
402,192,104209,1,0,0:0:0:0:
329,192,104253,1,0,0:0:0:0:
256,192,104296,1,0,0:0:0:0:
475,192,104340,1,0,0:0:0:0:
402,192,104398,1,0,0:0:0:0:
109,192,104427,128,0,104689:0:0:0:0:
329,192,104456,1,0,0:0:0:0:
475,192,104514,1,0,0:0:0:0:
256,192,104514,1,0,0:0:0:0:
36,192,104514,1,0,0:0:0:0:
329,192,104689,128,0,104776:0:0:0:0:
475,192,104689,128,0,104776:0:0:0:0:
36,192,104689,1,0,0:0:0:0:
109,192,104776,1,0,0:0:0:0:
329,192,104863,128,0,105386:0:0:0:0:
402,192,104863,1,0,0:0:0:0:
182,192,104863,1,0,0:0:0:0:
475,192,104863,1,0,0:0:0:0:
109,192,104950,1,0,0:0:0:0:
36,192,105037,1,0,0:0:0:0:
256,192,105037,1,0,0:0:0:0:
402,192,105125,128,0,105386:0:0:0:0:
475,192,105125,1,0,0:0:0:0:
182,192,105212,1,0,0:0:0:0:
36,192,105212,1,0,0:0:0:0:
109,192,105212,1,0,0:0:0:0:
256,192,105299,1,0,0:0:0:0:
182,192,105386,128,0,105473:0:0:0:0:
109,192,105386,128,0,105473:0:0:0:0:
475,192,105386,1,0,0:0:0:0:
329,192,105473,1,0,0:0:0:0:
256,192,105561,1,0,0:0:0:0:
475,192,105561,1,0,0:0:0:0:
109,192,105561,128,0,105910:0:0:0:0:
36,192,105561,1,0,0:0:0:0:
402,192,105561,128,0,105910:0:0:0:0:
329,192,105910,128,0,106258:0:0:0:0:
182,192,105910,128,0,106258:0:0:0:0:
475,192,106084,1,0,0:0:0:0:
36,192,106084,1,0,0:0:0:0:
256,192,106258,1,0,0:0:0:0:
402,192,106258,1,0,0:0:0:0:
109,192,106258,1,0,0:0:0:0:
475,192,106258,128,0,106607:0:0:0:0:
36,192,106258,128,0,106607:0:0:0:0:
329,192,106433,128,0,106607:0:0:0:0:
182,192,106433,128,0,106607:0:0:0:0:
256,192,106607,1,0,0:0:0:0:
402,192,106607,1,0,0:0:0:0:
109,192,106607,1,0,0:0:0:0:
402,192,106723,1,0,0:0:0:0:
109,192,106723,1,0,0:0:0:0:
182,192,106840,1,0,0:0:0:0:
329,192,106840,1,0,0:0:0:0:
475,192,106956,128,0,107479:0:0:0:0:
256,192,106956,1,0,0:0:0:0:
402,192,106956,1,0,0:0:0:0:
36,192,106956,1,0,0:0:0:0:
182,192,107000,1,0,0:0:0:0:
329,192,107043,1,0,0:0:0:0:
109,192,107087,1,0,0:0:0:0:
256,192,107130,1,0,0:0:0:0:
36,192,107174,1,0,0:0:0:0:
329,192,107218,128,0,107479:0:0:0:0:
182,192,107218,1,0,0:0:0:0:
402,192,107261,1,0,0:0:0:0:
36,192,107305,1,0,0:0:0:0:
256,192,107305,1,0,0:0:0:0:
109,192,107305,1,0,0:0:0:0:
36,192,107479,128,0,107566:0:0:0:0:
109,192,107479,128,0,107566:0:0:0:0:
402,192,107479,1,0,0:0:0:0:
329,192,107566,1,0,0:0:0:0:
36,192,107654,128,0,108177:0:0:0:0:
182,192,107654,1,0,0:0:0:0:
256,192,107654,1,0,0:0:0:0:
475,192,107654,1,0,0:0:0:0:
402,192,107741,1,0,0:0:0:0:
329,192,107828,1,0,0:0:0:0:
182,192,107828,1,0,0:0:0:0:
109,192,107915,128,0,108177:0:0:0:0:
256,192,107915,1,0,0:0:0:0:
475,192,108003,1,0,0:0:0:0:
402,192,108003,1,0,0:0:0:0:
182,192,108090,1,0,0:0:0:0:
329,192,108090,1,0,0:0:0:0:
402,192,108177,128,0,108264:0:0:0:0:
475,192,108177,128,0,108264:0:0:0:0:
256,192,108177,1,0,0:0:0:0:
182,192,108264,1,0,0:0:0:0:
329,192,108264,1,0,0:0:0:0:
475,192,108351,128,0,108875:0:0:0:0:
109,192,108351,1,0,0:0:0:0:
36,192,108351,128,0,108526:0:0:0:0:
256,192,108351,1,0,0:0:0:0:
182,192,108526,1,0,0:0:0:0:
402,192,108613,128,0,108875:0:0:0:0:
182,192,108613,1,0,0:0:0:0:
109,192,108700,1,0,0:0:0:0:
36,192,108700,1,0,0:0:0:0:
256,192,108700,1,0,0:0:0:0:
36,192,108875,128,0,108962:0:0:0:0:
182,192,108875,128,0,108962:0:0:0:0:
329,192,108875,1,0,0:0:0:0:
402,192,108962,1,0,0:0:0:0:
36,192,109049,128,0,109572:0:0:0:0:
182,192,109049,1,0,0:0:0:0:
109,192,109049,1,0,0:0:0:0:
256,192,109049,1,0,0:0:0:0:
329,192,109136,1,0,0:0:0:0:
402,192,109223,1,0,0:0:0:0:
475,192,109223,1,0,0:0:0:0:
109,192,109311,128,0,109572:0:0:0:0:
256,192,109311,1,0,0:0:0:0:
402,192,109398,128,0,109485:0:0:0:0:
329,192,109398,1,0,0:0:0:0:
475,192,109441,128,0,109529:0:0:0:0:
182,192,109485,1,0,0:0:0:0:
329,192,109572,128,0,109660:0:0:0:0:
256,192,109572,1,0,0:0:0:0:
402,192,109616,128,0,109703:0:0:0:0:
182,192,109660,1,0,0:0:0:0:
256,192,109747,128,0,109921:0:0:0:0:
475,192,109747,128,0,109921:0:0:0:0:
36,192,109747,1,0,0:0:0:0:
109,192,109747,1,0,0:0:0:0:
402,192,110008,128,0,110096:0:0:0:0:
256,192,110008,128,0,110096:0:0:0:0:
329,192,110270,128,0,110357:0:0:0:0:
182,192,110270,128,0,110357:0:0:0:0:
256,192,110488,128,0,110619:0:0:0:0:
36,192,110488,128,0,110619:0:0:0:0:
256,192,110793,128,0,110880:0:0:0:0:
109,192,110793,128,0,110880:0:0:0:0:
182,192,111055,128,0,111316:0:0:0:0:
329,192,111055,128,0,111316:0:0:0:0:
36,192,111142,128,0,112537:0:0:0:0:
256,192,111607,128,0,111840:0:0:0:0:
402,192,111607,128,0,111840:0:0:0:0:
109,192,111665,128,0,112537:0:0:0:0:
182,192,112189,128,0,112537:0:0:0:0:
475,192,112537,1,0,0:0:0:0:
256,192,112537,1,0,0:0:0:0:
402,192,112537,1,0,0:0:0:0:
329,192,112712,128,0,115328:0:0:0:0:
475,192,112828,128,0,115328:0:0:0:0:
256,192,116723,128,0,118119:0:0:0:0:
109,192,118119,128,0,118468:0:0:0:0:
329,192,118119,1,0,0:0:0:0:
475,192,118119,1,0,0:0:0:0:
402,192,118468,128,0,118816:0:0:0:0:
36,192,118816,128,0,119165:0:0:0:0:
329,192,119165,128,0,119514:0:0:0:0:
182,192,119514,128,0,119863:0:0:0:0:
475,192,119863,128,0,120212:0:0:0:0:
109,192,120212,128,0,120561:0:0:0:0:
402,192,120561,128,0,120910:0:0:0:0:
256,192,120910,128,0,121258:0:0:0:0:
475,192,121258,128,0,121607:0:0:0:0:
36,192,121607,128,0,121956:0:0:0:0:
256,192,121956,128,0,122305:0:0:0:0:
109,192,122305,128,0,122654:0:0:0:0:
402,192,122654,128,0,123003:0:0:0:0:
182,192,123003,128,0,123351:0:0:0:0:
329,192,123351,128,0,123700:0:0:0:0:
256,192,123700,128,0,124049:0:0:0:0:
475,192,123700,1,0,0:0:0:0:
402,192,123787,1,0,0:0:0:0:
329,192,123875,1,0,0:0:0:0:
475,192,123962,1,0,0:0:0:0:
402,192,124049,128,0,124398:0:0:0:0:
182,192,124049,1,0,0:0:0:0:
109,192,124136,1,0,0:0:0:0:
36,192,124223,1,0,0:0:0:0:
182,192,124311,1,0,0:0:0:0:
109,192,124398,128,0,124747:0:0:0:0:
329,192,124398,1,0,0:0:0:0:
402,192,124485,1,0,0:0:0:0:
475,192,124572,1,0,0:0:0:0:
329,192,124660,1,0,0:0:0:0:
256,192,124747,128,0,125096:0:0:0:0:
36,192,124747,1,0,0:0:0:0:
109,192,124834,1,0,0:0:0:0:
182,192,124921,1,0,0:0:0:0:
109,192,125008,1,0,0:0:0:0:
36,192,125096,128,0,125444:0:0:0:0:
475,192,125096,1,0,0:0:0:0:
402,192,125183,1,0,0:0:0:0:
329,192,125270,1,0,0:0:0:0:
402,192,125357,1,0,0:0:0:0:
475,192,125444,128,0,125793:0:0:0:0:
182,192,125444,1,0,0:0:0:0:
109,192,125532,1,0,0:0:0:0:
36,192,125619,1,0,0:0:0:0:
109,192,125706,1,0,0:0:0:0:
182,192,125793,128,0,126142:0:0:0:0:
329,192,125793,1,0,0:0:0:0:
402,192,125880,1,0,0:0:0:0:
475,192,125968,1,0,0:0:0:0:
402,192,126055,1,0,0:0:0:0:
329,192,126142,128,0,126491:0:0:0:0:
109,192,126142,1,0,0:0:0:0:
182,192,126229,1,0,0:0:0:0:
256,192,126316,1,0,0:0:0:0:
182,192,126404,1,0,0:0:0:0:
109,192,126491,128,0,126840:0:0:0:0:
402,192,126491,1,0,0:0:0:0:
329,192,126578,1,0,0:0:0:0:
256,192,126665,1,0,0:0:0:0:
329,192,126753,1,0,0:0:0:0:
402,192,126840,128,0,127189:0:0:0:0:
182,192,126840,1,0,0:0:0:0:
109,192,126927,1,0,0:0:0:0:
36,192,127014,1,0,0:0:0:0:
109,192,127101,1,0,0:0:0:0:
182,192,127189,128,0,127537:0:0:0:0:
329,192,127189,1,0,0:0:0:0:
402,192,127276,1,0,0:0:0:0:
475,192,127363,1,0,0:0:0:0:
402,192,127450,1,0,0:0:0:0:
329,192,127537,128,0,127886:0:0:0:0:
109,192,127537,1,0,0:0:0:0:
182,192,127625,1,0,0:0:0:0:
36,192,127712,1,0,0:0:0:0:
109,192,127799,1,0,0:0:0:0:
256,192,127886,128,0,129282:0:0:0:0:
109,192,128235,1,0,0:0:0:0:
402,192,128322,1,0,0:0:0:0:
182,192,128410,1,0,0:0:0:0:
329,192,128497,1,0,0:0:0:0:
109,192,128584,1,0,0:0:0:0:
402,192,128671,1,0,0:0:0:0:
182,192,128758,1,0,0:0:0:0:
329,192,128846,1,0,0:0:0:0:
109,192,128933,1,0,0:0:0:0:
402,192,129020,1,0,0:0:0:0:
182,192,129107,1,0,0:0:0:0:
329,192,129194,1,0,0:0:0:0:
402,192,129282,128,0,129630:0:0:0:0:
109,192,129282,128,0,129630:0:0:0:0:
36,192,129282,1,0,0:0:0:0:
182,192,129369,1,0,0:0:0:0:
329,192,129456,1,0,0:0:0:0:
475,192,129543,1,0,0:0:0:0:
329,192,129630,128,0,129979:0:0:0:0:
36,192,129630,128,0,129979:0:0:0:0:
256,192,129630,1,0,0:0:0:0:
182,192,129718,1,0,0:0:0:0:
109,192,129805,1,0,0:0:0:0:
182,192,129892,1,0,0:0:0:0:
256,192,129979,128,0,130328:0:0:0:0:
402,192,129979,1,0,0:0:0:0:
475,192,130066,1,0,0:0:0:0:
402,192,130154,1,0,0:0:0:0:
329,192,130241,1,0,0:0:0:0:
109,192,130328,128,0,130677:0:0:0:0:
402,192,130328,128,0,130677:0:0:0:0:
182,192,130328,1,0,0:0:0:0:
36,192,130415,1,0,0:0:0:0:
182,192,130503,1,0,0:0:0:0:
329,192,130590,1,0,0:0:0:0:
256,192,130677,128,0,131026:0:0:0:0:
475,192,130677,1,0,0:0:0:0:
402,192,130764,1,0,0:0:0:0:
329,192,130851,1,0,0:0:0:0:
402,192,130939,1,0,0:0:0:0:
182,192,131026,128,0,131375:0:0:0:0:
475,192,131026,128,0,131375:0:0:0:0:
109,192,131026,1,0,0:0:0:0:
329,192,131113,1,0,0:0:0:0:
402,192,131200,1,0,0:0:0:0:
329,192,131287,1,0,0:0:0:0:
256,192,131375,128,0,131723:0:0:0:0:
36,192,131375,1,0,0:0:0:0:
109,192,131462,1,0,0:0:0:0:
182,192,131549,1,0,0:0:0:0:
109,192,131636,1,0,0:0:0:0:
329,192,131723,128,0,132072:0:0:0:0:
36,192,131723,128,0,132072:0:0:0:0:
402,192,131723,1,0,0:0:0:0:
182,192,131811,1,0,0:0:0:0:
109,192,131898,1,0,0:0:0:0:
182,192,131985,1,0,0:0:0:0:
256,192,132072,128,0,132421:0:0:0:0:
402,192,132072,1,0,0:0:0:0:
475,192,132160,1,0,0:0:0:0:
402,192,132247,1,0,0:0:0:0:
329,192,132334,1,0,0:0:0:0:
182,192,132421,128,0,132770:0:0:0:0:
402,192,132421,128,0,132770:0:0:0:0:
36,192,132421,1,0,0:0:0:0:
109,192,132508,1,0,0:0:0:0:
256,192,132596,1,0,0:0:0:0:
329,192,132683,1,0,0:0:0:0:
256,192,132770,128,0,133119:0:0:0:0:
109,192,132770,1,0,0:0:0:0:
36,192,132857,1,0,0:0:0:0:
109,192,132944,1,0,0:0:0:0:
182,192,133032,1,0,0:0:0:0:
109,192,133119,128,0,133468:0:0:0:0:
475,192,133119,1,0,0:0:0:0:
329,192,133119,128,0,133468:0:0:0:0:
402,192,133206,1,0,0:0:0:0:
256,192,133293,1,0,0:0:0:0:
182,192,133380,1,0,0:0:0:0:
256,192,133468,128,0,133816:0:0:0:0:
402,192,133468,1,0,0:0:0:0:
475,192,133555,1,0,0:0:0:0:
329,192,133642,1,0,0:0:0:0:
475,192,133729,1,0,0:0:0:0:
36,192,133816,128,0,134165:0:0:0:0:
402,192,133816,128,0,134165:0:0:0:0:
109,192,133816,1,0,0:0:0:0:
182,192,133904,1,0,0:0:0:0:
256,192,133991,1,0,0:0:0:0:
329,192,134078,1,0,0:0:0:0:
256,192,134165,128,0,134514:0:0:0:0:
109,192,134165,1,0,0:0:0:0:
36,192,134253,1,0,0:0:0:0:
182,192,134340,1,0,0:0:0:0:
36,192,134427,1,0,0:0:0:0:
402,192,134514,1,0,0:0:0:0:
475,192,134514,128,0,134689:0:0:0:0:
109,192,134514,128,0,134689:0:0:0:0:
329,192,134601,1,0,0:0:0:0:
256,192,134689,128,0,134863:0:0:0:0:
182,192,134689,1,0,0:0:0:0:
36,192,134776,1,0,0:0:0:0:
109,192,134863,1,0,0:0:0:0:
182,192,134863,128,0,135212:0:0:0:0:
329,192,134863,128,0,135212:0:0:0:0:
475,192,134863,1,0,0:0:0:0:
256,192,134950,1,0,0:0:0:0:
402,192,135037,1,0,0:0:0:0:
256,192,135125,1,0,0:0:0:0:
36,192,135212,128,0,135561:0:0:0:0:
475,192,135212,128,0,135561:0:0:0:0:
109,192,135212,1,0,0:0:0:0:
182,192,135299,1,0,0:0:0:0:
329,192,135386,1,0,0:0:0:0:
402,192,135473,1,0,0:0:0:0:
256,192,135561,128,0,135910:0:0:0:0:
182,192,135561,1,0,0:0:0:0:
109,192,135648,1,0,0:0:0:0:
36,192,135735,1,0,0:0:0:0:
109,192,135822,1,0,0:0:0:0:
329,192,135910,128,0,136258:0:0:0:0:
182,192,135910,128,0,136258:0:0:0:0:
475,192,135910,1,0,0:0:0:0:
402,192,135997,1,0,0:0:0:0:
109,192,136084,1,0,0:0:0:0:
36,192,136171,1,0,0:0:0:0:
256,192,136258,128,0,136607:0:0:0:0:
475,192,136258,1,0,0:0:0:0:
402,192,136346,1,0,0:0:0:0:
329,192,136433,1,0,0:0:0:0:
475,192,136520,1,0,0:0:0:0:
402,192,136607,128,0,136956:0:0:0:0:
109,192,136607,128,0,136956:0:0:0:0:
36,192,136607,1,0,0:0:0:0:
182,192,136694,1,0,0:0:0:0:
329,192,136782,1,0,0:0:0:0:
475,192,136869,1,0,0:0:0:0:
256,192,136956,128,0,137305:0:0:0:0:
36,192,136956,1,0,0:0:0:0:
109,192,137043,1,0,0:0:0:0:
182,192,137130,1,0,0:0:0:0:
36,192,137218,1,0,0:0:0:0:
329,192,137305,128,0,137654:0:0:0:0:
182,192,137305,128,0,137654:0:0:0:0:
475,192,137305,1,0,0:0:0:0:
402,192,137392,1,0,0:0:0:0:
109,192,137479,1,0,0:0:0:0:
36,192,137566,1,0,0:0:0:0:
256,192,137654,128,0,140444:0:0:0:0:
475,192,140444,1,0,0:0:0:0:
36,192,140444,1,0,0:0:0:0:
329,192,140444,1,0,0:0:0:0:
182,192,140444,1,0,0:0:0:0:
109,192,141665,1,0,0:0:0:0:
109,192,142014,1,0,0:0:0:0:
256,192,142363,1,0,0:0:0:0:
402,192,142537,1,0,0:0:0:0:
402,192,142712,1,0,0:0:0:0:
402,192,142886,1,0,0:0:0:0:
402,192,143061,1,0,0:0:0:0:
329,192,143235,1,0,0:0:0:0:
109,192,143322,1,0,0:0:0:0:
109,192,143584,1,0,0:0:0:0:
109,192,143758,1,0,0:0:0:0:
256,192,143933,1,0,0:0:0:0:
402,192,144020,1,0,0:0:0:0:
109,192,144282,1,0,0:0:0:0:
109,192,144456,1,0,0:0:0:0:
182,192,144543,1,0,0:0:0:0:
182,192,144805,1,0,0:0:0:0:
256,192,144892,1,0,0:0:0:0:
256,192,145154,1,0,0:0:0:0:
402,192,145328,1,0,0:0:0:0:
402,192,145503,1,0,0:0:0:0:
402,192,145677,1,0,0:0:0:0:
402,192,145851,1,0,0:0:0:0:
329,192,146026,1,0,0:0:0:0:
109,192,146113,1,0,0:0:0:0:
109,192,146375,1,0,0:0:0:0:
109,192,146549,1,0,0:0:0:0:
256,192,146723,1,0,0:0:0:0:
402,192,146811,1,0,0:0:0:0:
109,192,147072,1,0,0:0:0:0:
109,192,147247,1,0,0:0:0:0:
182,192,147334,1,0,0:0:0:0:
182,192,147596,1,0,0:0:0:0:
256,192,147683,1,0,0:0:0:0:
256,192,147944,1,0,0:0:0:0:
402,192,148119,1,0,0:0:0:0:
402,192,148293,1,0,0:0:0:0:
402,192,148468,1,0,0:0:0:0:
402,192,148642,1,0,0:0:0:0:
329,192,148816,1,0,0:0:0:0:
109,192,148904,1,0,0:0:0:0:
109,192,149165,1,0,0:0:0:0:
109,192,149340,1,0,0:0:0:0:
256,192,149514,1,0,0:0:0:0:
402,192,149601,1,0,0:0:0:0:
109,192,149863,1,0,0:0:0:0:
109,192,150037,1,0,0:0:0:0:
182,192,150125,1,0,0:0:0:0:
256,192,150735,1,0,0:0:0:0:
402,192,150910,1,0,0:0:0:0:
402,192,151084,1,0,0:0:0:0:
329,192,151171,1,0,0:0:0:0:
402,192,151258,1,0,0:0:0:0:
256,192,151346,1,0,0:0:0:0:
402,192,151433,1,0,0:0:0:0:
182,192,151520,1,0,0:0:0:0:
402,192,151607,1,0,0:0:0:0:
36,192,151694,1,0,0:0:0:0:
36,192,151956,1,0,0:0:0:0:
36,192,152130,1,0,0:0:0:0:
256,192,152305,1,0,0:0:0:0:
475,192,152392,1,0,0:0:0:0:
36,192,152654,1,0,0:0:0:0:
36,192,152828,1,0,0:0:0:0:
182,192,152915,1,0,0:0:0:0:
182,192,153177,1,0,0:0:0:0:
329,192,153264,1,0,0:0:0:0:
329,192,153526,1,0,0:0:0:0:
475,192,153700,1,0,0:0:0:0:
475,192,153875,1,0,0:0:0:0:
475,192,154049,1,0,0:0:0:0:
475,192,154223,1,0,0:0:0:0:
256,192,154398,1,0,0:0:0:0:
36,192,154485,1,0,0:0:0:0:
36,192,154747,1,0,0:0:0:0:
36,192,154921,1,0,0:0:0:0:
256,192,155096,1,0,0:0:0:0:
475,192,155183,1,0,0:0:0:0:
36,192,155444,1,0,0:0:0:0:
36,192,155619,1,0,0:0:0:0:
182,192,155706,1,0,0:0:0:0:
182,192,155968,1,0,0:0:0:0:
329,192,156316,1,0,0:0:0:0:
475,192,156491,1,0,0:0:0:0:
475,192,156665,1,0,0:0:0:0:
475,192,156840,1,0,0:0:0:0:
475,192,157014,1,0,0:0:0:0:
256,192,157189,1,0,0:0:0:0:
402,192,157189,1,0,0:0:0:0:
36,192,157276,1,0,0:0:0:0:
182,192,157276,1,0,0:0:0:0:
402,192,157363,1,0,0:0:0:0:
256,192,157450,1,0,0:0:0:0:
36,192,157537,1,0,0:0:0:0:
109,192,157537,1,0,0:0:0:0:
475,192,157625,1,0,0:0:0:0:
36,192,157712,1,0,0:0:0:0:
109,192,157712,1,0,0:0:0:0:
182,192,157799,1,0,0:0:0:0:
256,192,157886,1,0,0:0:0:0:
329,192,157886,1,0,0:0:0:0:
475,192,157973,1,0,0:0:0:0:
402,192,157973,1,0,0:0:0:0:
182,192,158061,1,0,0:0:0:0:
329,192,158148,1,0,0:0:0:0:
36,192,158235,1,0,0:0:0:0:
109,192,158235,1,0,0:0:0:0:
256,192,158322,1,0,0:0:0:0:
36,192,158410,1,0,0:0:0:0:
109,192,158410,1,0,0:0:0:0:
182,192,158497,1,0,0:0:0:0:
329,192,158497,1,0,0:0:0:0:
402,192,158584,1,0,0:0:0:0:
475,192,158671,1,0,0:0:0:0:
182,192,158758,1,0,0:0:0:0:
329,192,158758,1,0,0:0:0:0:
256,192,158846,1,0,0:0:0:0:
36,192,158933,1,0,0:0:0:0:
109,192,159020,1,0,0:0:0:0:
402,192,159107,1,0,0:0:0:0:
256,192,159107,1,0,0:0:0:0:
182,192,159194,1,0,0:0:0:0:
475,192,159282,1,0,0:0:0:0:
329,192,159282,1,0,0:0:0:0:
109,192,159369,1,0,0:0:0:0:
475,192,159456,1,0,0:0:0:0:
256,192,159456,1,0,0:0:0:0:
36,192,159543,1,0,0:0:0:0:
475,192,159630,1,0,0:0:0:0:
182,192,159630,1,0,0:0:0:0:
402,192,159718,1,0,0:0:0:0:
475,192,159805,1,0,0:0:0:0:
109,192,159805,1,0,0:0:0:0:
329,192,159892,1,0,0:0:0:0:
256,192,159979,1,0,0:0:0:0:
402,192,159979,1,0,0:0:0:0:
36,192,160066,1,0,0:0:0:0:
182,192,160066,1,0,0:0:0:0:
402,192,160154,1,0,0:0:0:0:
256,192,160241,1,0,0:0:0:0:
36,192,160328,1,0,0:0:0:0:
109,192,160328,1,0,0:0:0:0:
475,192,160415,1,0,0:0:0:0:
36,192,160503,1,0,0:0:0:0:
109,192,160503,1,0,0:0:0:0:
182,192,160590,1,0,0:0:0:0:
329,192,160677,1,0,0:0:0:0:
256,192,160677,1,0,0:0:0:0:
475,192,160764,1,0,0:0:0:0:
402,192,160764,1,0,0:0:0:0:
182,192,160851,1,0,0:0:0:0:
329,192,160939,1,0,0:0:0:0:
36,192,161026,1,0,0:0:0:0:
109,192,161026,1,0,0:0:0:0:
256,192,161113,1,0,0:0:0:0:
36,192,161200,1,0,0:0:0:0:
109,192,161200,1,0,0:0:0:0:
329,192,161287,1,0,0:0:0:0:
475,192,161287,1,0,0:0:0:0:
256,192,161375,128,0,161723:0:0:0:0:
182,192,161375,1,0,0:0:0:0:
109,192,161462,1,0,0:0:0:0:
402,192,161549,1,0,0:0:0:0:
475,192,161636,1,0,0:0:0:0:
329,192,161723,128,0,161898:0:0:0:0:
109,192,161723,1,0,0:0:0:0:
36,192,161811,1,0,0:0:0:0:
182,192,161898,128,0,162072:0:0:0:0:
402,192,161898,1,0,0:0:0:0:
329,192,161985,1,0,0:0:0:0:
256,192,162072,128,0,162247:0:0:0:0:
475,192,162072,1,0,0:0:0:0:
402,192,162160,1,0,0:0:0:0:
329,192,162247,128,0,162421:0:0:0:0:
36,192,162247,1,0,0:0:0:0:
109,192,162334,1,0,0:0:0:0:
182,192,162421,128,0,162596:0:0:0:0:
402,192,162421,1,0,0:0:0:0:
475,192,162508,1,0,0:0:0:0:
329,192,162596,128,0,162770:0:0:0:0:
109,192,162596,1,0,0:0:0:0:
182,192,162683,1,0,0:0:0:0:
475,192,162770,1,0,0:0:0:0:
402,192,162770,1,0,0:0:0:0:
256,192,162770,1,0,0:0:0:0:
36,192,162770,1,0,0:0:0:0:
256,192,162944,128,0,163119:0:0:0:0:
475,192,162944,128,0,163468:0:0:0:0:
182,192,163119,128,0,163293:0:0:0:0:
402,192,163119,128,0,163468:0:0:0:0:
329,192,163293,128,0,163468:0:0:0:0:
109,192,163293,128,0,163468:0:0:0:0:
256,192,163468,1,0,0:0:0:0:
36,192,163468,1,0,0:0:0:0:
256,192,163642,128,0,163816:0:0:0:0:
36,192,163642,128,0,164165:0:0:0:0:
329,192,163816,128,0,163991:0:0:0:0:
109,192,163816,128,0,164165:0:0:0:0:
182,192,163991,128,0,164165:0:0:0:0:
402,192,163991,128,0,164165:0:0:0:0:
475,192,164165,1,0,0:0:0:0:
256,192,164165,1,0,0:0:0:0:
256,192,164340,128,0,164514:0:0:0:0:
475,192,164340,128,0,164863:0:0:0:0:
329,192,164514,128,0,164689:0:0:0:0:
109,192,164514,128,0,164863:0:0:0:0:
402,192,164689,128,0,164863:0:0:0:0:
182,192,164689,128,0,164863:0:0:0:0:
36,192,164863,1,0,0:0:0:0:
256,192,164863,1,0,0:0:0:0:
36,192,165037,128,0,165561:0:0:0:0:
256,192,165037,128,0,165212:0:0:0:0:
182,192,165212,128,0,165386:0:0:0:0:
402,192,165212,128,0,165561:0:0:0:0:
109,192,165386,128,0,165561:0:0:0:0:
329,192,165386,128,0,165561:0:0:0:0:
256,192,165561,1,0,0:0:0:0:
475,192,165561,1,0,0:0:0:0:
256,192,165735,128,0,166084:0:0:0:0:
475,192,165735,128,0,165910:0:0:0:0:
182,192,165910,128,0,166258:0:0:0:0:
402,192,165910,128,0,166084:0:0:0:0:
109,192,166084,128,0,166258:0:0:0:0:
329,192,166084,128,0,166258:0:0:0:0:
256,192,166258,1,0,0:0:0:0:
36,192,166258,1,0,0:0:0:0:
36,192,166433,128,0,166607:0:0:0:0:
256,192,166433,128,0,166782:0:0:0:0:
109,192,166607,128,0,166782:0:0:0:0:
329,192,166607,128,0,166956:0:0:0:0:
402,192,166782,128,0,166956:0:0:0:0:
182,192,166782,128,0,166956:0:0:0:0:
256,192,166956,128,0,167305:0:0:0:0:
36,192,166956,128,0,167479:0:0:0:0:
475,192,166956,128,0,167479:0:0:0:0:
109,192,167305,128,0,167654:0:0:0:0:
402,192,167305,128,0,167654:0:0:0:0:
182,192,167479,128,0,167654:0:0:0:0:
329,192,167479,128,0,167654:0:0:0:0:
475,192,167654,1,0,0:0:0:0:
36,192,167654,1,0,0:0:0:0:
475,192,167828,128,0,168177:0:0:0:0:
36,192,167828,128,0,168177:0:0:0:0:
256,192,168003,128,0,168351:0:0:0:0:
109,192,168177,128,0,168351:0:0:0:0:
402,192,168177,128,0,168351:0:0:0:0:
182,192,168351,1,0,0:0:0:0:
475,192,168351,1,0,0:0:0:0:
402,192,168439,1,0,0:0:0:0:
109,192,168439,1,0,0:0:0:0:
36,192,168526,128,0,168875:0:0:0:0:
329,192,168526,128,0,168700:0:0:0:0:
475,192,168700,128,0,169049:0:0:0:0:
256,192,168700,128,0,168875:0:0:0:0:
182,192,168875,128,0,169049:0:0:0:0:
402,192,168875,128,0,169049:0:0:0:0:
36,192,169049,1,0,0:0:0:0:
329,192,169049,1,0,0:0:0:0:
109,192,169136,1,0,0:0:0:0:
402,192,169136,1,0,0:0:0:0:
182,192,169223,128,0,169398:0:0:0:0:
475,192,169223,128,0,169572:0:0:0:0:
256,192,169398,128,0,169572:0:0:0:0:
36,192,169398,128,0,169747:0:0:0:0:
109,192,169572,128,0,169747:0:0:0:0:
329,192,169572,128,0,169747:0:0:0:0:
182,192,169747,1,0,0:0:0:0:
475,192,169747,1,0,0:0:0:0:
402,192,169834,1,0,0:0:0:0:
256,192,169834,1,0,0:0:0:0:
329,192,169921,128,0,170270:0:0:0:0:
36,192,169921,128,0,170270:0:0:0:0:
109,192,170096,128,0,170444:0:0:0:0:
402,192,170096,128,0,170444:0:0:0:0:
182,192,170270,128,0,170444:0:0:0:0:
475,192,170270,128,0,170444:0:0:0:0:
329,192,170444,1,0,0:0:0:0:
36,192,170444,1,0,0:0:0:0:
475,192,170619,128,0,170968:0:0:0:0:
182,192,170619,128,0,170968:0:0:0:0:
402,192,170793,128,0,171142:0:0:0:0:
109,192,170793,128,0,171142:0:0:0:0:
329,192,170968,128,0,171142:0:0:0:0:
36,192,170968,128,0,171142:0:0:0:0:
256,192,171142,1,0,0:0:0:0:
475,192,171142,1,0,0:0:0:0:
475,192,171316,128,0,171665:0:0:0:0:
256,192,171316,128,0,171491:0:0:0:0:
329,192,171491,128,0,171665:0:0:0:0:
109,192,171491,128,0,171665:0:0:0:0:
402,192,171665,128,0,171840:0:0:0:0:
182,192,171665,128,0,171840:0:0:0:0:
256,192,171840,1,0,0:0:0:0:
36,192,171840,128,0,172189:0:0:0:0:
475,192,171840,128,0,172189:0:0:0:0:
256,192,172014,128,0,172189:0:0:0:0:
329,192,172189,1,0,0:0:0:0:
182,192,172189,1,0,0:0:0:0:
329,192,172363,128,0,172537:0:0:0:0:
182,192,172363,128,0,172537:0:0:0:0:
109,192,172537,128,0,173846:0:0:0:0:
402,192,172537,128,0,173846:0:0:0:0:
36,192,173235,1,0,0:0:0:0:
256,192,173235,1,0,0:0:0:0:
329,192,173322,1,0,0:0:0:0:
475,192,173410,1,0,0:0:0:0:
36,192,173410,1,0,0:0:0:0:
182,192,173497,1,0,0:0:0:0:
256,192,173584,1,0,0:0:0:0:
475,192,173584,1,0,0:0:0:0:
182,192,173671,1,0,0:0:0:0:
36,192,173758,1,0,0:0:0:0:
329,192,173758,1,0,0:0:0:0:
256,192,173846,1,0,0:0:0:0:
36,192,173933,128,0,174194:0:0:0:0:
182,192,173933,1,0,0:0:0:0:
109,192,173933,1,0,0:0:0:0:
402,192,173933,1,0,0:0:0:0:
475,192,173933,1,0,0:0:0:0:
329,192,174107,1,0,0:0:0:0:
182,192,174107,1,0,0:0:0:0:
402,192,174194,1,0,0:0:0:0:
475,192,174194,1,0,0:0:0:0:
36,192,174282,128,0,174543:0:0:0:0:
256,192,174282,128,0,174369:0:0:0:0:
329,192,174325,128,0,174412:0:0:0:0:
402,192,174369,128,0,174456:0:0:0:0:
475,192,174412,128,0,174500:0:0:0:0:
109,192,174456,1,0,0:0:0:0:
182,192,174456,1,0,0:0:0:0:
256,192,174543,1,0,0:0:0:0:
36,192,174630,128,0,174892:0:0:0:0:
329,192,174630,1,0,0:0:0:0:
475,192,174630,1,0,0:0:0:0:
402,192,174630,1,0,0:0:0:0:
256,192,174805,1,0,0:0:0:0:
109,192,174805,1,0,0:0:0:0:
329,192,174892,1,0,0:0:0:0:
402,192,174892,1,0,0:0:0:0:
36,192,174979,128,0,175241:0:0:0:0:
182,192,174979,128,0,175066:0:0:0:0:
256,192,175023,128,0,175110:0:0:0:0:
329,192,175066,128,0,175154:0:0:0:0:
402,192,175110,128,0,175197:0:0:0:0:
475,192,175154,1,0,0:0:0:0:
109,192,175154,1,0,0:0:0:0:
182,192,175241,1,0,0:0:0:0:
475,192,175328,128,0,175590:0:0:0:0:
402,192,175328,1,0,0:0:0:0:
36,192,175328,1,0,0:0:0:0:
329,192,175328,1,0,0:0:0:0:
182,192,175503,1,0,0:0:0:0:
329,192,175503,1,0,0:0:0:0:
109,192,175590,1,0,0:0:0:0:
36,192,175590,1,0,0:0:0:0:
475,192,175677,128,0,175939:0:0:0:0:
256,192,175677,128,0,175764:0:0:0:0:
182,192,175721,128,0,175808:0:0:0:0:
109,192,175764,128,0,175851:0:0:0:0:
36,192,175808,128,0,175895:0:0:0:0:
402,192,175851,1,0,0:0:0:0:
329,192,175851,1,0,0:0:0:0:
256,192,175939,1,0,0:0:0:0:
109,192,176026,1,0,0:0:0:0:
475,192,176026,128,0,176287:0:0:0:0:
36,192,176026,1,0,0:0:0:0:
182,192,176026,1,0,0:0:0:0:
256,192,176200,1,0,0:0:0:0:
402,192,176200,1,0,0:0:0:0:
182,192,176287,1,0,0:0:0:0:
109,192,176287,1,0,0:0:0:0:
475,192,176375,128,0,176636:0:0:0:0:
329,192,176375,128,0,176462:0:0:0:0:
256,192,176418,128,0,176505:0:0:0:0:
182,192,176462,128,0,176549:0:0:0:0:
109,192,176505,128,0,176593:0:0:0:0:
36,192,176549,1,0,0:0:0:0:
402,192,176549,1,0,0:0:0:0:
329,192,176636,1,0,0:0:0:0:
36,192,176723,128,0,176985:0:0:0:0:
256,192,176723,1,0,0:0:0:0:
109,192,176723,1,0,0:0:0:0:
475,192,176723,1,0,0:0:0:0:
256,192,176898,1,0,0:0:0:0:
182,192,176898,1,0,0:0:0:0:
475,192,176985,1,0,0:0:0:0:
329,192,176985,1,0,0:0:0:0:
36,192,177072,128,0,177334:0:0:0:0:
109,192,177072,128,0,177160:0:0:0:0:
182,192,177116,128,0,177203:0:0:0:0:
256,192,177160,128,0,177247:0:0:0:0:
329,192,177203,128,0,177290:0:0:0:0:
402,192,177247,1,0,0:0:0:0:
475,192,177247,1,0,0:0:0:0:
182,192,177334,1,0,0:0:0:0:
475,192,177421,128,0,177683:0:0:0:0:
256,192,177421,1,0,0:0:0:0:
36,192,177421,1,0,0:0:0:0:
402,192,177421,1,0,0:0:0:0:
256,192,177596,1,0,0:0:0:0:
329,192,177596,1,0,0:0:0:0:
36,192,177683,1,0,0:0:0:0:
182,192,177683,1,0,0:0:0:0:
475,192,177770,128,0,178032:0:0:0:0:
402,192,177770,128,0,177857:0:0:0:0:
329,192,177814,128,0,177901:0:0:0:0:
256,192,177857,128,0,177944:0:0:0:0:
182,192,177901,128,0,177988:0:0:0:0:
109,192,177944,1,0,0:0:0:0:
36,192,177944,1,0,0:0:0:0:
329,192,178032,1,0,0:0:0:0:
109,192,178119,1,0,0:0:0:0:
36,192,178119,1,0,0:0:0:0:
402,192,178119,1,0,0:0:0:0:
475,192,178119,1,0,0:0:0:0:
256,192,178119,1,0,0:0:0:0:
182,192,179514,5,0,0:0:0:0:
109,192,179514,1,0,0:0:0:0:
36,192,179514,1,0,0:0:0:0:
402,192,179514,1,0,0:0:0:0:
475,192,179514,1,0,0:0:0:0:
475,192,179689,128,0,179950:0:0:0:0:
329,192,179689,1,0,0:0:0:0:
402,192,179776,128,0,179950:0:0:0:0:
256,192,179776,1,0,0:0:0:0:
329,192,179863,128,0,179950:0:0:0:0:
109,192,179863,1,0,0:0:0:0:
36,192,179863,1,0,0:0:0:0:
182,192,179863,1,0,0:0:0:0:
109,192,180037,128,0,180299:0:0:0:0:
256,192,180037,1,0,0:0:0:0:
182,192,180125,128,0,180299:0:0:0:0:
329,192,180125,1,0,0:0:0:0:
256,192,180212,128,0,180299:0:0:0:0:
402,192,180212,1,0,0:0:0:0:
475,192,180212,1,0,0:0:0:0:
36,192,180212,1,0,0:0:0:0:
402,192,180386,128,0,180648:0:0:0:0:
182,192,180386,1,0,0:0:0:0:
329,192,180473,128,0,180648:0:0:0:0:
109,192,180473,1,0,0:0:0:0:
256,192,180561,128,0,180648:0:0:0:0:
36,192,180561,1,0,0:0:0:0:
475,192,180561,1,0,0:0:0:0:
182,192,180561,1,0,0:0:0:0:
182,192,180735,128,0,180997:0:0:0:0:
402,192,180735,1,0,0:0:0:0:
109,192,180822,128,0,180997:0:0:0:0:
329,192,180822,1,0,0:0:0:0:
36,192,180910,128,0,180997:0:0:0:0:
256,192,180910,1,0,0:0:0:0:
475,192,180910,1,0,0:0:0:0:
402,192,180910,1,0,0:0:0:0:
329,192,181084,128,0,181346:0:0:0:0:
109,192,181084,1,0,0:0:0:0:
402,192,181171,128,0,181346:0:0:0:0:
182,192,181171,1,0,0:0:0:0:
475,192,181258,128,0,181346:0:0:0:0:
36,192,181258,1,0,0:0:0:0:
256,192,181258,1,0,0:0:0:0:
109,192,181258,1,0,0:0:0:0:
36,192,181433,128,0,181694:0:0:0:0:
182,192,181433,1,0,0:0:0:0:
109,192,181520,128,0,181694:0:0:0:0:
256,192,181520,1,0,0:0:0:0:
182,192,181607,128,0,181694:0:0:0:0:
329,192,181607,1,0,0:0:0:0:
402,192,181607,1,0,0:0:0:0:
475,192,181607,1,0,0:0:0:0:
475,192,181782,1,0,0:0:0:0:
256,192,181782,1,0,0:0:0:0:
402,192,181869,1,0,0:0:0:0:
182,192,181869,1,0,0:0:0:0:
329,192,181956,1,0,0:0:0:0:
109,192,181956,1,0,0:0:0:0:
36,192,181956,1,0,0:0:0:0:
36,192,182072,1,0,0:0:0:0:
109,192,182072,1,0,0:0:0:0:
36,192,182189,1,0,0:0:0:0:
109,192,182189,1,0,0:0:0:0:
109,192,185096,1,0,0:0:0:0:
36,192,185096,1,0,0:0:0:0:
256,192,185096,128,0,185183:0:0:0:0:
329,192,185096,128,0,185270:0:0:0:0:
402,192,185096,128,0,185357:0:0:0:0:
475,192,185096,128,0,185444:0:0:0:0:
109,192,185444,1,0,0:0:0:0:
36,192,185444,1,0,0:0:0:0:
256,192,185444,1,0,0:0:0:0:
329,192,185444,1,0,0:0:0:0:
182,192,185532,1,0,0:0:0:0:
329,192,185619,128,0,185706:0:0:0:0:
36,192,185619,1,0,0:0:0:0:
402,192,185619,128,0,185706:0:0:0:0:
109,192,185706,1,0,0:0:0:0:
402,192,185793,128,0,185968:0:0:0:0:
182,192,185793,1,0,0:0:0:0:
256,192,185793,1,0,0:0:0:0:
475,192,185793,128,0,185968:0:0:0:0:
109,192,185880,1,0,0:0:0:0:
36,192,185968,128,0,186316:0:0:0:0:
329,192,185968,128,0,186055:0:0:0:0:
256,192,185968,128,0,186055:0:0:0:0:
182,192,186055,128,0,186142:0:0:0:0:
109,192,186142,128,0,186491:0:0:0:0:
402,192,186142,128,0,186229:0:0:0:0:
329,192,186142,128,0,186229:0:0:0:0:
256,192,186229,128,0,186316:0:0:0:0:
182,192,186316,128,0,186491:0:0:0:0:
475,192,186316,128,0,186404:0:0:0:0:
402,192,186316,128,0,186404:0:0:0:0:
329,192,186404,128,0,186491:0:0:0:0:
256,192,186491,1,0,0:0:0:0:
36,192,186491,1,0,0:0:0:0:
475,192,186491,1,0,0:0:0:0:
329,192,186578,1,0,0:0:0:0:
402,192,186665,1,0,0:0:0:0:
182,192,186665,1,0,0:0:0:0:
402,192,186753,1,0,0:0:0:0:
109,192,186840,1,0,0:0:0:0:
36,192,186840,1,0,0:0:0:0:
256,192,186840,1,0,0:0:0:0:
329,192,186840,1,0,0:0:0:0:
182,192,186927,1,0,0:0:0:0:
475,192,187014,1,0,0:0:0:0:
329,192,187014,1,0,0:0:0:0:
109,192,187014,1,0,0:0:0:0:
256,192,187101,1,0,0:0:0:0:
182,192,187189,128,0,187450:0:0:0:0:
36,192,187189,128,0,187450:0:0:0:0:
402,192,187189,128,0,187276:0:0:0:0:
475,192,187189,128,0,187276:0:0:0:0:
109,192,187189,128,0,187450:0:0:0:0:
329,192,187276,128,0,187363:0:0:0:0:
256,192,187363,128,0,187450:0:0:0:0:
475,192,187363,128,0,187450:0:0:0:0:
402,192,187450,128,0,187537:0:0:0:0:
109,192,187537,128,0,187799:0:0:0:0:
36,192,187537,128,0,187799:0:0:0:0:
475,192,187537,128,0,187799:0:0:0:0:
256,192,187537,128,0,187625:0:0:0:0:
329,192,187581,128,0,187668:0:0:0:0:
402,192,187625,128,0,187712:0:0:0:0:
182,192,187712,128,0,187799:0:0:0:0:
256,192,187755,128,0,187843:0:0:0:0:
329,192,187799,128,0,187886:0:0:0:0:
109,192,187886,1,0,0:0:0:0:
402,192,187886,1,0,0:0:0:0:
475,192,187886,1,0,0:0:0:0:
182,192,187930,1,0,0:0:0:0:
256,192,187973,1,0,0:0:0:0:
329,192,188017,1,0,0:0:0:0:
36,192,188061,1,0,0:0:0:0:
109,192,188119,1,0,0:0:0:0:
182,192,188177,1,0,0:0:0:0:
329,192,188235,1,0,0:0:0:0:
475,192,188235,1,0,0:0:0:0:
256,192,188235,1,0,0:0:0:0:
36,192,188322,1,0,0:0:0:0:
329,192,188410,128,0,188497:0:0:0:0:
402,192,188410,128,0,188497:0:0:0:0:
109,192,188410,1,0,0:0:0:0:
182,192,188497,1,0,0:0:0:0:
329,192,188584,128,0,188758:0:0:0:0:
475,192,188584,128,0,188758:0:0:0:0:
256,192,188584,1,0,0:0:0:0:
402,192,188584,1,0,0:0:0:0:
36,192,188671,1,0,0:0:0:0:
109,192,188758,128,0,189107:0:0:0:0:
182,192,188758,128,0,188846:0:0:0:0:
402,192,188758,128,0,188846:0:0:0:0:
329,192,188846,128,0,188933:0:0:0:0:
182,192,188933,128,0,189282:0:0:0:0:
256,192,188933,128,0,189020:0:0:0:0:
475,192,188933,128,0,189020:0:0:0:0:
402,192,189020,128,0,189107:0:0:0:0:
256,192,189107,128,0,189282:0:0:0:0:
329,192,189107,128,0,189194:0:0:0:0:
36,192,189107,128,0,189194:0:0:0:0:
475,192,189194,128,0,189282:0:0:0:0:
402,192,189282,1,0,0:0:0:0:
329,192,189282,1,0,0:0:0:0:
109,192,189282,1,0,0:0:0:0:
256,192,189369,1,0,0:0:0:0:
36,192,189456,1,0,0:0:0:0:
182,192,189456,1,0,0:0:0:0:
182,192,189543,1,0,0:0:0:0:
402,192,189630,1,0,0:0:0:0:
475,192,189630,1,0,0:0:0:0:
109,192,189630,1,0,0:0:0:0:
329,192,189630,1,0,0:0:0:0:
256,192,189718,1,0,0:0:0:0:
182,192,189805,1,0,0:0:0:0:
402,192,189805,1,0,0:0:0:0:
109,192,189805,1,0,0:0:0:0:
329,192,189892,1,0,0:0:0:0:
36,192,189979,128,0,190328:0:0:0:0:
182,192,189979,128,0,190328:0:0:0:0:
475,192,189979,1,0,0:0:0:0:
402,192,190023,1,0,0:0:0:0:
329,192,190066,1,0,0:0:0:0:
256,192,190110,1,0,0:0:0:0:
475,192,190154,1,0,0:0:0:0:
109,192,190154,1,0,0:0:0:0:
475,192,190241,1,0,0:0:0:0:
256,192,190328,128,0,190503:0:0:0:0:
109,192,190328,128,0,190503:0:0:0:0:
402,192,190328,1,0,0:0:0:0:
182,192,190415,1,0,0:0:0:0:
329,192,190415,1,0,0:0:0:0:
475,192,190503,128,0,190677:0:0:0:0:
36,192,190503,1,0,0:0:0:0:
402,192,190561,128,0,190677:0:0:0:0:
329,192,190619,128,0,190677:0:0:0:0:
256,192,190677,128,0,190764:0:0:0:0:
182,192,190677,128,0,190851:0:0:0:0:
109,192,190677,128,0,190939:0:0:0:0:
36,192,190677,128,0,191026:0:0:0:0:
475,192,191026,1,0,0:0:0:0:
402,192,191026,1,0,0:0:0:0:
182,192,191026,1,0,0:0:0:0:
256,192,191026,1,0,0:0:0:0:
329,192,191113,1,0,0:0:0:0:
182,192,191200,128,0,191287:0:0:0:0:
109,192,191200,128,0,191287:0:0:0:0:
402,192,191200,1,0,0:0:0:0:
475,192,191287,1,0,0:0:0:0:
109,192,191375,128,0,191549:0:0:0:0:
36,192,191375,128,0,191549:0:0:0:0:
256,192,191375,1,0,0:0:0:0:
329,192,191375,1,0,0:0:0:0:
402,192,191462,1,0,0:0:0:0:
475,192,191549,128,0,191898:0:0:0:0:
256,192,191549,128,0,191636:0:0:0:0:
182,192,191549,128,0,191636:0:0:0:0:
329,192,191636,128,0,191723:0:0:0:0:
402,192,191723,128,0,192072:0:0:0:0:
182,192,191723,128,0,191811:0:0:0:0:
109,192,191723,128,0,191811:0:0:0:0:
256,192,191811,128,0,191898:0:0:0:0:
329,192,191898,128,0,192072:0:0:0:0:
109,192,191898,128,0,191985:0:0:0:0:
36,192,191898,128,0,191985:0:0:0:0:
182,192,191985,128,0,192072:0:0:0:0:
256,192,192072,1,0,0:0:0:0:
36,192,192072,1,0,0:0:0:0:
475,192,192072,1,0,0:0:0:0:
109,192,192160,1,0,0:0:0:0:
182,192,192247,1,0,0:0:0:0:
329,192,192247,1,0,0:0:0:0:
329,192,192334,1,0,0:0:0:0:
256,192,192421,1,0,0:0:0:0:
402,192,192421,1,0,0:0:0:0:
475,192,192421,1,0,0:0:0:0:
36,192,192421,1,0,0:0:0:0:
109,192,192508,1,0,0:0:0:0:
329,192,192596,1,0,0:0:0:0:
475,192,192596,1,0,0:0:0:0:
402,192,192596,1,0,0:0:0:0:
182,192,192683,1,0,0:0:0:0:
109,192,192770,128,0,193032:0:0:0:0:
36,192,192770,128,0,193032:0:0:0:0:
329,192,192770,128,0,192857:0:0:0:0:
256,192,192770,128,0,192857:0:0:0:0:
475,192,192770,128,0,193032:0:0:0:0:
182,192,192857,128,0,192944:0:0:0:0:
329,192,192944,128,0,193032:0:0:0:0:
402,192,192944,128,0,193032:0:0:0:0:
256,192,193032,128,0,193119:0:0:0:0:
182,192,193119,128,0,193380:0:0:0:0:
109,192,193119,128,0,193380:0:0:0:0:
36,192,193119,128,0,193380:0:0:0:0:
329,192,193119,128,0,193206:0:0:0:0:
402,192,193162,128,0,193250:0:0:0:0:
475,192,193206,128,0,193293:0:0:0:0:
256,192,193293,128,0,193380:0:0:0:0:
329,192,193337,128,0,193424:0:0:0:0:
402,192,193380,128,0,193468:0:0:0:0:
36,192,193468,1,0,0:0:0:0:
256,192,193468,128,0,193729:0:0:0:0:
109,192,193468,128,0,193729:0:0:0:0:
182,192,193642,1,0,0:0:0:0:
329,192,193729,1,0,0:0:0:0:
256,192,193816,128,0,194078:0:0:0:0:
402,192,193816,128,0,194078:0:0:0:0:
475,192,193816,1,0,0:0:0:0:
329,192,193904,1,0,0:0:0:0:
182,192,193991,1,0,0:0:0:0:
36,192,193991,1,0,0:0:0:0:
402,192,194165,128,0,194427:0:0:0:0:
109,192,194165,128,0,194427:0:0:0:0:
182,192,194165,1,0,0:0:0:0:
329,192,194165,1,0,0:0:0:0:
329,192,194340,1,0,0:0:0:0:
475,192,194340,1,0,0:0:0:0:
182,192,194427,1,0,0:0:0:0:
256,192,194514,128,0,194776:0:0:0:0:
109,192,194514,128,0,194776:0:0:0:0:
475,192,194514,1,0,0:0:0:0:
36,192,194514,1,0,0:0:0:0:
182,192,194689,1,0,0:0:0:0:
329,192,194689,1,0,0:0:0:0:
402,192,194776,1,0,0:0:0:0:
475,192,194863,128,0,195386:0:0:0:0:
36,192,194863,128,0,195386:0:0:0:0:
256,192,194863,1,0,0:0:0:0:
109,192,194863,1,0,0:0:0:0:
402,192,195212,1,0,0:0:0:0:
109,192,195212,1,0,0:0:0:0:
256,192,195212,128,0,196258:0:0:0:0:
109,192,195386,1,0,0:0:0:0:
402,192,195386,1,0,0:0:0:0:
182,192,195473,1,0,0:0:0:0:
329,192,195473,1,0,0:0:0:0:
475,192,195561,128,0,195910:0:0:0:0:
36,192,195561,128,0,195910:0:0:0:0:
182,192,195648,1,0,0:0:0:0:
329,192,195648,1,0,0:0:0:0:
109,192,195735,1,0,0:0:0:0:
402,192,195735,1,0,0:0:0:0:
182,192,195910,1,0,0:0:0:0:
329,192,195910,1,0,0:0:0:0:
402,192,196084,1,0,0:0:0:0:
475,192,196084,1,0,0:0:0:0:
109,192,196084,1,0,0:0:0:0:
36,192,196084,1,0,0:0:0:0:
109,192,196258,1,0,0:0:0:0:
36,192,196258,1,0,0:0:0:0:
329,192,196258,1,0,0:0:0:0:
402,192,196302,1,0,0:0:0:0:
475,192,196346,1,0,0:0:0:0:
182,192,196389,1,0,0:0:0:0:
256,192,196433,1,0,0:0:0:0:
329,192,196476,1,0,0:0:0:0:
36,192,196520,1,0,0:0:0:0:
109,192,196564,1,0,0:0:0:0:
475,192,196607,1,0,0:0:0:0:
402,192,196607,1,0,0:0:0:0:
182,192,196607,1,0,0:0:0:0:
256,192,196694,1,0,0:0:0:0:
182,192,196782,128,0,196869:0:0:0:0:
329,192,196782,1,0,0:0:0:0:
109,192,196782,128,0,196869:0:0:0:0:
402,192,196869,1,0,0:0:0:0:
109,192,196956,128,0,197130:0:0:0:0:
475,192,196956,1,0,0:0:0:0:
256,192,196956,1,0,0:0:0:0:
36,192,196956,128,0,197130:0:0:0:0:
329,192,197043,1,0,0:0:0:0:
475,192,197130,128,0,197479:0:0:0:0:
182,192,197130,128,0,197218:0:0:0:0:
402,192,197130,128,0,197218:0:0:0:0:
256,192,197218,128,0,197305:0:0:0:0:
402,192,197305,128,0,197654:0:0:0:0:
109,192,197305,128,0,197392:0:0:0:0:
329,192,197305,128,0,197392:0:0:0:0:
182,192,197392,128,0,197479:0:0:0:0:
329,192,197479,128,0,197654:0:0:0:0:
36,192,197479,128,0,197566:0:0:0:0:
256,192,197479,128,0,197566:0:0:0:0:
109,192,197566,128,0,197654:0:0:0:0:
256,192,197654,1,0,0:0:0:0:
475,192,197654,1,0,0:0:0:0:
36,192,197654,1,0,0:0:0:0:
182,192,197741,1,0,0:0:0:0:
109,192,197828,1,0,0:0:0:0:
329,192,197828,1,0,0:0:0:0:
109,192,197915,1,0,0:0:0:0:
402,192,198003,1,0,0:0:0:0:
475,192,198003,1,0,0:0:0:0:
256,192,198003,1,0,0:0:0:0:
182,192,198003,1,0,0:0:0:0:
329,192,198090,1,0,0:0:0:0:
36,192,198177,1,0,0:0:0:0:
182,192,198177,1,0,0:0:0:0:
402,192,198177,1,0,0:0:0:0:
256,192,198264,1,0,0:0:0:0:
329,192,198351,128,0,198613:0:0:0:0:
475,192,198351,128,0,198613:0:0:0:0:
109,192,198351,128,0,198439:0:0:0:0:
36,192,198351,128,0,198439:0:0:0:0:
402,192,198351,128,0,198613:0:0:0:0:
182,192,198439,128,0,198526:0:0:0:0:
256,192,198526,128,0,198613:0:0:0:0:
36,192,198526,128,0,198613:0:0:0:0:
109,192,198613,128,0,198700:0:0:0:0:
402,192,198700,128,0,198962:0:0:0:0:
475,192,198700,128,0,198962:0:0:0:0:
36,192,198700,128,0,198962:0:0:0:0:
256,192,198700,128,0,198787:0:0:0:0:
182,192,198744,128,0,198831:0:0:0:0:
109,192,198787,128,0,198875:0:0:0:0:
329,192,198875,128,0,198962:0:0:0:0:
256,192,198918,128,0,199005:0:0:0:0:
182,192,198962,128,0,199049:0:0:0:0:
36,192,199049,1,0,0:0:0:0:
109,192,199049,1,0,0:0:0:0:
402,192,199049,1,0,0:0:0:0:
329,192,199093,1,0,0:0:0:0:
256,192,199136,1,0,0:0:0:0:
182,192,199180,1,0,0:0:0:0:
475,192,199223,1,0,0:0:0:0:
402,192,199282,1,0,0:0:0:0:
329,192,199340,1,0,0:0:0:0:
182,192,199398,1,0,0:0:0:0:
36,192,199398,1,0,0:0:0:0:
256,192,199398,1,0,0:0:0:0:
475,192,199485,1,0,0:0:0:0:
182,192,199572,128,0,199660:0:0:0:0:
109,192,199572,128,0,199660:0:0:0:0:
402,192,199572,1,0,0:0:0:0:
329,192,199660,1,0,0:0:0:0:
182,192,199747,128,0,199921:0:0:0:0:
36,192,199747,128,0,199921:0:0:0:0:
256,192,199747,1,0,0:0:0:0:
109,192,199747,1,0,0:0:0:0:
475,192,199834,1,0,0:0:0:0:
402,192,199921,128,0,200270:0:0:0:0:
329,192,199921,128,0,200008:0:0:0:0:
109,192,199921,128,0,200008:0:0:0:0:
182,192,200008,128,0,200096:0:0:0:0:
256,192,200096,128,0,200183:0:0:0:0:
329,192,200096,128,0,200444:0:0:0:0:
36,192,200096,128,0,200183:0:0:0:0:
109,192,200183,128,0,200270:0:0:0:0:
256,192,200270,128,0,200444:0:0:0:0:
182,192,200270,128,0,200357:0:0:0:0:
475,192,200270,128,0,200357:0:0:0:0:
36,192,200357,128,0,200444:0:0:0:0:
402,192,200444,128,0,200793:0:0:0:0:
109,192,200444,128,0,200793:0:0:0:0:
182,192,200444,1,0,0:0:0:0:
329,192,200793,128,0,201142:0:0:0:0:
182,192,200793,128,0,201142:0:0:0:0:
36,192,200968,1,0,0:0:0:0:
475,192,200968,1,0,0:0:0:0:
256,192,200968,1,0,0:0:0:0:
402,192,201142,1,0,0:0:0:0:
109,192,201142,1,0,0:0:0:0:
36,192,201142,128,0,201491:0:0:0:0:
475,192,201142,128,0,201491:0:0:0:0:
329,192,201316,1,0,0:0:0:0:
182,192,201316,1,0,0:0:0:0:
256,192,201316,128,0,201491:0:0:0:0:
329,192,201491,1,0,0:0:0:0:
402,192,201491,1,0,0:0:0:0:
109,192,201491,1,0,0:0:0:0:
402,192,201607,1,0,0:0:0:0:
329,192,201607,1,0,0:0:0:0:
109,192,201723,1,0,0:0:0:0:
182,192,201723,1,0,0:0:0:0:
109,192,201840,1,0,0:0:0:0:
182,192,201840,1,0,0:0:0:0:
475,192,201840,1,0,0:0:0:0:
402,192,201883,1,0,0:0:0:0:
329,192,201927,1,0,0:0:0:0:
256,192,201971,1,0,0:0:0:0:
36,192,202014,1,0,0:0:0:0:
109,192,202058,1,0,0:0:0:0:
182,192,202101,1,0,0:0:0:0:
256,192,202145,1,0,0:0:0:0:
329,192,202189,1,0,0:0:0:0:
475,192,202189,1,0,0:0:0:0:
402,192,202189,1,0,0:0:0:0:
182,192,202276,1,0,0:0:0:0:
329,192,202363,128,0,202450:0:0:0:0:
402,192,202363,128,0,202450:0:0:0:0:
109,192,202363,1,0,0:0:0:0:
256,192,202450,1,0,0:0:0:0:
402,192,202537,128,0,202712:0:0:0:0:
475,192,202537,128,0,202712:0:0:0:0:
36,192,202537,1,0,0:0:0:0:
182,192,202537,1,0,0:0:0:0:
109,192,202625,1,0,0:0:0:0:
36,192,202712,128,0,203061:0:0:0:0:
256,192,202712,128,0,202799:0:0:0:0:
329,192,202712,128,0,202799:0:0:0:0:
182,192,202799,128,0,202886:0:0:0:0:
109,192,202886,128,0,203235:0:0:0:0:
402,192,202886,128,0,202973:0:0:0:0:
329,192,202973,128,0,203061:0:0:0:0:
256,192,202973,128,0,203061:0:0:0:0:
182,192,203061,128,0,203235:0:0:0:0:
475,192,203061,128,0,203148:0:0:0:0:
329,192,203148,128,0,203235:0:0:0:0:
402,192,203148,128,0,203235:0:0:0:0:
256,192,203235,1,0,0:0:0:0:
475,192,203235,1,0,0:0:0:0:
36,192,203235,1,0,0:0:0:0:
402,192,203322,1,0,0:0:0:0:
329,192,203410,1,0,0:0:0:0:
182,192,203410,1,0,0:0:0:0:
329,192,203497,1,0,0:0:0:0:
256,192,203584,1,0,0:0:0:0:
109,192,203584,1,0,0:0:0:0:
36,192,203584,1,0,0:0:0:0:
475,192,203584,1,0,0:0:0:0:
402,192,203671,1,0,0:0:0:0:
182,192,203758,1,0,0:0:0:0:
36,192,203758,1,0,0:0:0:0:
109,192,203758,1,0,0:0:0:0:
329,192,203846,1,0,0:0:0:0:
402,192,203933,128,0,204194:0:0:0:0:
475,192,203933,128,0,204194:0:0:0:0:
256,192,203933,128,0,204020:0:0:0:0:
182,192,203933,128,0,204020:0:0:0:0:
36,192,203933,128,0,204194:0:0:0:0:
329,192,204020,128,0,204107:0:0:0:0:
182,192,204107,128,0,204194:0:0:0:0:
109,192,204107,128,0,204194:0:0:0:0:
256,192,204194,128,0,204282:0:0:0:0:
329,192,204282,128,0,204543:0:0:0:0:
402,192,204282,128,0,204543:0:0:0:0:
475,192,204282,128,0,204543:0:0:0:0:
182,192,204282,128,0,204369:0:0:0:0:
109,192,204325,128,0,204412:0:0:0:0:
36,192,204369,128,0,204456:0:0:0:0:
256,192,204456,128,0,204543:0:0:0:0:
182,192,204500,128,0,204587:0:0:0:0:
109,192,204543,128,0,204630:0:0:0:0:
36,192,204630,1,0,0:0:0:0:
402,192,204630,1,0,0:0:0:0:
329,192,204630,1,0,0:0:0:0:
475,192,204630,1,0,0:0:0:0:
36,192,204805,1,0,0:0:0:0:
36,192,204979,1,0,0:0:0:0:
256,192,204979,128,0,205328:0:0:0:0:
36,192,205154,1,0,0:0:0:0:
36,192,205328,1,0,0:0:0:0:
402,192,205328,1,0,0:0:0:0:
182,192,205328,128,0,206026:0:0:0:0:
36,192,205503,1,0,0:0:0:0:
402,192,205503,1,0,0:0:0:0:
36,192,205677,1,0,0:0:0:0:
329,192,205677,1,0,0:0:0:0:
36,192,205851,1,0,0:0:0:0:
329,192,205851,1,0,0:0:0:0:
36,192,206026,1,0,0:0:0:0:
256,192,206026,1,0,0:0:0:0:
475,192,206026,128,0,206723:0:0:0:0:
36,192,206200,1,0,0:0:0:0:
256,192,206200,1,0,0:0:0:0:
36,192,206375,5,0,0:0:0:0:
182,192,206375,1,0,0:0:0:0:
402,192,206375,128,0,207072:0:0:0:0:
36,192,206549,1,0,0:0:0:0:
182,192,206549,1,0,0:0:0:0:
36,192,206723,1,0,0:0:0:0:
109,192,206723,1,0,0:0:0:0:
329,192,206723,128,0,207421:0:0:0:0:
36,192,206898,1,0,0:0:0:0:
109,192,206898,1,0,0:0:0:0:
36,192,207072,1,0,0:0:0:0:
256,192,207072,128,0,207421:0:0:0:0:
182,192,207160,1,0,0:0:0:0:
36,192,207247,1,0,0:0:0:0:
109,192,207334,1,0,0:0:0:0:
475,192,207421,5,0,0:0:0:0:
182,192,207421,128,0,207596:0:0:0:0:
402,192,207421,1,0,0:0:0:0:
475,192,207944,1,0,0:0:0:0:
182,192,208293,128,0,208468:0:0:0:0:
256,192,208468,1,0,0:0:0:0:
36,192,208468,1,0,0:0:0:0:
329,192,208468,1,0,0:0:0:0:
475,192,208642,1,0,0:0:0:0:
182,192,208816,128,0,208991:0:0:0:0:
402,192,208816,1,0,0:0:0:0:
329,192,208816,1,0,0:0:0:0:
109,192,208816,1,0,0:0:0:0:
36,192,208816,1,0,0:0:0:0:
475,192,208991,1,0,0:0:0:0:
256,192,208991,1,0,0:0:0:0:
329,192,209165,1,0,0:0:0:0:
256,192,209165,1,0,0:0:0:0:
109,192,209165,1,0,0:0:0:0:
36,192,209165,1,0,0:0:0:0:
475,192,209340,1,0,0:0:0:0:
475,192,209514,1,0,0:0:0:0:
329,192,209689,1,0,0:0:0:0:
109,192,209689,1,0,0:0:0:0:
402,192,209689,1,0,0:0:0:0:
182,192,209689,128,0,209863:0:0:0:0:
256,192,209863,1,0,0:0:0:0:
329,192,209863,1,0,0:0:0:0:
109,192,209863,1,0,0:0:0:0:
36,192,209863,1,0,0:0:0:0:
475,192,210037,1,0,0:0:0:0:
182,192,210212,128,0,210386:0:0:0:0:
329,192,210212,1,0,0:0:0:0:
402,192,210212,1,0,0:0:0:0:
109,192,210212,1,0,0:0:0:0:
256,192,210561,1,0,0:0:0:0:
329,192,210561,1,0,0:0:0:0:
109,192,210561,1,0,0:0:0:0:
36,192,210561,1,0,0:0:0:0:
475,192,210735,1,0,0:0:0:0:
402,192,211084,1,0,0:0:0:0:
109,192,211084,1,0,0:0:0:0:
329,192,211084,1,0,0:0:0:0:
182,192,211084,128,0,211258:0:0:0:0:
256,192,211258,1,0,0:0:0:0:
329,192,211258,1,0,0:0:0:0:
109,192,211258,1,0,0:0:0:0:
36,192,211258,1,0,0:0:0:0:
475,192,211433,1,0,0:0:0:0:
329,192,211607,1,0,0:0:0:0:
36,192,211607,128,0,212305:0:0:0:0:
402,192,211607,1,0,0:0:0:0:
109,192,211607,1,0,0:0:0:0:
182,192,211607,128,0,211782:0:0:0:0:
475,192,211782,1,0,0:0:0:0:
329,192,211956,1,0,0:0:0:0:
256,192,211956,1,0,0:0:0:0:
182,192,211956,1,0,0:0:0:0:
109,192,211956,1,0,0:0:0:0:
475,192,212130,1,0,0:0:0:0:
475,192,212305,1,0,0:0:0:0:
329,192,212479,1,0,0:0:0:0:
402,192,212479,1,0,0:0:0:0:
109,192,212479,1,0,0:0:0:0:
182,192,212479,128,0,212654:0:0:0:0:
256,192,212654,1,0,0:0:0:0:
36,192,212654,1,0,0:0:0:0:
329,192,212654,1,0,0:0:0:0:
402,192,212654,1,0,0:0:0:0:
475,192,212828,1,0,0:0:0:0:
109,192,212828,128,0,213003:0:0:0:0:
329,192,213003,1,0,0:0:0:0:
182,192,213003,128,0,213177:0:0:0:0:
402,192,213003,1,0,0:0:0:0:
36,192,213003,1,0,0:0:0:0:
36,192,213351,1,0,0:0:0:0:
256,192,213351,1,0,0:0:0:0:
109,192,213351,1,0,0:0:0:0:
329,192,213351,1,0,0:0:0:0:
475,192,213526,1,0,0:0:0:0:
329,192,213875,1,0,0:0:0:0:
109,192,213875,1,0,0:0:0:0:
402,192,213875,1,0,0:0:0:0:
182,192,213875,128,0,214049:0:0:0:0:
256,192,214049,1,0,0:0:0:0:
329,192,214049,1,0,0:0:0:0:
109,192,214049,1,0,0:0:0:0:
36,192,214049,1,0,0:0:0:0:
475,192,214223,1,0,0:0:0:0:
182,192,214398,128,0,214572:0:0:0:0:
402,192,214398,1,0,0:0:0:0:
329,192,214398,1,0,0:0:0:0:
109,192,214398,1,0,0:0:0:0:
475,192,214572,1,0,0:0:0:0:
256,192,214572,1,0,0:0:0:0:
36,192,214747,1,0,0:0:0:0:
109,192,214747,1,0,0:0:0:0:
329,192,214747,1,0,0:0:0:0:
256,192,214747,1,0,0:0:0:0:
475,192,214921,1,0,0:0:0:0:
475,192,215096,1,0,0:0:0:0:
329,192,215270,1,0,0:0:0:0:
109,192,215270,1,0,0:0:0:0:
402,192,215270,1,0,0:0:0:0:
182,192,215270,128,0,215444:0:0:0:0:
329,192,215444,1,0,0:0:0:0:
256,192,215444,1,0,0:0:0:0:
109,192,215444,1,0,0:0:0:0:
36,192,215444,1,0,0:0:0:0:
475,192,215619,1,0,0:0:0:0:
182,192,215793,128,0,215968:0:0:0:0:
329,192,215793,1,0,0:0:0:0:
402,192,215793,1,0,0:0:0:0:
109,192,215793,1,0,0:0:0:0:
256,192,216142,1,0,0:0:0:0:
329,192,216142,1,0,0:0:0:0:
109,192,216142,1,0,0:0:0:0:
36,192,216142,1,0,0:0:0:0:
475,192,216316,1,0,0:0:0:0:
329,192,216665,1,0,0:0:0:0:
109,192,216665,1,0,0:0:0:0:
402,192,216665,1,0,0:0:0:0:
182,192,216665,128,0,216840:0:0:0:0:
256,192,216840,1,0,0:0:0:0:
329,192,216840,1,0,0:0:0:0:
36,192,216840,1,0,0:0:0:0:
109,192,216840,1,0,0:0:0:0:
475,192,217014,1,0,0:0:0:0:
36,192,217189,128,0,217886:0:0:0:0:
109,192,217189,1,0,0:0:0:0:
402,192,217189,1,0,0:0:0:0:
329,192,217189,1,0,0:0:0:0:
256,192,217189,1,0,0:0:0:0:
475,192,217363,1,0,0:0:0:0:
182,192,217537,128,0,217886:0:0:0:0:
329,192,217537,128,0,217712:0:0:0:0:
475,192,217712,1,0,0:0:0:0:
475,192,217886,1,0,0:0:0:0:
109,192,217886,128,0,218061:0:0:0:0:
256,192,217886,128,0,218061:0:0:0:0:
329,192,218061,1,0,0:0:0:0:
182,192,218061,1,0,0:0:0:0:
402,192,218148,128,0,218235:0:0:0:0:
475,192,218235,1,0,0:0:0:0:
109,192,218235,128,0,218410:0:0:0:0:
256,192,218235,128,0,218322:0:0:0:0:
329,192,218322,128,0,218410:0:0:0:0:
475,192,218410,1,0,0:0:0:0:
182,192,218410,128,0,218497:0:0:0:0:
256,192,218497,128,0,218584:0:0:0:0:
109,192,218584,128,0,218758:0:0:0:0:
402,192,218584,1,0,0:0:0:0:
36,192,218584,1,0,0:0:0:0:
329,192,218671,1,0,0:0:0:0:
256,192,218758,1,0,0:0:0:0:
402,192,218846,1,0,0:0:0:0:
36,192,218933,1,0,0:0:0:0:
256,192,218933,1,0,0:0:0:0:
182,192,218933,1,0,0:0:0:0:
329,192,218991,1,0,0:0:0:0:
109,192,219020,1,0,0:0:0:0:
402,192,219049,1,0,0:0:0:0:
256,192,219107,1,0,0:0:0:0:
475,192,219107,1,0,0:0:0:0:
182,192,219194,1,0,0:0:0:0:
329,192,219282,1,0,0:0:0:0:
256,192,219369,1,0,0:0:0:0:
402,192,219456,1,0,0:0:0:0:
109,192,219456,128,0,219630:0:0:0:0:
36,192,219456,1,0,0:0:0:0:
329,192,219543,1,0,0:0:0:0:
256,192,219630,1,0,0:0:0:0:
182,192,219630,1,0,0:0:0:0:
36,192,219630,1,0,0:0:0:0:
329,192,219689,1,0,0:0:0:0:
109,192,219718,1,0,0:0:0:0:
402,192,219747,1,0,0:0:0:0:
256,192,219805,1,0,0:0:0:0:
475,192,219805,1,0,0:0:0:0:
182,192,219892,1,0,0:0:0:0:
402,192,219979,1,0,0:0:0:0:
36,192,219979,1,0,0:0:0:0:
109,192,219979,128,0,220154:0:0:0:0:
329,192,220066,1,0,0:0:0:0:
475,192,220154,1,0,0:0:0:0:
182,192,220154,1,0,0:0:0:0:
402,192,220241,1,0,0:0:0:0:
256,192,220328,1,0,0:0:0:0:
36,192,220328,1,0,0:0:0:0:
182,192,220328,1,0,0:0:0:0:
329,192,220386,1,0,0:0:0:0:
109,192,220415,1,0,0:0:0:0:
402,192,220444,1,0,0:0:0:0:
475,192,220503,1,0,0:0:0:0:
256,192,220503,1,0,0:0:0:0:
182,192,220590,1,0,0:0:0:0:
475,192,220677,1,0,0:0:0:0:
329,192,220677,1,0,0:0:0:0:
256,192,220764,1,0,0:0:0:0:
402,192,220851,1,0,0:0:0:0:
36,192,220851,1,0,0:0:0:0:
109,192,220851,128,0,221026:0:0:0:0:
329,192,220939,1,0,0:0:0:0:
36,192,221026,1,0,0:0:0:0:
256,192,221026,1,0,0:0:0:0:
182,192,221026,1,0,0:0:0:0:
329,192,221084,1,0,0:0:0:0:
109,192,221113,1,0,0:0:0:0:
402,192,221142,1,0,0:0:0:0:
475,192,221200,1,0,0:0:0:0:
256,192,221200,1,0,0:0:0:0:
182,192,221287,1,0,0:0:0:0:
402,192,221375,1,0,0:0:0:0:
36,192,221375,1,0,0:0:0:0:
109,192,221375,128,0,221549:0:0:0:0:
329,192,221462,1,0,0:0:0:0:
256,192,221549,1,0,0:0:0:0:
402,192,221636,1,0,0:0:0:0:
256,192,221723,1,0,0:0:0:0:
36,192,221723,1,0,0:0:0:0:
182,192,221723,1,0,0:0:0:0:
329,192,221782,1,0,0:0:0:0:
109,192,221811,1,0,0:0:0:0:
402,192,221840,1,0,0:0:0:0:
475,192,221898,1,0,0:0:0:0:
256,192,221898,1,0,0:0:0:0:
182,192,221985,1,0,0:0:0:0:
329,192,222072,1,0,0:0:0:0:
256,192,222160,1,0,0:0:0:0:
36,192,222247,1,0,0:0:0:0:
402,192,222247,1,0,0:0:0:0:
109,192,222247,128,0,222421:0:0:0:0:
329,192,222334,1,0,0:0:0:0:
36,192,222421,1,0,0:0:0:0:
256,192,222421,1,0,0:0:0:0:
182,192,222421,1,0,0:0:0:0:
329,192,222479,1,0,0:0:0:0:
109,192,222508,1,0,0:0:0:0:
402,192,222537,1,0,0:0:0:0:
475,192,222596,1,0,0:0:0:0:
256,192,222596,1,0,0:0:0:0:
182,192,222683,1,0,0:0:0:0:
402,192,222770,1,0,0:0:0:0:
36,192,222770,1,0,0:0:0:0:
109,192,222770,128,0,222944:0:0:0:0:
329,192,222857,1,0,0:0:0:0:
475,192,222944,1,0,0:0:0:0:
182,192,222944,1,0,0:0:0:0:
402,192,223032,1,0,0:0:0:0:
256,192,223119,1,0,0:0:0:0:
36,192,223119,1,0,0:0:0:0:
182,192,223119,1,0,0:0:0:0:
329,192,223177,1,0,0:0:0:0:
109,192,223206,1,0,0:0:0:0:
402,192,223235,1,0,0:0:0:0:
475,192,223293,1,0,0:0:0:0:
256,192,223293,1,0,0:0:0:0:
182,192,223380,1,0,0:0:0:0:
475,192,223468,1,0,0:0:0:0:
329,192,223468,1,0,0:0:0:0:
256,192,223555,1,0,0:0:0:0:
402,192,223642,1,0,0:0:0:0:
109,192,223642,128,0,223816:0:0:0:0:
36,192,223642,1,0,0:0:0:0:
329,192,223729,1,0,0:0:0:0:
256,192,223816,1,0,0:0:0:0:
182,192,223816,1,0,0:0:0:0:
36,192,223816,1,0,0:0:0:0:
329,192,223875,1,0,0:0:0:0:
402,192,223933,1,0,0:0:0:0:
475,192,223991,1,0,0:0:0:0:
182,192,223991,1,0,0:0:0:0:
36,192,223991,128,0,224165:0:0:0:0:
256,192,224049,1,0,0:0:0:0:
329,192,224107,1,0,0:0:0:0:
402,192,224165,1,0,0:0:0:0:
109,192,224165,128,0,224340:0:0:0:0:
475,192,224165,1,0,0:0:0:0:
256,192,224223,1,0,0:0:0:0:
182,192,224282,1,0,0:0:0:0:
329,192,224340,1,0,0:0:0:0:
402,192,224427,1,0,0:0:0:0:
36,192,224514,1,0,0:0:0:0:
182,192,224514,1,0,0:0:0:0:
256,192,224514,1,0,0:0:0:0:
329,192,224572,1,0,0:0:0:0:
109,192,224601,1,0,0:0:0:0:
402,192,224630,1,0,0:0:0:0:
475,192,224689,1,0,0:0:0:0:
256,192,224689,1,0,0:0:0:0:
182,192,224776,1,0,0:0:0:0:
329,192,224863,1,0,0:0:0:0:
256,192,224950,1,0,0:0:0:0:
402,192,225037,1,0,0:0:0:0:
109,192,225037,128,0,225212:0:0:0:0:
36,192,225037,1,0,0:0:0:0:
329,192,225125,1,0,0:0:0:0:
182,192,225212,1,0,0:0:0:0:
36,192,225212,1,0,0:0:0:0:
256,192,225212,1,0,0:0:0:0:
329,192,225270,1,0,0:0:0:0:
109,192,225299,1,0,0:0:0:0:
402,192,225328,1,0,0:0:0:0:
475,192,225386,1,0,0:0:0:0:
256,192,225386,1,0,0:0:0:0:
182,192,225473,1,0,0:0:0:0:
109,192,225561,128,0,225735:0:0:0:0:
36,192,225561,1,0,0:0:0:0:
402,192,225561,1,0,0:0:0:0:
329,192,225648,1,0,0:0:0:0:
475,192,225735,1,0,0:0:0:0:
256,192,225735,1,0,0:0:0:0:
402,192,225822,1,0,0:0:0:0:
182,192,225910,1,0,0:0:0:0:
36,192,225910,1,0,0:0:0:0:
256,192,225910,1,0,0:0:0:0:
329,192,225968,1,0,0:0:0:0:
109,192,225997,1,0,0:0:0:0:
402,192,226026,1,0,0:0:0:0:
475,192,226084,1,0,0:0:0:0:
256,192,226084,1,0,0:0:0:0:
182,192,226171,1,0,0:0:0:0:
475,192,226258,1,0,0:0:0:0:
329,192,226258,1,0,0:0:0:0:
256,192,226346,1,0,0:0:0:0:
402,192,226433,1,0,0:0:0:0:
36,192,226433,1,0,0:0:0:0:
109,192,226433,128,0,226607:0:0:0:0:
329,192,226520,1,0,0:0:0:0:
182,192,226607,1,0,0:0:0:0:
256,192,226607,1,0,0:0:0:0:
36,192,226607,1,0,0:0:0:0:
329,192,226665,1,0,0:0:0:0:
109,192,226694,1,0,0:0:0:0:
402,192,226723,1,0,0:0:0:0:
475,192,226782,1,0,0:0:0:0:
256,192,226782,1,0,0:0:0:0:
329,192,226869,1,0,0:0:0:0:
402,192,226956,1,0,0:0:0:0:
109,192,226956,1,0,0:0:0:0:
182,192,226956,128,0,227130:0:0:0:0:
36,192,226956,1,0,0:0:0:0:
36,192,227130,1,0,0:0:0:0:
109,192,227363,1,0,0:0:0:0:
182,192,227421,1,0,0:0:0:0:
256,192,227479,1,0,0:0:0:0:
329,192,227537,1,0,0:0:0:0:
36,192,227566,1,0,0:0:0:0:
256,192,227741,128,0,228003:0:0:0:0:
475,192,228119,1,0,0:0:0:0:
402,192,228177,1,0,0:0:0:0:
36,192,228212,1,0,0:0:0:0:
329,192,228235,1,0,0:0:0:0:
256,192,228293,1,0,0:0:0:0:
182,192,228351,1,0,0:0:0:0:
109,192,228351,1,0,0:0:0:0:
475,192,228351,128,0,228630:0:0:0:0:
182,192,228491,1,0,0:0:0:0:
109,192,228491,1,0,0:0:0:0:
36,192,228630,128,0,228840:0:0:0:0:
329,192,228630,1,0,0:0:0:0:
402,192,228630,1,0,0:0:0:0:
329,192,228770,1,0,0:0:0:0:
402,192,228770,1,0,0:0:0:0:
182,192,228840,128,0,229049:0:0:0:0:
36,192,229049,1,0,0:0:0:0:
109,192,229093,1,0,0:0:0:0:
256,192,229136,1,0,0:0:0:0:
329,192,229180,1,0,0:0:0:0:
402,192,229223,1,0,0:0:0:0:
36,192,229267,1,0,0:0:0:0:
182,192,229311,1,0,0:0:0:0:
329,192,229354,1,0,0:0:0:0:
475,192,229398,1,0,0:0:0:0:
256,192,229456,1,0,0:0:0:0:
475,192,229514,1,0,0:0:0:0:
182,192,229572,1,0,0:0:0:0:
475,192,229630,1,0,0:0:0:0:
109,192,229689,1,0,0:0:0:0:
256,192,229747,1,0,0:0:0:0:
36,192,229747,128,0,230270:0:0:0:0:
329,192,229747,128,0,229834:0:0:0:0:
402,192,229747,128,0,229921:0:0:0:0:
475,192,229747,128,0,230008:0:0:0:0:
182,192,230008,128,0,230270:0:0:0:0:
402,192,230096,1,0,0:0:0:0:
329,192,230096,1,0,0:0:0:0:
109,192,230096,1,0,0:0:0:0:
475,192,230270,128,0,230357:0:0:0:0:
402,192,230270,128,0,230357:0:0:0:0:
256,192,230270,1,0,0:0:0:0:
182,192,230357,1,0,0:0:0:0:
475,192,230444,128,0,230968:0:0:0:0:
329,192,230444,1,0,0:0:0:0:
109,192,230444,1,0,0:0:0:0:
36,192,230444,1,0,0:0:0:0:
256,192,230532,1,0,0:0:0:0:
182,192,230619,1,0,0:0:0:0:
36,192,230619,1,0,0:0:0:0:
329,192,230706,128,0,230968:0:0:0:0:
402,192,230706,1,0,0:0:0:0:
182,192,230793,1,0,0:0:0:0:
109,192,230793,1,0,0:0:0:0:
36,192,230793,1,0,0:0:0:0:
256,192,230880,1,0,0:0:0:0:
109,192,230968,128,0,231055:0:0:0:0:
36,192,230968,128,0,231055:0:0:0:0:
402,192,230968,1,0,0:0:0:0:
329,192,231055,1,0,0:0:0:0:
36,192,231142,128,0,231665:0:0:0:0:
182,192,231142,1,0,0:0:0:0:
256,192,231142,1,0,0:0:0:0:
475,192,231142,128,0,231316:0:0:0:0:
256,192,231316,1,0,0:0:0:0:
109,192,231404,128,0,231665:0:0:0:0:
256,192,231404,1,0,0:0:0:0:
402,192,231491,1,0,0:0:0:0:
329,192,231491,1,0,0:0:0:0:
182,192,231491,1,0,0:0:0:0:
329,192,231665,128,0,231753:0:0:0:0:
475,192,231665,128,0,231753:0:0:0:0:
256,192,231665,1,0,0:0:0:0:
182,192,231753,1,0,0:0:0:0:
402,192,231840,1,0,0:0:0:0:
109,192,231840,1,0,0:0:0:0:
36,192,231840,1,0,0:0:0:0:
475,192,231840,128,0,232189:0:0:0:0:
329,192,231927,1,0,0:0:0:0:
256,192,232014,1,0,0:0:0:0:
109,192,232014,1,0,0:0:0:0:
182,192,232014,1,0,0:0:0:0:
329,192,232101,1,0,0:0:0:0:
182,192,232189,128,0,232450:0:0:0:0:
36,192,232189,128,0,232450:0:0:0:0:
329,192,232363,128,0,232450:0:0:0:0:
475,192,232363,128,0,232450:0:0:0:0:
182,192,232537,128,0,233061:0:0:0:0:
109,192,232537,1,0,0:0:0:0:
475,192,232537,1,0,0:0:0:0:
36,192,232537,1,0,0:0:0:0:
402,192,232581,1,0,0:0:0:0:
329,192,232625,1,0,0:0:0:0:
256,192,232668,1,0,0:0:0:0:
475,192,232712,1,0,0:0:0:0:
402,192,232770,1,0,0:0:0:0:
109,192,232799,128,0,233061:0:0:0:0:
329,192,232828,1,0,0:0:0:0:
475,192,232886,1,0,0:0:0:0:
256,192,232886,1,0,0:0:0:0:
36,192,232886,1,0,0:0:0:0:
329,192,233061,128,0,233148:0:0:0:0:
475,192,233061,128,0,233148:0:0:0:0:
36,192,233061,1,0,0:0:0:0:
109,192,233148,1,0,0:0:0:0:
329,192,233235,128,0,233758:0:0:0:0:
402,192,233235,1,0,0:0:0:0:
182,192,233235,1,0,0:0:0:0:
475,192,233235,1,0,0:0:0:0:
109,192,233322,1,0,0:0:0:0:
36,192,233410,1,0,0:0:0:0:
256,192,233410,1,0,0:0:0:0:
402,192,233497,128,0,233758:0:0:0:0:
475,192,233497,1,0,0:0:0:0:
182,192,233584,1,0,0:0:0:0:
36,192,233584,1,0,0:0:0:0:
109,192,233584,1,0,0:0:0:0:
256,192,233671,1,0,0:0:0:0:
182,192,233758,128,0,233846:0:0:0:0:
109,192,233758,128,0,233846:0:0:0:0:
475,192,233758,1,0,0:0:0:0:
402,192,233846,1,0,0:0:0:0:
109,192,233933,128,0,234456:0:0:0:0:
36,192,233933,1,0,0:0:0:0:
329,192,233933,128,0,234107:0:0:0:0:
256,192,233933,1,0,0:0:0:0:
402,192,234107,1,0,0:0:0:0:
36,192,234194,128,0,234456:0:0:0:0:
402,192,234194,1,0,0:0:0:0:
256,192,234282,1,0,0:0:0:0:
182,192,234282,1,0,0:0:0:0:
475,192,234282,1,0,0:0:0:0:
329,192,234456,128,0,234543:0:0:0:0:
402,192,234456,128,0,234543:0:0:0:0:
36,192,234630,128,0,234979:0:0:0:0:
182,192,234630,128,0,234979:0:0:0:0:
475,192,234630,1,0,0:0:0:0:
402,192,234674,1,0,0:0:0:0:
329,192,234718,1,0,0:0:0:0:
256,192,234761,1,0,0:0:0:0:
475,192,234805,1,0,0:0:0:0:
402,192,234863,1,0,0:0:0:0:
329,192,234921,1,0,0:0:0:0:
256,192,234979,128,0,235154:0:0:0:0:
109,192,234979,128,0,235154:0:0:0:0:
475,192,234979,1,0,0:0:0:0:
402,192,235066,1,0,0:0:0:0:
329,192,235154,128,0,235328:0:0:0:0:
182,192,235154,1,0,0:0:0:0:
402,192,235212,128,0,235328:0:0:0:0:
475,192,235270,128,0,235328:0:0:0:0:
256,192,235328,128,0,235851:0:0:0:0:
109,192,235328,128,0,235503:0:0:0:0:
36,192,235328,128,0,235590:0:0:0:0:
182,192,235328,128,0,235415:0:0:0:0:
402,192,235590,128,0,235851:0:0:0:0:
182,192,235677,1,0,0:0:0:0:
475,192,235677,1,0,0:0:0:0:
109,192,235677,1,0,0:0:0:0:
36,192,235851,128,0,235939:0:0:0:0:
109,192,235851,128,0,235939:0:0:0:0:
329,192,235851,1,0,0:0:0:0:
256,192,235939,1,0,0:0:0:0:
36,192,236026,128,0,236549:0:0:0:0:
182,192,236026,1,0,0:0:0:0:
475,192,236026,1,0,0:0:0:0:
402,192,236026,1,0,0:0:0:0:
329,192,236113,1,0,0:0:0:0:
182,192,236200,1,0,0:0:0:0:
256,192,236200,1,0,0:0:0:0:
109,192,236287,128,0,236549:0:0:0:0:
329,192,236287,1,0,0:0:0:0:
402,192,236375,1,0,0:0:0:0:
475,192,236375,1,0,0:0:0:0:
182,192,236375,1,0,0:0:0:0:
256,192,236462,1,0,0:0:0:0:
402,192,236549,128,0,236636:0:0:0:0:
475,192,236549,128,0,236636:0:0:0:0:
329,192,236549,1,0,0:0:0:0:
182,192,236636,1,0,0:0:0:0:
475,192,236723,128,0,237247:0:0:0:0:
109,192,236723,1,0,0:0:0:0:
36,192,236723,128,0,236898:0:0:0:0:
256,192,236723,1,0,0:0:0:0:
182,192,236898,1,0,0:0:0:0:
402,192,236985,128,0,237247:0:0:0:0:
182,192,236985,1,0,0:0:0:0:
109,192,237072,1,0,0:0:0:0:
256,192,237072,1,0,0:0:0:0:
36,192,237072,1,0,0:0:0:0:
36,192,237247,128,0,237334:0:0:0:0:
182,192,237247,128,0,237334:0:0:0:0:
329,192,237247,1,0,0:0:0:0:
402,192,237334,1,0,0:0:0:0:
109,192,237421,1,0,0:0:0:0:
475,192,237421,1,0,0:0:0:0:
256,192,237421,1,0,0:0:0:0:
36,192,237421,128,0,237770:0:0:0:0:
329,192,237508,1,0,0:0:0:0:
402,192,237596,1,0,0:0:0:0:
475,192,237596,1,0,0:0:0:0:
182,192,237596,1,0,0:0:0:0:
256,192,237683,1,0,0:0:0:0:
182,192,237770,128,0,238032:0:0:0:0:
329,192,237770,128,0,238032:0:0:0:0:
402,192,237886,128,0,238032:0:0:0:0:
109,192,237886,128,0,238032:0:0:0:0:
475,192,238119,128,0,238468:0:0:0:0:
36,192,238119,128,0,238468:0:0:0:0:
329,192,238119,1,0,0:0:0:0:
182,192,238119,1,0,0:0:0:0:
182,192,238293,1,0,0:0:0:0:
329,192,238293,1,0,0:0:0:0:
256,192,238380,1,0,0:0:0:0:
182,192,238468,1,0,0:0:0:0:
329,192,238468,1,0,0:0:0:0:
402,192,238555,1,0,0:0:0:0:
109,192,238555,1,0,0:0:0:0:
36,192,238642,1,0,0:0:0:0:
475,192,238642,1,0,0:0:0:0:
329,192,238642,128,0,238816:0:0:0:0:
182,192,238642,128,0,238816:0:0:0:0:
475,192,238816,1,0,0:0:0:0:
36,192,238816,1,0,0:0:0:0:
256,192,238816,128,0,239165:0:0:0:0:
402,192,238991,1,0,0:0:0:0:
109,192,238991,1,0,0:0:0:0:
182,192,239078,1,0,0:0:0:0:
329,192,239078,1,0,0:0:0:0:
109,192,239165,1,0,0:0:0:0:
402,192,239165,1,0,0:0:0:0:
36,192,239340,1,0,0:0:0:0:
475,192,239340,1,0,0:0:0:0:
109,192,239340,128,0,239514:0:0:0:0:
402,192,239340,128,0,239514:0:0:0:0:
182,192,239427,1,0,0:0:0:0:
329,192,239427,1,0,0:0:0:0:
475,192,239514,1,0,0:0:0:0:
36,192,239514,1,0,0:0:0:0:
256,192,239514,128,0,239863:0:0:0:0:
329,192,239863,128,0,240212:0:0:0:0:
182,192,239863,128,0,240212:0:0:0:0:
402,192,240037,128,0,240212:0:0:0:0:
109,192,240037,128,0,240212:0:0:0:0:
36,192,240212,1,0,0:0:0:0:
475,192,240212,1,0,0:0:0:0:
182,192,240299,1,0,0:0:0:0:
329,192,240299,1,0,0:0:0:0:
475,192,240386,128,0,240822:0:0:0:0:
36,192,240386,128,0,240822:0:0:0:0:
256,192,240386,1,0,0:0:0:0:
256,192,240561,1,0,0:0:0:0:
109,192,240561,1,0,0:0:0:0:
402,192,240561,1,0,0:0:0:0:
182,192,240735,128,0,240822:0:0:0:0:
329,192,240735,128,0,240822:0:0:0:0:
256,192,240735,1,0,0:0:0:0:
475,192,240910,128,0,241433:0:0:0:0:
329,192,240910,1,0,0:0:0:0:
182,192,240910,1,0,0:0:0:0:
402,192,240910,1,0,0:0:0:0:
36,192,240953,1,0,0:0:0:0:
256,192,240997,1,0,0:0:0:0:
109,192,241040,1,0,0:0:0:0:
329,192,241084,1,0,0:0:0:0:
182,192,241128,1,0,0:0:0:0:
256,192,241171,1,0,0:0:0:0:
402,192,241171,128,0,241433:0:0:0:0:
109,192,241215,1,0,0:0:0:0:
182,192,241258,1,0,0:0:0:0:
36,192,241258,1,0,0:0:0:0:
329,192,241258,1,0,0:0:0:0:
36,192,241433,128,0,241520:0:0:0:0:
109,192,241433,128,0,241520:0:0:0:0:
256,192,241433,1,0,0:0:0:0:
329,192,241520,1,0,0:0:0:0:
36,192,241607,128,0,242130:0:0:0:0:
182,192,241607,1,0,0:0:0:0:
402,192,241607,1,0,0:0:0:0:
475,192,241607,1,0,0:0:0:0:
256,192,241694,1,0,0:0:0:0:
329,192,241782,1,0,0:0:0:0:
475,192,241782,1,0,0:0:0:0:
182,192,241869,128,0,242130:0:0:0:0:
109,192,241869,1,0,0:0:0:0:
329,192,241956,1,0,0:0:0:0:
402,192,241956,1,0,0:0:0:0:
475,192,241956,1,0,0:0:0:0:
256,192,242043,1,0,0:0:0:0:
402,192,242130,128,0,242218:0:0:0:0:
475,192,242130,128,0,242218:0:0:0:0:
109,192,242130,1,0,0:0:0:0:
182,192,242218,1,0,0:0:0:0:
475,192,242305,128,0,242828:0:0:0:0:
329,192,242305,1,0,0:0:0:0:
256,192,242305,1,0,0:0:0:0:
36,192,242305,128,0,242479:0:0:0:0:
256,192,242479,1,0,0:0:0:0:
402,192,242566,128,0,242828:0:0:0:0:
256,192,242566,1,0,0:0:0:0:
109,192,242654,1,0,0:0:0:0:
182,192,242654,1,0,0:0:0:0:
329,192,242654,1,0,0:0:0:0:
182,192,242828,128,0,242915:0:0:0:0:
36,192,242828,128,0,242915:0:0:0:0:
256,192,242828,1,0,0:0:0:0:
329,192,242915,1,0,0:0:0:0:
36,192,243003,128,0,243351:0:0:0:0:
109,192,243003,1,0,0:0:0:0:
402,192,243003,1,0,0:0:0:0:
475,192,243003,1,0,0:0:0:0:
182,192,243090,1,0,0:0:0:0:
256,192,243177,1,0,0:0:0:0:
402,192,243177,1,0,0:0:0:0:
182,192,243264,1,0,0:0:0:0:
329,192,243351,128,0,243613:0:0:0:0:
475,192,243351,128,0,243613:0:0:0:0:
182,192,243526,128,0,243613:0:0:0:0:
36,192,243526,128,0,243613:0:0:0:0:
329,192,243700,128,0,244223:0:0:0:0:
402,192,243700,1,0,0:0:0:0:
36,192,243700,1,0,0:0:0:0:
475,192,243700,1,0,0:0:0:0:
109,192,243744,1,0,0:0:0:0:
182,192,243787,1,0,0:0:0:0:
256,192,243831,1,0,0:0:0:0:
36,192,243875,1,0,0:0:0:0:
109,192,243933,1,0,0:0:0:0:
402,192,243962,128,0,244223:0:0:0:0:
182,192,243991,1,0,0:0:0:0:
36,192,244049,1,0,0:0:0:0:
256,192,244049,1,0,0:0:0:0:
475,192,244049,1,0,0:0:0:0:
182,192,244223,128,0,244311:0:0:0:0:
36,192,244223,128,0,244311:0:0:0:0:
475,192,244223,1,0,0:0:0:0:
402,192,244311,1,0,0:0:0:0:
182,192,244398,128,0,244921:0:0:0:0:
109,192,244398,1,0,0:0:0:0:
329,192,244398,1,0,0:0:0:0:
36,192,244398,1,0,0:0:0:0:
402,192,244485,1,0,0:0:0:0:
475,192,244572,1,0,0:0:0:0:
256,192,244572,1,0,0:0:0:0:
109,192,244660,128,0,244921:0:0:0:0:
36,192,244660,1,0,0:0:0:0:
329,192,244747,1,0,0:0:0:0:
475,192,244747,1,0,0:0:0:0:
402,192,244747,1,0,0:0:0:0:
256,192,244834,1,0,0:0:0:0:
329,192,244921,128,0,245008:0:0:0:0:
402,192,244921,128,0,245008:0:0:0:0:
36,192,244921,1,0,0:0:0:0:
182,192,245008,1,0,0:0:0:0:
475,192,245096,1,0,0:0:0:0:
109,192,245096,128,0,245444:0:0:0:0:
402,192,245096,128,0,245444:0:0:0:0:
256,192,245096,1,0,0:0:0:0:
36,192,245096,1,0,0:0:0:0:
329,192,245444,128,0,245793:0:0:0:0:
182,192,245444,128,0,245793:0:0:0:0:
475,192,245619,1,0,0:0:0:0:
36,192,245619,1,0,0:0:0:0:
36,192,245793,128,0,246142:0:0:0:0:
475,192,245793,128,0,246142:0:0:0:0:
402,192,245793,1,0,0:0:0:0:
256,192,245793,1,0,0:0:0:0:
109,192,245793,1,0,0:0:0:0:
329,192,245968,128,0,246142:0:0:0:0:
182,192,245968,128,0,246142:0:0:0:0:
402,192,246142,1,0,0:0:0:0:
109,192,246142,1,0,0:0:0:0:
256,192,246142,1,0,0:0:0:0:
402,192,246258,1,0,0:0:0:0:
109,192,246258,1,0,0:0:0:0:
182,192,246375,1,0,0:0:0:0:
329,192,246375,1,0,0:0:0:0:
36,192,246491,128,0,247014:0:0:0:0:
182,192,246491,1,0,0:0:0:0:
329,192,246491,1,0,0:0:0:0:
109,192,246491,1,0,0:0:0:0:
475,192,246535,1,0,0:0:0:0:
256,192,246578,1,0,0:0:0:0:
402,192,246622,1,0,0:0:0:0:
182,192,246665,1,0,0:0:0:0:
329,192,246709,1,0,0:0:0:0:
256,192,246753,1,0,0:0:0:0:
109,192,246753,128,0,247014:0:0:0:0:
402,192,246796,1,0,0:0:0:0:
182,192,246840,1,0,0:0:0:0:
329,192,246840,1,0,0:0:0:0:
475,192,246840,1,0,0:0:0:0:
475,192,247014,128,0,247101:0:0:0:0:
402,192,247014,128,0,247101:0:0:0:0:
256,192,247014,1,0,0:0:0:0:
182,192,247101,1,0,0:0:0:0:
475,192,247189,128,0,247712:0:0:0:0:
329,192,247189,1,0,0:0:0:0:
36,192,247189,1,0,0:0:0:0:
109,192,247189,1,0,0:0:0:0:
256,192,247276,1,0,0:0:0:0:
182,192,247363,1,0,0:0:0:0:
109,192,247363,1,0,0:0:0:0:
402,192,247450,128,0,247712:0:0:0:0:
256,192,247450,1,0,0:0:0:0:
109,192,247537,1,0,0:0:0:0:
36,192,247537,1,0,0:0:0:0:
329,192,247625,1,0,0:0:0:0:
182,192,247625,1,0,0:0:0:0:
109,192,247712,128,0,247799:0:0:0:0:
36,192,247712,128,0,247799:0:0:0:0:
256,192,247712,1,0,0:0:0:0:
329,192,247799,1,0,0:0:0:0:
182,192,247799,1,0,0:0:0:0:
36,192,247886,128,0,248410:0:0:0:0:
402,192,247886,1,0,0:0:0:0:
475,192,247886,128,0,248061:0:0:0:0:
256,192,247886,1,0,0:0:0:0:
329,192,248061,1,0,0:0:0:0:
109,192,248148,128,0,248410:0:0:0:0:
329,192,248148,1,0,0:0:0:0:
402,192,248235,1,0,0:0:0:0:
475,192,248235,1,0,0:0:0:0:
256,192,248235,1,0,0:0:0:0:
475,192,248410,128,0,248497:0:0:0:0:
329,192,248410,128,0,248497:0:0:0:0:
182,192,248410,1,0,0:0:0:0:
109,192,248497,1,0,0:0:0:0:
329,192,248584,1,0,0:0:0:0:
402,192,248584,1,0,0:0:0:0:
36,192,248584,1,0,0:0:0:0:
475,192,248584,128,0,248758:0:0:0:0:
182,192,248671,1,0,0:0:0:0:
256,192,248758,128,0,249282:0:0:0:0:
402,192,248758,128,0,248846:0:0:0:0:
109,192,248758,128,0,248846:0:0:0:0:
109,192,248933,128,0,249282:0:0:0:0:
402,192,248933,128,0,249282:0:0:0:0:
329,192,249282,1,0,0:0:0:0:
475,192,249282,1,0,0:0:0:0:
36,192,249282,128,0,249456:0:0:0:0:
182,192,249282,128,0,249456:0:0:0:0:
256,192,249543,128,0,249630:0:0:0:0:
109,192,249543,128,0,249630:0:0:0:0:
329,192,249805,128,0,249892:0:0:0:0:
182,192,249805,128,0,249892:0:0:0:0:
475,192,250023,128,0,250154:0:0:0:0:
329,192,250023,128,0,250154:0:0:0:0:
402,192,250328,128,0,250415:0:0:0:0:
256,192,250328,128,0,250415:0:0:0:0:
329,192,250590,128,0,250851:0:0:0:0:
182,192,250590,128,0,250851:0:0:0:0:
475,192,250677,128,0,252072:0:0:0:0:
109,192,251142,128,0,251375:0:0:0:0:
256,192,251142,128,0,251375:0:0:0:0:
402,192,251200,128,0,252072:0:0:0:0:
329,192,251723,128,0,252072:0:0:0:0:
109,192,252072,1,0,0:0:0:0:
256,192,252072,1,0,0:0:0:0:
36,192,252072,1,0,0:0:0:0:
182,192,252247,128,0,256258:0:0:0:0:
36,192,252363,128,0,256258:0:0:0:0:
