osu file format v14

[General]
AudioFilename: audio.mp3
AudioLeadIn: 0
PreviewTime: 119328
Countdown: 1
SampleSet: Normal
StackLeniency: 0.7
Mode: 0
LetterboxInBreaks: 0
WidescreenStoryboard: 0

[Editor]
DistanceSpacing: 0.4
BeatDivisor: 4
GridSize: 16
TimelineZoom: 1.8

[Metadata]
Title:Young
TitleUnicode:Young
Artist:Hollywood Undead
ArtistUnicode:Hollywood Undead
Creator:IFT Seb
Version:Easy WIP
Source:
Tags:HollywoodUndead Hollywood Undead HU Young
BeatmapID:1416337
BeatmapSetID:669589

[Difficulty]
HPDrainRate:3
CircleSize:3
OverallDifficulty:4
ApproachRate:4
SliderMultiplier:1.4
SliderTickRate:1

[Events]
//Background and Video events
0,0,"background.png",0,0
//Break Periods
//Storyboard Layer 0 (Background)
//Storyboard Layer 1 (Fail)
//Storyboard Layer 2 (Pass)
//Storyboard Layer 3 (Foreground)
//Storyboard Sound Samples

[TimingPoints]
0,447.761194029851,4,1,0,100,1,0
28208,-128.205128205128,4,1,0,100,0,0
32798,-100,4,1,0,100,0,0
69402,-100,4,1,0,100,0,1
84626,-100,4,1,0,100,0,0
114179,-55.5555555555556,4,1,0,100,0,0
115749,-100,4,1,0,100,0,0
122462,-133.333333333333,4,1,0,100,0,0
124141,-100,4,1,0,100,0,0
125149,-50,4,1,0,100,0,0

[HitObjects]
48,80,5373,6,0,P|176:128|344:136,1,280
304,288,7164,2,0,P|168:268|56:160,1,280
36,88,8955,5,0,0:0:0:0:
156,96,9850,1,0,0:0:0:0:
236,196,10746,1,0,0:0:0:0:
88,164,11641,6,0,L|176:120,3,70
224,80,13432,6,0,B|220:156|220:156|400:264,1,280
296,160,15223,5,0,0:0:0:0:
164,60,16119,1,0,0:0:0:0:
44,192,17014,1,0,0:0:0:0:
208,320,17910,1,0,0:0:0:0:
64,84,18805,6,0,B|56:140|56:140|240:272,1,280
56,244,20597,2,0,B|116:176|116:176|256:304,1,280
336,220,22388,5,0,0:0:0:0:
248,104,23283,1,0,0:0:0:0:
80,80,24179,1,0,0:0:0:0:
8,212,25074,6,0,B|48:324|116:124|240:260|240:260|296:228|296:228|324:276|324:276|504:264,1,560
128,96,28656,6,0,P|256:96|352:144,1,218.400007331543
432,256,30447,2,0,P|288:240|208:288,1,218.400007331543
112,240,32238,1,0,0:0:0:0:
416,192,33134,5,0,0:0:0:0:
208,160,34029,2,0,P|336:304|416:320,1,280
448,112,35820,2,0,P|336:192|208:144,1,280
256,80,37611,5,0,0:0:0:0:
256,208,38507,1,0,0:0:0:0:
128,128,39402,1,0,0:0:0:0:
64,240,40298,1,0,0:0:0:0:
208,272,40746,2,0,L|288:320,2,70
336,208,42089,5,0,0:0:0:0:
304,80,42985,1,0,0:0:0:0:
160,80,43880,1,0,0:0:0:0:
32,112,44776,2,0,B|112:208|112:208|240:336,1,280
352,256,46567,6,0,L|256:144,1,140
192,80,47462,2,0,B|160:80|160:80|128:112,2,70
112,128,49253,5,0,0:0:0:0:
32,208,50149,2,0,B|144:288|144:288|288:336,1,280
160,80,51940,2,0,B|288:112|288:112|448:192,1,280
368,272,53731,5,0,0:0:0:0:
240,256,54626,2,0,B|112:192|112:192|0:80,1,280
160,64,56417,1,0,0:0:0:0:
272,64,57313,2,0,L|272:144,1,70
160,144,58208,5,0,0:0:0:0:
96,208,59104,2,0,L|96:304,1,70
208,224,60000,1,0,0:0:0:0:
304,176,60895,6,0,B|304:128|304:128|272:128,1,70
160,144,61791,2,0,B|160:192|160:192|112:192,1,70
240,144,62686,2,0,L|240:64,1,70
160,64,63582,5,0,0:0:0:0:
96,160,64477,2,0,L|192:160,1,70
256,160,65373,1,0,0:0:0:0:
208,224,66268,6,0,B|209:274|209:274|240:253|240:253|240:256,1,70
160,112,67164,1,0,0:0:0:0:
128,144,68059,2,0,B|160:192|160:192|224:128|224:128|288:192|288:192|304:240|304:240,1,280
464,112,69850,6,0,L|368:224,1,140
176,208,70746,1,0,0:0:0:0:
176,208,71194,2,0,B|113:136|113:136|176:96,1,140
336,96,72089,1,0,0:0:0:0:
336,96,72537,2,0,B|352:176|240:208|160:224|192:320,1,280
96,64,74328,6,0,B|128:144|128:144|80:192|80:192,1,140
208,208,75223,2,0,L|272:80,1,140
368,48,76119,2,0,B|304:144|402:195|480:224|432:320,1,280
240,160,77462,1,0,0:0:0:0:
96,32,77910,2,0,L|16:320,1,280
128,320,79701,5,0,0:0:0:0:
240,320,80597,1,0,0:0:0:0:
176,192,81492,1,0,0:0:0:0:
272,96,82388,1,0,0:0:0:0:
48,80,83283,2,0,B|144:112|159:166|176:224|272:240,1,280
304,96,85074,5,0,0:0:0:0:
192,80,85970,2,0,L|192:160,1,70
352,160,86865,1,0,0:0:0:0:
336,224,87761,6,0,L|240:224,1,70
32,144,88656,1,0,0:0:0:0:
192,112,89552,2,0,B|191:157|191:157|160:192,1,70
272,160,90447,2,0,B|272:96|272:96|288:80,1,70
352,144,91343,2,0,B|353:192|353:192|320:208,1,70
112,272,92238,5,0,0:0:0:0:
176,288,93134,2,0,L|272:256,1,70
240,128,94029,1,0,0:0:0:0:
64,192,94925,2,0,B|64:144|64:144|112:160|112:160|256:32,1,280
336,64,96716,6,0,L|320:144,1,70
240,80,97611,2,0,L|272:160,1,70
416,144,98507,2,0,L|352:208,1,70
288,192,99402,1,0,0:0:0:0:
224,80,100298,6,0,B|208:96|208:96|160:64|160:64|176:128|176:128|80:240,1,280
256,192,102089,2,0,L|256:272,1,70
288,64,102985,6,0,B|400:96|400:96|352:240|352:240|304:224|304:224|304:272|304:272|193:313|193:313|120:338|120:338|80:304|80:304|68:350|68:350|32:368,1,700
0,336,105671,5,0,0:0:0:0:
16,288,106567,1,0,0:0:0:0:
48,240,107462,2,0,L|128:176,1,70
176,96,108358,1,0,0:0:0:0:
368,48,109253,6,0,B|336:96|336:96|128:224,1,280
112,80,111044,2,0,L|176:112,1,70
256,48,111940,2,0,L|288:128,2,70
192,32,112835,2,0,L|112:64,1,70
64,96,113731,1,0,0:0:0:0:
96,128,114626,6,0,B|128:144|128:144|192:96|192:96|224:176|224:176|272:96|272:96|288:160|288:160|352:96|352:96|432:96,1,503.999984619141
464,16,115970,1,0,0:0:0:0:
480,112,116417,1,0,0:0:0:0:
448,208,116865,2,0,L|400:352,1,140
256,192,117761,12,0,119104,0:0:0:0:
160,80,120000,5,0,0:0:0:0:
272,96,120447,2,0,B|302:157|302:157|240:224,1,140
128,160,121343,1,0,0:0:0:0:
128,48,121791,2,0,L|288:32,1,140
352,48,122686,2,0,L|288:112,4,70
352,160,124477,2,0,P|298:213|256:176,1,131.25000500679
64,208,125373,2,0,B|112:240|112:240|166:221|224:224|224:224|320:304,1,280
320,112,126268,2,0,L|64:240,1,280
128,96,127164,2,0,L|352:272,1,280
256,112,128059,2,0,B|160:96|172:172|192:240|32:256,2,280
352,80,129850,1,0,0:0:0:0:
240,144,130746,1,0,0:0:0:0:
368,208,131641,1,0,0:0:0:0:
256,192,132089,12,0,133880,0:0:0:0:
