osu file format v14

[General]
AudioFilename: audio.mp3
AudioLeadIn: 0
PreviewTime: 109110
Countdown: 0
SampleSet: Normal
StackLeniency: 0.7
Mode: 0
LetterboxInBreaks: 0
StoryFireInFront: 0
WidescreenStoryboard: 1

[Editor]
Bookmarks: 735,3121,70282
DistanceSpacing: 0.95
BeatDivisor: 4
GridSize: 8
TimelineZoom: 2.499999

[Metadata]
Title:Whatever It Takes
TitleUnicode:Whatever It Takes
Artist:Hollywood Undead
ArtistUnicode:Hollywood Undead
Creator:hu4lifefllwer
Version:Insane
Source:"V"
Tags:hu; army; 2017; usa; american; five; rap; rock; rap-core; V;hollywood; undead; hollywood undead; whatever; it; takes; whatever it takes; rap; rapcore; rock;j-dog;johnny 3 tears; j3t; charlie scene; danny; funny man; da; kurlzz;
BeatmapID:1608246
BeatmapSetID:667151

[Difficulty]
HPDrainRate:6
CircleSize:4
OverallDifficulty:7
ApproachRate:9
SliderMultiplier:1.6
SliderTickRate:2

[Events]
//Background and Video events
0,0,"6kue21nA4wA.jpg",0,0
//Break Periods
2,55139,62567
//Storyboard Layer 0 (Background)
//Storyboard Layer 1 (Fail)
//Storyboard Layer 2 (Pass)
//Storyboard Layer 3 (Foreground)
//Storyboard Sound Samples

[TimingPoints]
82,342.857142857143,4,1,1,68,1,0
11053,-66.6666666666667,4,1,1,68,0,0
65910,-66.6666666666667,4,1,1,68,0,1
76882,-66.6666666666667,4,1,1,68,0,0
109796,-50,4,1,1,68,0,1
131739,-66.6666666666667,4,1,1,68,0,0

[Colours]
Combo1 : 91,91,91
Combo2 : 255,0,0
Combo3 : 192,192,192
Combo4 : 188,160,67

[HitObjects]
120,112,82,5,0,0:0:0:0:
328,216,424,1,0,0:0:0:0:
400,88,596,1,0,0:0:0:0:
488,216,767,1,0,0:0:0:0:
112,168,1110,5,0,0:0:0:0:
200,320,1282,1,0,0:0:0:0:
272,168,1453,1,0,0:0:0:0:
408,160,1796,5,0,0:0:0:0:
216,160,1967,1,0,0:0:0:0:
312,336,2139,1,0,0:0:0:0:
64,64,2482,5,0,0:0:0:0:
96,232,2653,1,0,0:0:0:0:
248,120,2824,1,0,0:0:0:0:
416,320,3167,5,0,0:0:0:0:
448,160,3339,1,0,0:0:0:0:
272,200,3510,1,0,0:0:0:0:
88,136,3853,5,0,0:0:0:0:
224,32,4024,1,0,0:0:0:0:
272,192,4196,1,0,0:0:0:0:
448,128,4539,5,0,0:0:0:0:
384,296,4710,1,0,0:0:0:0:
256,160,4882,1,0,0:0:0:0:
96,96,5224,5,0,0:0:0:0:
312,120,5396,1,0,0:0:0:0:
192,256,5567,1,0,0:0:0:0:
104,128,5910,5,0,0:0:0:0:
112,232,6082,2,0,P|136:288|184:304,1,80
312,312,6424,1,0,0:0:0:0:
312,152,6596,1,0,0:0:0:0:
224,40,6767,1,0,0:0:0:0:
104,128,6939,1,0,0:0:0:0:
348,130,7282,6,0,L|427:78,2,80
160,128,7796,1,0,0:0:0:0:
216,256,7967,1,0,0:0:0:0:
368,312,8139,1,0,0:0:0:0:
348,130,8310,1,0,0:0:0:0:
84,79,8653,6,0,P|93:132|122:154,1,80
160,96,8996,2,0,P|184:128|184:168,1,80
152,272,9339,1,0,0:0:0:0:
304,304,9510,1,0,0:0:0:0:
352,160,9682,1,0,0:0:0:0:
130,113,10024,5,0,0:0:0:0:
336,72,10196,1,0,0:0:0:0:
232,232,10367,1,0,0:0:0:0:
392,232,10539,1,0,0:0:0:0:
408,112,10710,2,0,P|376:72|336:72,1,80
256,160,11053,1,0,0:0:0:0:
96,168,11396,6,0,P|113:185|113:185,12,20
216,296,11910,1,0,0:0:0:0:
320,168,12082,1,0,0:0:0:0:
192,80,12253,1,0,0:0:0:0:
376,32,12424,1,0,0:0:0:0:
320,176,12596,1,0,0:0:0:0:
448,256,12767,1,0,0:0:0:0:
320,176,12939,2,0,L|200:152,1,120.000004577637
240,264,13453,6,0,P|154:251|120:264,2,120.000004577637
368,224,13967,1,0,0:0:0:0:
280,112,14139,2,0,P|268:95|267:95,12,20
102,174,14653,1,0,0:0:0:0:
280,112,14824,1,0,0:0:0:0:
288,296,14996,1,0,0:0:0:0:
480,208,15167,1,0,0:0:0:0:
384,56,15339,1,0,0:0:0:0:
224,160,15510,2,0,P|312:192|352:192,1,120.000004577637
464,232,15853,1,0,0:0:0:0:
420,93,16196,6,0,P|360:65|216:144,1,240.000009155274
337,192,16710,1,0,0:0:0:0:
376,312,16882,2,0,P|378:329|378:329,16,15.0000005722046
224,280,17396,1,0,0:0:0:0:
112,192,17567,1,0,0:0:0:0:
200,80,17739,1,0,0:0:0:0:
360,72,17910,1,0,0:0:0:0:
432,216,18082,1,0,0:0:0:0:
256,280,18253,2,0,L|214:334,2,60.0000022888184
200,128,18596,1,0,0:0:0:0:
440,32,18939,1,0,0:0:0:0:
392,227,19282,6,0,L|387:208,16,15.0000005722046
305,125,19796,1,0,0:0:0:0:
180,203,19967,2,0,L|162:214,16,15.0000005722046
184,67,20482,1,0,0:0:0:0:
347,72,20653,1,0,0:0:0:0:
272,232,20824,1,0,0:0:0:0:
464,232,20996,1,0,0:0:0:0:
347,72,21167,1,0,0:0:0:0:
171,102,21339,2,0,P|153:117|168:208,1,120.000004577637
280,288,21682,1,0,0:0:0:0:
391,81,22024,5,0,0:0:0:0:
204,84,22367,1,0,0:0:0:0:
127,170,22539,1,0,0:0:0:0:
211,256,22710,1,0,0:0:0:0:
287,175,22882,1,0,0:0:0:0:
362,85,23053,1,0,0:0:0:0:
439,176,23224,1,0,0:0:0:0:
374,274,23396,1,0,0:0:0:0:
87,95,23739,5,0,0:0:0:0:
151,219,23910,1,0,0:0:0:0:
202,89,24082,1,0,0:0:0:0:
151,219,24253,1,0,0:0:0:0:
271,221,24424,1,0,0:0:0:0:
322,92,24596,1,0,0:0:0:0:
436,92,24767,1,0,0:0:0:0:
384,320,25110,5,0,0:0:0:0:
256,288,25282,1,0,0:0:0:0:
192,192,25453,1,0,0:0:0:0:
232,80,25624,1,0,0:0:0:0:
368,80,25796,1,0,0:0:0:0:
416,192,25967,1,0,0:0:0:0:
368,288,26139,1,0,0:0:0:0:
40,172,26482,5,0,0:0:0:0:
120,272,26653,1,0,0:0:0:0:
189,176,26824,1,0,0:0:0:0:
257,74,26996,1,0,0:0:0:0:
328,161,27167,1,0,0:0:0:0:
409,268,27339,1,0,0:0:0:0:
480,160,27510,1,0,0:0:0:0:
90,67,27853,5,0,0:0:0:0:
256,224,28024,1,0,0:0:0:0:
264,65,28196,1,0,0:0:0:0:
89,234,28367,1,0,0:0:0:0:
256,224,28539,1,0,0:0:0:0:
416,224,28710,1,0,0:0:0:0:
416,64,28882,1,0,0:0:0:0:
65,99,29224,5,0,0:0:0:0:
160,224,29396,1,0,0:0:0:0:
256,96,29567,1,0,0:0:0:0:
389,224,29739,1,0,0:0:0:0:
285,329,29910,1,0,0:0:0:0:
160,224,30082,1,0,0:0:0:0:
56,67,30253,2,0,P|61:85|61:85,8,15.0000005722046
157,84,30596,6,0,P|162:99|162:99,8,15.0000005722046
256,96,30939,6,0,P|263:112|263:112,8,15.0000005722046
358,117,31282,6,0,P|363:132|363:132,8,15.0000005722046
90,108,31624,5,0,0:0:0:0:
96,224,31796,1,0,0:0:0:0:
209,268,31967,1,0,0:0:0:0:
451,45,32310,1,0,0:0:0:0:
64,192,32996,5,0,0:0:0:0:
248,56,33339,1,0,0:0:0:0:
320,176,33510,1,0,0:0:0:0:
392,56,33682,1,0,0:0:0:0:
488,288,34024,1,0,0:0:0:0:
352,344,34367,1,0,0:0:0:0:
224,288,34710,1,0,0:0:0:0:
128,192,35053,1,0,0:0:0:0:
232,104,35396,1,0,0:0:0:0:
352,24,35739,5,0,0:0:0:0:
456,192,36082,1,0,0:0:0:0:
384,328,36253,1,0,0:0:0:0:
328,192,36424,1,0,0:0:0:0:
200,336,36767,1,0,0:0:0:0:
96,248,37110,1,0,0:0:0:0:
120,112,37453,1,0,0:0:0:0:
240,40,37796,1,0,0:0:0:0:
360,104,38139,1,0,0:0:0:0:
240,192,38482,1,0,0:0:0:0:
392,344,38824,5,0,0:0:0:0:
472,224,38996,1,0,0:0:0:0:
328,224,39167,1,0,0:0:0:0:
392,48,39510,1,0,0:0:0:0:
200,40,39853,5,0,0:0:0:0:
64,128,40196,1,0,0:0:0:0:
224,128,40539,1,0,0:0:0:0:
288,256,40882,1,0,0:0:0:0:
472,176,41224,1,0,0:0:0:0:
352,48,41567,1,0,0:0:0:0:
192,72,41910,1,0,0:0:0:0:
104,176,42253,1,0,0:0:0:0:
204,295,42596,6,0,P|213:280|213:279,8,15.0000005722046
325,288,42939,6,0,L|331:267,8,15.0000005722046
256,201,43282,6,0,L|272:185,8,15.0000005722046
376,176,43624,6,0,L|388:161,8,15.0000005722046
307,84,43967,5,0,0:0:0:0:
300,313,44310,1,0,0:0:0:0:
385,214,44482,1,0,0:0:0:0:
301,128,44653,1,0,0:0:0:0:
192,72,44824,1,0,0:0:0:0:
192,208,44996,1,0,0:0:0:0:
80,128,45167,1,0,0:0:0:0:
80,288,45339,1,0,0:0:0:0:
425,289,45682,5,0,0:0:0:0:
355,162,45853,1,0,0:0:0:0:
299,47,46024,1,0,0:0:0:0:
355,162,46196,1,0,0:0:0:0:
208,161,46367,1,0,0:0:0:0:
127,59,46539,1,0,0:0:0:0:
48,168,46710,1,0,0:0:0:0:
128,64,47053,5,0,0:0:0:0:
288,64,47224,1,0,0:0:0:0:
208,161,47396,1,0,0:0:0:0:
264,288,47567,1,0,0:0:0:0:
408,288,47739,1,0,0:0:0:0:
472,160,47910,1,0,0:0:0:0:
384,64,48082,1,0,0:0:0:0:
216,48,48424,5,0,0:0:0:0:
312,152,48596,1,0,0:0:0:0:
400,256,48767,1,0,0:0:0:0:
288,336,48939,1,0,0:0:0:0:
192,248,49110,1,0,0:0:0:0:
120,144,49282,1,0,0:0:0:0:
40,256,49453,1,0,0:0:0:0:
392,320,49796,5,0,0:0:0:0:
328,168,49967,1,0,0:0:0:0:
256,320,50139,1,0,0:0:0:0:
192,176,50310,1,0,0:0:0:0:
256,32,50482,1,0,0:0:0:0:
192,176,50653,1,0,0:0:0:0:
112,320,50824,1,0,0:0:0:0:
512,256,51167,5,0,0:0:0:0:
416,128,51339,1,0,0:0:0:0:
320,256,51510,1,0,0:0:0:0:
160,256,51682,1,0,0:0:0:0:
256,128,51853,1,0,0:0:0:0:
160,256,52024,1,0,0:0:0:0:
109,100,52196,2,0,P|104:82|104:82,8,15.0000005722046
77,214,52539,6,0,P|72:199|72:199,8,15.0000005722046
192,278,52882,6,0,P|185:262|185:262,8,15.0000005722046
211,168,53224,6,0,P|206:153|206:153,8,15.0000005722046
350,240,53567,5,0,0:0:0:0:
416,160,53739,1,0,0:0:0:0:
310,126,53910,1,0,0:0:0:0:
130,148,54253,1,0,0:0:0:0:
124,260,54424,1,0,0:0:0:0:
234,285,54596,1,0,0:0:0:0:
348,134,54939,1,0,0:0:0:0:
256,192,63167,12,0,65910,0:0:0:0:
289,42,66253,6,0,P|272:59|272:59,12,20
480,176,66767,1,0,0:0:0:0:
352,256,66939,1,0,0:0:0:0:
192,256,67110,1,0,0:0:0:0:
192,96,67282,1,0,0:0:0:0:
352,96,67453,1,0,0:0:0:0:
192,96,67624,1,0,0:0:0:0:
64,192,67796,2,0,L|64:64,1,120.000004577637
184,160,68310,6,0,P|197:90|168:56,2,120.000004577637
240,288,68824,1,0,0:0:0:0:
344,176,68996,2,0,P|361:164|361:163,8,20
200,32,69510,1,0,0:0:0:0:
368,56,69682,1,0,0:0:0:0:
256,176,69853,1,0,0:0:0:0:
256,328,70024,1,0,0:0:0:0:
112,248,70196,1,0,0:0:0:0:
96,112,70367,2,0,P|200:32|200:32,1,120.000004577637
320,32,70710,1,0,0:0:0:0:
384,352,71053,6,0,P|412:292|368:128,1,240.000009155274
256,32,71567,1,0,0:0:0:0:
256,192,71739,2,0,P|239:194|239:194,16,15.0000005722046
128,96,72253,1,0,0:0:0:0:
256,32,72424,1,0,0:0:0:0:
384,96,72596,1,0,0:0:0:0:
384,256,72767,1,0,0:0:0:0:
256,320,72939,1,0,0:0:0:0:
256,160,73110,2,0,P|278:173|278:173,12,20
256,192,73796,1,0,0:0:0:0:
221,328,74139,6,0,L|240:323,16,15.0000005722046
352,280,74653,1,0,0:0:0:0:
224,216,74824,2,0,L|242:205,16,15.0000005722046
352,136,75339,1,0,0:0:0:0:
248,32,75510,1,0,0:0:0:0:
136,96,75682,1,0,0:0:0:0:
120,224,75853,1,0,0:0:0:0:
240,320,76024,1,0,0:0:0:0:
416,256,76196,2,0,P|401:238|304:216,1,120.000004577637
424,128,76539,1,0,0:0:0:0:
128,320,76882,5,0,0:0:0:0:
360,288,77224,1,0,0:0:0:0:
464,200,77396,1,0,0:0:0:0:
368,104,77567,1,0,0:0:0:0:
232,96,77739,1,0,0:0:0:0:
152,200,77910,1,0,0:0:0:0:
72,96,78082,1,0,0:0:0:0:
0,208,78253,1,0,0:0:0:0:
424,304,78596,5,0,0:0:0:0:
360,160,78767,1,0,0:0:0:0:
288,304,78939,1,0,0:0:0:0:
224,160,79110,1,0,0:0:0:0:
224,40,79282,1,0,0:0:0:0:
227,159,79453,1,0,0:0:0:0:
128,256,79624,1,0,0:0:0:0:
128,64,79967,5,0,0:0:0:0:
320,64,80139,1,0,0:0:0:0:
224,176,80310,1,0,0:0:0:0:
328,312,80482,1,0,0:0:0:0:
416,176,80653,1,0,0:0:0:0:
224,176,80824,1,0,0:0:0:0:
320,64,80996,1,0,0:0:0:0:
472,212,81339,5,0,0:0:0:0:
392,328,81510,1,0,0:0:0:0:
232,328,81682,1,0,0:0:0:0:
152,208,81853,1,0,0:0:0:0:
248,96,82024,1,0,0:0:0:0:
160,216,82196,1,0,0:0:0:0:
320,208,82367,1,0,0:0:0:0:
512,208,82710,5,0,0:0:0:0:
416,96,82882,1,0,0:0:0:0:
256,96,83053,1,0,0:0:0:0:
320,208,83224,1,0,0:0:0:0:
256,96,83396,1,0,0:0:0:0:
96,96,83567,1,0,0:0:0:0:
176,216,83739,1,0,0:0:0:0:
448,256,84082,5,0,0:0:0:0:
344,136,84253,1,0,0:0:0:0:
256,264,84424,1,0,0:0:0:0:
152,144,84596,1,0,0:0:0:0:
248,32,84767,1,0,0:0:0:0:
344,136,84939,1,0,0:0:0:0:
453,316,85110,2,0,P|451:299|451:299,12,10
353,297,85453,6,0,P|350:285|350:285,12,10
256,285,85796,6,0,P|249:272|249:272,12,10
153,265,86139,6,0,P|149:252|149:252,12,10
182,157,86824,5,0,0:0:0:0:
408,160,86996,1,0,0:0:0:0:
296,272,87167,1,0,0:0:0:0:
296,64,87510,1,0,0:0:0:0:
464,184,87853,5,0,0:0:0:0:
320,328,88196,1,0,0:0:0:0:
248,208,88367,1,0,0:0:0:0:
176,328,88539,1,0,0:0:0:0:
96,96,88882,1,0,0:0:0:0:
288,64,89224,1,0,0:0:0:0:
416,192,89567,1,0,0:0:0:0:
288,64,89910,1,0,0:0:0:0:
248,224,90253,1,0,0:0:0:0:
408,336,90596,5,0,0:0:0:0:
352,120,90939,1,0,0:0:0:0:
224,96,91110,1,0,0:0:0:0:
192,200,91282,1,0,0:0:0:0:
352,320,91624,1,0,0:0:0:0:
416,160,91967,1,0,0:0:0:0:
224,96,92310,1,0,0:0:0:0:
196,287,92653,1,0,0:0:0:0:
32,192,92996,1,0,0:0:0:0:
224,96,93339,1,0,0:0:0:0:
448,96,93682,5,0,0:0:0:0:
480,208,93853,1,0,0:0:0:0:
368,240,94024,1,0,0:0:0:0:
128,224,94367,1,0,0:0:0:0:
296,336,94710,5,0,0:0:0:0:
448,224,95053,1,0,0:0:0:0:
296,144,95396,1,0,0:0:0:0:
136,56,95739,1,0,0:0:0:0:
32,192,96082,1,0,0:0:0:0:
192,312,96424,1,0,0:0:0:0:
392,296,96767,1,0,0:0:0:0:
472,136,97110,1,0,0:0:0:0:
324,69,97453,6,0,P|316:81|316:82,12,10
196,124,97796,6,0,L|191:141,12,10
225,249,98139,6,0,L|215:263,12,10
366,183,98482,6,0,L|358:197,12,10
354,308,98824,5,0,0:0:0:0:
216,96,99167,1,0,0:0:0:0:
127,170,99339,1,0,0:0:0:0:
216,256,99510,1,0,0:0:0:0:
312,328,99682,1,0,0:0:0:0:
312,176,99853,1,0,0:0:0:0:
440,176,100024,1,0,0:0:0:0:
368,64,100196,1,0,0:0:0:0:
80,128,100539,5,0,0:0:0:0:
80,256,100710,1,0,0:0:0:0:
208,336,100882,1,0,0:0:0:0:
208,192,101053,1,0,0:0:0:0:
288,80,101224,1,0,0:0:0:0:
360,192,101396,1,0,0:0:0:0:
448,80,101567,1,0,0:0:0:0:
384,216,101910,5,0,0:0:0:0:
304,336,102082,1,0,0:0:0:0:
216,216,102253,1,0,0:0:0:0:
224,88,102424,1,0,0:0:0:0:
104,152,102596,1,0,0:0:0:0:
32,264,102767,1,0,0:0:0:0:
152,328,102939,1,0,0:0:0:0:
256,328,103282,5,0,0:0:0:0:
368,256,103453,1,0,0:0:0:0:
256,176,103624,1,0,0:0:0:0:
256,32,103796,1,0,0:0:0:0:
384,112,103967,1,0,0:0:0:0:
496,184,104139,1,0,0:0:0:0:
384,112,104310,1,0,0:0:0:0:
256,264,104653,5,0,0:0:0:0:
128,176,104824,1,0,0:0:0:0:
256,80,104996,1,0,0:0:0:0:
392,176,105167,1,0,0:0:0:0:
392,336,105339,1,0,0:0:0:0:
256,264,105510,1,0,0:0:0:0:
256,80,105682,1,0,0:0:0:0:
128,72,106024,5,0,0:0:0:0:
104,200,106196,1,0,0:0:0:0:
240,200,106367,1,0,0:0:0:0:
384,120,106539,1,0,0:0:0:0:
384,248,106710,1,0,0:0:0:0:
256,192,106882,1,0,0:0:0:0:
304,312,107053,2,0,P|308:326|308:326,12,10
436,175,107396,6,0,P|440:185|440:185,12,10
280,72,107739,6,0,P|283:86|283:86,12,10
176,200,108082,6,0,P|181:214|181:214,12,10
168,120,108424,5,0,0:0:0:0:
72,232,108596,1,0,0:0:0:0:
208,272,108767,1,0,0:0:0:0:
384,232,109110,1,0,0:0:0:0:
440,104,109282,1,0,0:0:0:0:
296,112,109453,1,0,0:0:0:0:
80,224,109796,6,0,B|73:287|128:312|160:320|217:279,1,160
168,208,110139,1,0,0:0:0:0:
368,280,110482,1,0,0:0:0:0:
448,200,110653,1,0,0:0:0:0:
336,144,110824,1,0,0:0:0:0:
200,280,111167,5,0,0:0:0:0:
112,224,111339,1,0,0:0:0:0:
112,112,111510,1,0,0:0:0:0:
208,56,111682,1,0,0:0:0:0:
288,112,111853,1,0,0:0:0:0:
288,232,112024,1,0,0:0:0:0:
400,176,112196,2,0,L|448:352,1,160
464,80,112539,5,0,0:0:0:0:
288,112,112710,2,0,L|136:176,1,160
160,144,113224,1,0,0:0:0:0:
104,243,113396,1,0,0:0:0:0:
208,288,113567,1,0,0:0:0:0:
392,221,113910,5,0,0:0:0:0:
431,101,114082,1,0,0:0:0:0:
307,53,114253,1,0,0:0:0:0:
256,176,114424,2,0,L|96:240,1,160
96,112,114767,1,0,0:0:0:0:
41,227,114939,1,0,0:0:0:0:
144,304,115110,1,0,0:0:0:0:
336,316,115282,5,0,0:0:0:0:
436,230,115453,1,0,0:0:0:0:
320,187,115624,1,0,0:0:0:0:
183,243,115967,1,0,0:0:0:0:
86,161,116139,1,0,0:0:0:0:
192,96,116310,1,0,0:0:0:0:
353,100,116653,5,0,0:0:0:0:
394,196,116824,1,0,0:0:0:0:
288,240,116996,1,0,0:0:0:0:
240,128,117167,1,0,0:0:0:0:
104,136,117339,1,0,0:0:0:0:
96,256,117510,1,0,0:0:0:0:
208,320,117682,1,0,0:0:0:0:
288,240,117853,1,0,0:0:0:0:
400,80,118024,5,0,0:0:0:0:
288,16,118196,1,0,0:0:0:0:
248,128,118367,1,0,0:0:0:0:
336,224,118539,1,0,0:0:0:0:
488,208,118710,1,0,0:0:0:0:
400,80,118882,1,0,0:0:0:0:
273,49,119053,1,0,0:0:0:0:
218,55,119139,1,0,0:0:0:0:
178,85,119224,1,0,0:0:0:0:
168,133,119310,1,0,0:0:0:0:
186,177,119396,1,0,0:0:0:0:
269,252,119567,1,0,0:0:0:0:
394,230,119739,1,0,0:0:0:0:
418,121,119910,1,0,0:0:0:0:
156,130,120253,6,0,L|82:94,2,80
256,48,120767,1,0,0:0:0:0:
408,32,120939,1,0,0:0:0:0:
400,168,121110,1,0,0:0:0:0:
288,192,121453,1,0,0:0:0:0:
416,288,121624,1,0,0:0:0:0:
256,336,121796,1,0,0:0:0:0:
128,112,122139,5,0,0:0:0:0:
128,224,122310,1,0,0:0:0:0:
235,260,122482,1,0,0:0:0:0:
240,160,122653,1,0,0:0:0:0:
336,96,122824,1,0,0:0:0:0:
336,208,122996,1,0,0:0:0:0:
464,208,123167,1,0,0:0:0:0:
464,96,123339,1,0,0:0:0:0:
336,96,123510,5,0,0:0:0:0:
192,112,123682,1,0,0:0:0:0:
214,234,123853,1,0,0:0:0:0:
336,96,124196,1,0,0:0:0:0:
416,176,124367,1,0,0:0:0:0:
320,240,124539,1,0,0:0:0:0:
128,96,124882,5,0,0:0:0:0:
103,243,125053,1,0,0:0:0:0:
272,192,125224,1,0,0:0:0:0:
272,320,125396,1,0,0:0:0:0:
272,192,125567,1,0,0:0:0:0:
345,87,125739,1,0,0:0:0:0:
272,192,125910,1,0,0:0:0:0:
388,288,126082,1,0,0:0:0:0:
266,184,126253,5,0,0:0:0:0:
138,105,126424,1,0,0:0:0:0:
86,218,126596,1,0,0:0:0:0:
207,282,126939,1,0,0:0:0:0:
339,326,127110,1,0,0:0:0:0:
381,224,127282,1,0,0:0:0:0:
87,182,127624,5,0,0:0:0:0:
135,65,127796,1,0,0:0:0:0:
209,189,127967,1,0,0:0:0:0:
276,62,128139,1,0,0:0:0:0:
326,195,128310,1,0,0:0:0:0:
258,314,128482,1,0,0:0:0:0:
145,312,128653,1,0,0:0:0:0:
82,184,128824,1,0,0:0:0:0:
204,192,128996,6,0,L|219:174,8,20
371,145,129339,6,0,L|352:125,8,20
183,87,129682,6,0,L|205:73,8,20
284,238,130024,6,0,L|267:222,8,20
381,231,130367,5,0,0:0:0:0:
416,196,130453,1,0,0:0:0:0:
422,159,130539,1,0,0:0:0:0:
404,120,130624,1,0,0:0:0:0:
364,102,130710,1,0,0:0:0:0:
322,112,130796,1,0,0:0:0:0:
295,139,130882,1,0,0:0:0:0:
266,174,130967,1,0,0:0:0:0:
229,203,131053,1,0,0:0:0:0:
191,195,131139,1,0,0:0:0:0:
183,145,131224,1,0,0:0:0:0:
199,103,131310,1,0,0:0:0:0:
234,74,131396,1,0,0:0:0:0:
384,48,131567,5,0,0:0:0:0:
448,160,131739,2,0,P|448:192|360:248,1,120.000004577637
208,304,132082,6,0,P|225:287|225:287,8,20
304,224,132596,1,0,0:0:0:0:
208,144,132767,1,0,0:0:0:0:
391,147,132939,1,0,0:0:0:0:
392,306,133110,1,0,0:0:0:0:
208,304,133282,1,0,0:0:0:0:
400,144,133453,1,0,0:0:0:0:
208,144,133624,2,0,L|96:256,1,120.000004577637
311,242,134139,6,0,P|316:297|368:352,2,120.000004577637
281,133,134653,1,0,0:0:0:0:
214,229,134824,2,0,P|201:242|201:242,16,15.0000005722046
176,112,135339,1,0,0:0:0:0:
88,256,135510,1,0,0:0:0:0:
312,264,135682,1,0,0:0:0:0:
392,120,135853,1,0,0:0:0:0:
448,256,136024,1,0,0:0:0:0:
256,256,136196,2,0,P|256:264|168:296,1,120.000004577637
64,208,136539,1,0,0:0:0:0:
152,24,136882,6,0,P|129:88|256:168,1,240.000009155274
224,80,137396,1,0,0:0:0:0:
315,204,137567,2,0,P|332:202|332:202,16,15.0000005722046
402,302,138082,1,0,0:0:0:0:
248,344,138253,1,0,0:0:0:0:
144,248,138424,1,0,0:0:0:0:
176,120,138596,1,0,0:0:0:0:
312,80,138767,1,0,0:0:0:0:
413,177,138939,2,0,L|480:280,2,120.000004577637
230,180,139624,1,0,0:0:0:0:
291,56,139967,6,0,L|272:61,16,15.0000005722046
184,80,140482,1,0,0:0:0:0:
324,137,140653,6,0,L|306:148,16,15.0000005722046
224,176,141167,1,0,0:0:0:0:
154,300,141339,1,0,0:0:0:0:
312,304,141510,1,0,0:0:0:0:
384,176,141682,1,0,0:0:0:0:
296,56,141853,1,0,0:0:0:0:
152,176,142024,2,0,P|167:194|187:200,1,40
312,288,142367,1,0,0:0:0:0:
391,81,142710,5,0,0:0:0:0:
168,88,143053,1,0,0:0:0:0:
79,183,143224,1,0,0:0:0:0:
168,288,143396,1,0,0:0:0:0:
320,296,143567,1,0,0:0:0:0:
248,192,143739,1,0,0:0:0:0:
408,184,143910,1,0,0:0:0:0:
320,88,144082,1,0,0:0:0:0:
56,120,144424,5,0,0:0:0:0:
139,227,144596,1,0,0:0:0:0:
240,120,144767,1,0,0:0:0:0:
336,216,144939,1,0,0:0:0:0:
240,328,145110,1,0,0:0:0:0:
448,328,145282,1,0,0:0:0:0:
448,168,145453,1,0,0:0:0:0:
448,320,145796,5,0,0:0:0:0:
256,320,145967,1,0,0:0:0:0:
352,224,146139,1,0,0:0:0:0:
256,128,146310,1,0,0:0:0:0:
144,224,146482,1,0,0:0:0:0:
352,224,146653,1,0,0:0:0:0:
256,128,146824,1,0,0:0:0:0:
144,128,147167,5,0,0:0:0:0:
256,32,147339,1,0,0:0:0:0:
368,128,147510,1,0,0:0:0:0:
256,224,147682,1,0,0:0:0:0:
384,336,147853,1,0,0:0:0:0:
480,224,148024,1,0,0:0:0:0:
368,128,148196,1,0,0:0:0:0:
80,80,148539,5,0,0:0:0:0:
240,214,148710,1,0,0:0:0:0:
240,80,148882,1,0,0:0:0:0:
80,224,149053,1,0,0:0:0:0:
176,336,149224,1,0,0:0:0:0:
336,336,149396,1,0,0:0:0:0:
416,208,149567,1,0,0:0:0:0:
52,148,149910,5,0,0:0:0:0:
144,240,150082,1,0,0:0:0:0:
224,144,150253,1,0,0:0:0:0:
304,240,150424,1,0,0:0:0:0:
400,144,150596,1,0,0:0:0:0:
224,144,150767,1,0,0:0:0:0:
59,68,150939,2,0,P|61:85|61:85,12,10
159,87,151282,6,0,P|162:99|162:99,12,10
256,99,151624,6,0,P|263:112|263:112,12,10
359,119,151967,6,0,P|363:132|363:132,12,10
280,240,152653,5,0,0:0:0:0:
128,224,152824,1,0,0:0:0:0:
192,112,152996,1,0,0:0:0:0:
451,45,153339,1,0,0:0:0:0:
80,224,153682,5,0,0:0:0:0:
216,48,154024,1,0,0:0:0:0:
288,144,154196,1,0,0:0:0:0:
360,48,154367,1,0,0:0:0:0:
464,256,154710,1,0,0:0:0:0:
316,340,155053,1,0,0:0:0:0:
320,176,155396,1,0,0:0:0:0:
176,256,155739,1,0,0:0:0:0:
176,96,156082,1,0,0:0:0:0:
336,32,156424,5,0,0:0:0:0:
432,160,156767,1,0,0:0:0:0:
352,240,156939,1,0,0:0:0:0:
272,160,157110,1,0,0:0:0:0:
128,272,157453,1,0,0:0:0:0:
32,160,157796,1,0,0:0:0:0:
160,48,158139,1,0,0:0:0:0:
256,176,158482,1,0,0:0:0:0:
432,176,158824,1,0,0:0:0:0:
336,320,159167,1,0,0:0:0:0:
128,288,159510,5,0,0:0:0:0:
64,192,159682,1,0,0:0:0:0:
176,128,159853,1,0,0:0:0:0:
384,128,160196,1,0,0:0:0:0:
384,288,160539,5,0,0:0:0:0:
256,144,160882,1,0,0:0:0:0:
112,144,161224,1,0,0:0:0:0:
352,272,161567,1,0,0:0:0:0:
464,112,161910,1,0,0:0:0:0:
256,112,162253,1,0,0:0:0:0:
64,112,162596,1,0,0:0:0:0:
160,256,162939,1,0,0:0:0:0:
160,256,163282,6,0,P|168:244|168:243,12,10
316,260,163624,6,0,L|321:243,12,10
256,144,163967,6,0,L|266:130,12,10
112,144,164310,6,0,L|120:130,12,10
158,76,164653,5,0,0:0:0:0:
300,313,164996,1,0,0:0:0:0:
400,224,165167,1,0,0:0:0:0:
304,144,165339,1,0,0:0:0:0:
192,64,165510,1,0,0:0:0:0:
176,192,165682,1,0,0:0:0:0:
56,256,165853,1,0,0:0:0:0:
160,336,166024,1,0,0:0:0:0:
416,336,166367,5,0,0:0:0:0:
416,208,166539,1,0,0:0:0:0:
352,80,166710,1,0,0:0:0:0:
288,208,166882,1,0,0:0:0:0:
224,80,167053,1,0,0:0:0:0:
96,80,167224,1,0,0:0:0:0:
96,208,167396,1,0,0:0:0:0:
416,48,167739,5,0,0:0:0:0:
261,55,167910,1,0,0:0:0:0:
208,161,168082,1,0,0:0:0:0:
293,234,168253,1,0,0:0:0:0:
404,281,168424,1,0,0:0:0:0:
480,192,168596,1,0,0:0:0:0:
368,128,168767,1,0,0:0:0:0:
256,48,169110,5,0,0:0:0:0:
344,128,169282,1,0,0:0:0:0:
288,224,169453,1,0,0:0:0:0:
208,320,169624,1,0,0:0:0:0:
112,240,169796,1,0,0:0:0:0:
120,120,169967,1,0,0:0:0:0:
120,120,170139,1,0,0:0:0:0:
416,280,170482,5,0,0:0:0:0:
328,168,170653,1,0,0:0:0:0:
256,280,170824,1,0,0:0:0:0:
168,160,170996,1,0,0:0:0:0:
248,48,171167,1,0,0:0:0:0:
408,48,171339,1,0,0:0:0:0:
496,176,171510,1,0,0:0:0:0:
416,304,171853,5,0,0:0:0:0:
416,160,172024,1,0,0:0:0:0:
305,240,172196,1,0,0:0:0:0:
164,240,172367,1,0,0:0:0:0:
253,142,172539,1,0,0:0:0:0:
324,46,172710,1,0,0:0:0:0:
160,64,172882,2,0,P|156:50|156:50,12,10
80,160,173224,6,0,P|76:150|76:150,12,10
192,224,173567,6,0,P|189:210|189:210,12,10
272,128,173910,6,0,P|267:114|267:114,12,10
352,272,174253,5,0,0:0:0:0:
416,160,174424,1,0,0:0:0:0:
304,96,174596,1,0,0:0:0:0:
130,148,174939,1,0,0:0:0:0:
124,260,175110,1,0,0:0:0:0:
234,285,175282,1,0,0:0:0:0:
395,164,175624,5,0,0:0:0:0:
203,84,175967,1,0,0:0:0:0:
126,170,176139,1,0,0:0:0:0:
210,256,176310,1,0,0:0:0:0:
286,175,176482,1,0,0:0:0:0:
361,85,176653,1,0,0:0:0:0:
438,176,176824,1,0,0:0:0:0:
373,274,176996,1,0,0:0:0:0:
86,95,177339,5,0,0:0:0:0:
150,219,177510,1,0,0:0:0:0:
201,89,177682,1,0,0:0:0:0:
150,219,177853,1,0,0:0:0:0:
270,221,178024,1,0,0:0:0:0:
321,92,178196,1,0,0:0:0:0:
435,92,178367,1,0,0:0:0:0:
412,301,178710,5,0,0:0:0:0:
272,304,178882,1,0,0:0:0:0:
176,192,179053,1,0,0:0:0:0:
256,80,179224,1,0,0:0:0:0:
400,80,179396,1,0,0:0:0:0:
496,192,179567,1,0,0:0:0:0:
412,301,179739,1,0,0:0:0:0:
39,172,180082,5,0,0:0:0:0:
119,272,180253,1,0,0:0:0:0:
192,176,180424,1,0,0:0:0:0:
256,64,180596,1,0,0:0:0:0:
336,176,180767,1,0,0:0:0:0:
416,288,180939,1,0,0:0:0:0:
496,176,181110,1,0,0:0:0:0:
400,48,181453,5,0,0:0:0:0:
336,176,181624,1,0,0:0:0:0:
224,80,181796,1,0,0:0:0:0:
112,176,181967,1,0,0:0:0:0:
240,272,182139,1,0,0:0:0:0:
336,176,182310,1,0,0:0:0:0:
448,64,182482,1,0,0:0:0:0:
96,112,182824,5,0,0:0:0:0:
177,213,182996,1,0,0:0:0:0:
283,92,183167,1,0,0:0:0:0:
388,224,183339,1,0,0:0:0:0:
284,329,183510,1,0,0:0:0:0:
177,213,183682,1,0,0:0:0:0:
59,67,183853,2,0,P|60:85|60:85,12,10
159,88,184196,6,0,P|161:99|161:99,12,10
258,98,184539,6,0,P|262:112|262:112,12,10
357,119,184882,6,0,P|362:132|362:132,12,10
89,108,185224,5,0,0:0:0:0:
95,224,185396,1,0,0:0:0:0:
208,268,185567,1,0,0:0:0:0:
450,45,185910,1,0,0:0:0:0:
304,48,186082,1,0,0:0:0:0:
373,192,186253,1,0,0:0:0:0:
232,191,186424,1,0,0:0:0:0:
