osu file format v14

[General]
AudioFilename: audio.mp3
AudioLeadIn: 0
PreviewTime: 109110
Countdown: 0
SampleSet: Normal
StackLeniency: 0.7
Mode: 0
LetterboxInBreaks: 0
StoryFireInFront: 0
WidescreenStoryboard: 1

[Editor]
Bookmarks: 735,3121
DistanceSpacing: 0.95
BeatDivisor: 4
GridSize: 16
TimelineZoom: 2.499999

[Metadata]
Title:Whatever It Takes
TitleUnicode:Whatever It Takes
Artist:Hollywood Undead
ArtistUnicode:Hollywood Undead
Creator:hu4lifefllwer
Version:Hard
Source:"V"
Tags:hu; army; 2017; usa; american; five; rap; rock; rap-core; V;hollywood; undead; hollywood undead; whatever; it; takes; whatever it takes; rap; rapcore; rock;j-dog;johnny 3 tears; j3t; charlie scene; danny; funny man; da; kurlzz;
BeatmapID:1608248
BeatmapSetID:667151

[Difficulty]
HPDrainRate:4
CircleSize:4
OverallDifficulty:5
ApproachRate:7
SliderMultiplier:1.6
SliderTickRate:2

[Events]
//Background and Video events
0,0,"xMag8fB9POs.jpg",0,0
//Break Periods
2,55139,62267
//Storyboard Layer 0 (Background)
//Storyboard Layer 1 (Fail)
//Storyboard Layer 2 (Pass)
//Storyboard Layer 3 (Foreground)
//Storyboard Sound Samples

[TimingPoints]
82,342.857142857143,4,1,1,68,1,0
11053,-66.6666666666667,4,1,1,68,0,0
65910,-66.6666666666667,4,1,1,68,0,1
76882,-66.6666666666667,4,1,1,68,0,0
109796,-50,4,1,1,68,0,1
131739,-50,4,1,1,68,0,0

[Colours]
Combo1 : 91,91,91
Combo2 : 255,0,0
Combo3 : 192,192,192
Combo4 : 188,160,67

[HitObjects]
96,128,82,5,0,0:0:0:0:
128,224,424,2,0,P|128:288|160:288,2,80
224,128,1110,5,0,0:0:0:0:
256,96,1282,1,0,0:0:0:0:
288,64,1453,1,0,0:0:0:0:
384,128,1796,6,0,L|384:224,1,80
384,288,2139,1,0,0:0:0:0:
192,256,2482,5,0,0:0:0:0:
256,192,2653,1,0,0:0:0:0:
192,128,2824,1,0,0:0:0:0:
288,64,3167,5,0,0:0:0:0:
384,64,3339,1,0,0:0:0:0:
448,128,3510,1,0,0:0:0:0:
256,192,3853,6,0,L|192:256,2,80
288,64,4539,6,0,P|384:64|384:64,2,80
128,96,5224,5,0,0:0:0:0:
64,224,5567,1,0,0:0:0:0:
288,224,5910,5,0,0:0:0:0:
384,192,6082,2,0,P|416:160|416:128,1,80
320,96,6596,6,0,P|320:32|352:32,2,80
352,192,7282,5,0,0:0:0:0:
384,224,7453,1,0,0:0:0:0:
416,256,7624,1,0,0:0:0:0:
288,288,7967,6,0,L|192:288,2,80
96,224,8653,5,0,0:0:0:0:
64,160,8824,1,0,0:0:0:0:
96,96,8996,1,0,0:0:0:0:
256,32,9339,5,0,0:0:0:0:
320,32,9510,1,0,0:0:0:0:
364,75,9682,1,0,0:0:0:0:
416,192,10024,5,0,0:0:0:0:
352,256,10367,1,0,0:0:0:0:
256,288,10710,1,0,0:0:0:0:
160,256,11053,5,0,0:0:0:0:
113,98,11396,5,0,0:0:0:0:
192,96,11567,2,0,L|320:96,1,120.000004577637
291,176,12082,5,0,0:0:0:0:
160,224,12424,1,0,0:0:0:0:
96,128,12767,2,0,P|128:64|192:64,1,120.000004577637
256,64,13110,1,0,0:0:0:0:
416,96,13453,6,0,L|416:224,2,120.000004577637
288,192,14139,1,0,0:0:0:0:
320,64,14482,6,0,L|192:96,1,120.000004577637
128,128,14824,1,0,0:0:0:0:
256,224,15167,1,0,0:0:0:0:
128,320,15510,2,0,L|256:352,2,120.000004577637
224,224,16196,5,0,0:0:0:0:
64,256,16367,2,0,P|64:192|128:128,1,120.000004577637
224,64,16882,1,0,0:0:0:0:
352,160,17224,1,0,0:0:0:0:
448,96,17396,1,0,0:0:0:0:
448,224,17567,1,0,0:0:0:0:
192,64,17910,1,0,0:0:0:0:
96,224,18253,1,0,0:0:0:0:
288,224,18596,1,0,0:0:0:0:
416,96,18939,1,0,0:0:0:0:
64,128,19282,5,0,0:0:0:0:
128,64,19453,1,0,0:0:0:0:
224,96,19624,1,0,0:0:0:0:
128,224,19967,1,0,0:0:0:0:
224,256,20139,1,0,0:0:0:0:
288,192,20310,1,0,0:0:0:0:
192,96,20653,5,0,0:0:0:0:
384,224,20996,1,0,0:0:0:0:
416,64,21339,5,0,0:0:0:0:
192,256,21682,1,0,0:0:0:0:
96,128,22024,5,0,0:0:0:0:
160,256,22367,1,0,0:0:0:0:
224,288,22539,1,0,0:0:0:0:
288,256,22710,1,0,0:0:0:0:
224,96,23053,6,0,L|352:96,2,120.000004577637
32,160,23739,6,0,L|160:192,1,120.000004577637
256,192,24082,1,0,0:0:0:0:
352,64,24424,1,0,0:0:0:0:
417,206,24767,5,0,0:0:0:0:
182,312,25110,5,0,0:0:0:0:
96,288,25282,1,0,0:0:0:0:
123,197,25453,1,0,0:0:0:0:
288,64,25796,6,0,P|288:192|288:192,2,120.000004577637
112,128,26482,5,0,0:0:0:0:
64,224,26653,1,0,0:0:0:0:
160,224,26824,1,0,0:0:0:0:
320,256,27167,1,0,0:0:0:0:
416,32,27510,5,0,0:0:0:0:
128,96,27853,1,0,0:0:0:0:
116,181,28024,1,0,0:0:0:0:
205,183,28196,1,0,0:0:0:0:
320,48,28539,6,0,L|416:128,1,120.000004577637
416,224,28882,1,0,0:0:0:0:
96,192,29224,6,0,L|96:320,2,120.000004577637
224,96,29910,1,0,0:0:0:0:
352,16,30253,2,0,L|352:144,1,120.000004577637
448,96,30596,2,0,L|448:224,1,120.000004577637
352,288,30939,1,0,0:0:0:0:
96,288,31282,1,0,0:0:0:0:
224,128,31967,6,0,L|96:64,2,120.000004577637
352,32,32996,6,0,P|368:112|304:176,1,180.000006866455
176,304,33682,1,0,0:0:0:0:
80,336,33853,1,0,0:0:0:0:
64,240,34024,1,0,0:0:0:0:
256,64,34367,5,0,0:0:0:0:
416,96,34710,1,0,0:0:0:0:
386,236,35053,5,0,0:0:0:0:
320,288,35224,1,0,0:0:0:0:
259,233,35396,1,0,0:0:0:0:
32,112,35739,2,0,P|128:160|192:128,1,180.000006866455
319,68,36424,1,0,0:0:0:0:
366,151,36596,1,0,0:0:0:0:
448,96,36767,1,0,0:0:0:0:
191,151,37110,5,0,0:0:0:0:
336,80,37453,1,0,0:0:0:0:
416,256,37796,5,0,0:0:0:0:
352,320,37967,1,0,0:0:0:0:
256,288,38139,1,0,0:0:0:0:
96,208,38482,2,0,P|160:176|208:80,1,180.000006866455
80,80,39167,1,0,0:0:0:0:
320,80,39510,2,0,P|384:144|480:144,1,180.000006866455
128,160,40196,6,0,L|192:288,1,120.000004577637
224,160,40539,2,0,L|288:272,1,120.000004577637
320,144,40882,2,0,B|288:80|288:80|112:80,1,240.000009155274
160,192,41567,1,0,0:0:0:0:
64,272,41739,1,0,0:0:0:0:
176,304,41910,1,0,0:0:0:0:
384,256,42253,1,0,0:0:0:0:
278,136,42596,1,0,0:0:0:0:
128,128,42939,6,0,L|32:32,2,120.000004577637
224,240,43624,1,0,0:0:0:0:
304,80,43967,1,0,0:0:0:0:
416,192,44310,1,0,0:0:0:0:
480,256,44482,1,0,0:0:0:0:
416,320,44653,1,0,0:0:0:0:
224,320,44996,6,0,L|160:208,2,120.000004577637
96,288,45682,6,0,L|32:176,1,120.000004577637
112,128,46024,1,0,0:0:0:0:
258,44,46367,5,0,0:0:0:0:
411,105,46710,1,0,0:0:0:0:
416,256,47053,1,0,0:0:0:0:
336,320,47224,1,0,0:0:0:0:
271,258,47396,1,0,0:0:0:0:
128,192,47739,6,0,L|64:80,2,120.000004577637
224,96,48424,6,0,L|352:96,1,120.000004577637
423,165,48767,1,0,0:0:0:0:
338,267,49110,5,0,0:0:0:0:
249,328,49282,1,0,0:0:0:0:
170,255,49453,1,0,0:0:0:0:
128,96,49796,6,0,L|16:16,2,120.000004577637
112,192,50482,5,0,0:0:0:0:
192,288,50653,1,0,0:0:0:0:
240,192,50824,1,0,0:0:0:0:
385,91,51167,5,0,0:0:0:0:
480,160,51339,1,0,0:0:0:0:
384,208,51510,1,0,0:0:0:0:
240,320,51853,5,0,0:0:0:0:
88,223,52196,1,0,0:0:0:0:
80,64,52539,1,0,0:0:0:0:
256,128,52882,1,0,0:0:0:0:
400,48,53224,1,0,0:0:0:0:
352,272,53567,6,0,L|208:256,2,120.000004577637
432,176,54253,1,0,0:0:0:0:
448,64,54424,1,0,0:0:0:0:
336,80,54596,1,0,0:0:0:0:
128,128,54939,5,0,0:0:0:0:
256,192,63167,12,0,64882,0:0:0:0:
64,64,65224,5,0,0:0:0:0:
80,160,65396,1,0,0:0:0:0:
181,124,65567,1,0,0:0:0:0:
352,48,65910,5,0,0:0:0:0:
416,160,66253,2,0,B|336:176|320:256|320:320|384:368,1,240.000009155274
464,272,66939,1,0,0:0:0:0:
240,320,67282,1,0,0:0:0:0:
160,208,67624,1,0,0:0:0:0:
48,208,67796,1,0,0:0:0:0:
96,112,67967,1,0,0:0:0:0:
264,100,68310,6,0,B|312:52|392:68|424:84|456:164,1,240.000009155274
328,224,68996,1,0,0:0:0:0:
280,312,69167,1,0,0:0:0:0:
392,312,69339,1,0,0:0:0:0:
144,160,69682,1,0,0:0:0:0:
432,160,70024,1,0,0:0:0:0:
256,32,70367,1,0,0:0:0:0:
256,32,70539,1,0,0:0:0:0:
256,32,70710,1,0,0:0:0:0:
48,160,71053,5,0,0:0:0:0:
160,304,71396,1,0,0:0:0:0:
320,224,71739,1,0,0:0:0:0:
224,160,72082,2,0,L|288:112,4,60.0000022888184
96,64,72767,5,0,0:0:0:0:
80,224,73110,1,0,0:0:0:0:
96,320,73282,1,0,0:0:0:0:
192,272,73453,1,0,0:0:0:0:
384,192,73796,1,0,0:0:0:0:
97,125,74139,6,0,P|115:109|113:105,6,20
288,128,74482,1,0,0:0:0:0:
191,265,74824,2,0,L|212:264,6,20
352,240,75167,1,0,0:0:0:0:
448,96,75510,1,0,0:0:0:0:
176,224,75853,1,0,0:0:0:0:
416,320,76196,1,0,0:0:0:0:
224,48,76539,1,0,0:0:0:0:
64,176,76882,5,0,0:0:0:0:
160,320,77224,1,0,0:0:0:0:
256,320,77396,1,0,0:0:0:0:
208,240,77567,1,0,0:0:0:0:
288,160,77910,6,0,L|176:80,2,120.000004577637
384,96,78596,6,0,P|416:64|480:0,2,120.000004577637
352,256,79282,1,0,0:0:0:0:
160,256,79624,5,0,0:0:0:0:
112,112,79967,2,0,L|224:64,1,120.000004577637
288,112,80310,1,0,0:0:0:0:
384,192,80653,5,0,0:0:0:0:
384,288,80824,1,0,0:0:0:0:
288,256,80996,1,0,0:0:0:0:
96,96,81339,6,0,L|192:176,2,120.000004577637
64,208,82024,5,0,0:0:0:0:
288,192,82367,5,0,0:0:0:0:
208,112,82710,5,0,0:0:0:0:
256,32,82882,1,0,0:0:0:0:
336,80,83053,1,0,0:0:0:0:
288,224,83396,5,0,0:0:0:0:
240,320,83567,1,0,0:0:0:0:
160,256,83739,1,0,0:0:0:0:
192,128,84082,6,0,L|80:48,2,120.000004577637
320,128,84767,1,0,0:0:0:0:
64,160,85110,5,0,0:0:0:0:
128,224,85282,1,0,0:0:0:0:
192,160,85453,1,0,0:0:0:0:
256,224,85624,1,0,0:0:0:0:
320,160,85796,1,0,0:0:0:0:
384,224,85967,1,0,0:0:0:0:
448,160,86139,1,0,0:0:0:0:
182,99,86482,5,0,0:0:0:0:
96,128,86653,1,0,0:0:0:0:
128,212,86824,1,0,0:0:0:0:
352,288,87167,1,0,0:0:0:0:
352,96,87510,1,0,0:0:0:0:
48,48,87853,6,0,L|160:112,1,120.000004577637
224,144,88196,1,0,0:0:0:0:
368,256,88539,1,0,0:0:0:0:
336,336,88710,2,0,P|288:288|304:192,1,120.000004577637
96,320,89224,1,0,0:0:0:0:
96,128,89567,1,0,0:0:0:0:
480,32,89910,6,0,L|368:112,1,120.000004577637
320,144,90253,1,0,0:0:0:0:
320,320,90596,1,0,0:0:0:0:
208,224,90939,1,0,0:0:0:0:
144,288,91110,1,0,0:0:0:0:
102,210,91282,1,0,0:0:0:0:
146,85,91624,2,0,L|256:32,2,120.000004577637
102,210,92310,1,0,0:0:0:0:
352,304,92653,1,0,0:0:0:0:
304,192,92824,1,0,0:0:0:0:
400,224,92996,1,0,0:0:0:0:
512,64,93339,6,0,L|391:41,1,120.000004577637
304,64,93682,1,0,0:0:0:0:
368,208,94024,1,0,0:0:0:0:
311,270,94196,2,0,P|273:288|176:240,1,120.000004577637
256,96,94710,1,0,0:0:0:0:
127,259,95053,5,0,0:0:0:0:
64,210,95224,1,0,0:0:0:0:
127,150,95396,1,0,0:0:0:0:
259,75,95739,1,0,0:0:0:0:
312,206,96082,1,0,0:0:0:0:
400,256,96253,1,0,0:0:0:0:
336,320,96424,1,0,0:0:0:0:
144,320,96767,1,0,0:0:0:0:
64,236,96939,2,0,P|59:194|144:144,1,120.000004577637
240,48,97453,5,0,0:0:0:0:
352,48,97796,2,0,L|342:178,1,120.000004577637
314,244,98139,1,0,0:0:0:0:
128,288,98482,1,0,0:0:0:0:
78,128,98824,5,0,0:0:0:0:
240,64,99167,1,0,0:0:0:0:
288,144,99339,1,0,0:0:0:0:
352,64,99510,1,0,0:0:0:0:
480,128,99853,6,0,L|396:220,1,120.000004577637
351,270,100196,1,0,0:0:0:0:
131,145,100539,5,0,0:0:0:0:
100,216,100710,1,0,0:0:0:0:
180,237,100882,1,0,0:0:0:0:
362,108,101224,1,0,0:0:0:0:
143,65,101567,5,0,0:0:0:0:
93,190,101910,1,0,0:0:0:0:
127,284,102082,1,0,0:0:0:0:
222,241,102253,1,0,0:0:0:0:
264,113,102596,6,0,L|384:64,1,120.000004577637
400,160,102939,1,0,0:0:0:0:
271,223,103282,6,0,L|192:320,2,120.000004577637
162,149,103967,1,0,0:0:0:0:
368,94,104310,5,0,0:0:0:0:
304,208,104653,2,0,P|344:296|333:302,2,120.000004577637
192,224,105339,5,0,0:0:0:0:
160,320,105510,1,0,0:0:0:0:
78,261,105682,1,0,0:0:0:0:
131,116,106024,5,0,0:0:0:0:
192,32,106196,1,0,0:0:0:0:
256,112,106367,1,0,0:0:0:0:
432,48,106710,1,0,0:0:0:0:
484,170,107053,5,0,0:0:0:0:
431,243,107224,1,0,0:0:0:0:
361,183,107396,1,0,0:0:0:0:
288,233,107567,1,0,0:0:0:0:
264,140,107739,1,0,0:0:0:0:
111,91,108082,1,0,0:0:0:0:
180,137,109110,2,0,L|182:128,24,10
302,140,109796,5,0,0:0:0:0:
71,114,110139,1,0,0:0:0:0:
113,202,110310,1,0,0:0:0:0:
170,115,110482,1,0,0:0:0:0:
396,132,110824,5,0,0:0:0:0:
352,224,110996,1,0,0:0:0:0:
256,256,111167,2,0,P|294:323|400:336,2,160
161,215,111682,1,0,0:0:0:0:
96,128,111853,1,0,0:0:0:0:
301,114,112196,1,0,0:0:0:0:
447,73,112539,5,0,0:0:0:0:
413,247,112882,1,0,0:0:0:0:
327,324,113053,1,0,0:0:0:0:
288,224,113224,1,0,0:0:0:0:
160,304,113567,2,0,P|109:291|96:184,1,160
160,144,113910,1,0,0:0:0:0:
64,112,114082,1,0,0:0:0:0:
160,48,114253,1,0,0:0:0:0:
256,96,114424,1,0,0:0:0:0:
352,144,114596,1,0,0:0:0:0:
240,208,114939,1,0,0:0:0:0:
73,80,115282,5,0,0:0:0:0:
130,194,115624,2,0,L|0:320,2,160
240,304,116310,5,0,0:0:0:0:
368,336,116482,1,0,0:0:0:0:
340,210,116653,1,0,0:0:0:0:
227,183,116824,2,0,P|167:183|96:96,2,160
320,119,117339,1,0,0:0:0:0:
208,64,117682,1,0,0:0:0:0:
96,96,117853,1,0,0:0:0:0:
91,211,118024,1,0,0:0:0:0:
176,160,118196,1,0,0:0:0:0:
166,256,118367,5,0,0:0:0:0:
254,210,118539,1,0,0:0:0:0:
249,303,118710,1,0,0:0:0:0:
340,265,118882,1,0,0:0:0:0:
342,170,119053,1,0,0:0:0:0:
258,120,119224,1,0,0:0:0:0:
179,174,119396,1,0,0:0:0:0:
121,258,119567,1,0,0:0:0:0:
80,160,119739,2,0,P|112:80|192:96,1,160
256,16,120082,1,0,0:0:0:0:
328,164,120424,6,0,B|400:96|496:144,1,160
416,224,120767,1,0,0:0:0:0:
274,282,121110,1,0,0:0:0:0:
189,336,121282,1,0,0:0:0:0:
180,239,121453,1,0,0:0:0:0:
318,145,121796,5,0,0:0:0:0:
320,48,121967,1,0,0:0:0:0:
231,99,122139,1,0,0:0:0:0:
160,240,122482,1,0,0:0:0:0:
351,303,122824,1,0,0:0:0:0:
464,160,123167,1,0,0:0:0:0:
298,84,123510,5,0,0:0:0:0:
157,124,123853,1,0,0:0:0:0:
69,189,124024,1,0,0:0:0:0:
164,231,124196,1,0,0:0:0:0:
311,303,124539,1,0,0:0:0:0:
406,241,124710,1,0,0:0:0:0:
310,193,124882,1,0,0:0:0:0:
147,257,125224,1,0,0:0:0:0:
76,136,125567,1,0,0:0:0:0:
272,144,125910,1,0,0:0:0:0:
416,288,126253,5,0,0:0:0:0:
255,301,126596,1,0,0:0:0:0:
146,271,126767,1,0,0:0:0:0:
229,211,126939,1,0,0:0:0:0:
393,145,127282,1,0,0:0:0:0:
448,48,127453,1,0,0:0:0:0:
320,48,127624,1,0,0:0:0:0:
191,121,127967,1,0,0:0:0:0:
189,283,128310,1,0,0:0:0:0:
378,299,128653,1,0,0:0:0:0:
384,176,128996,5,0,0:0:0:0:
366,84,129167,1,0,0:0:0:0:
299,135,129339,1,0,0:0:0:0:
312,220,129510,1,0,0:0:0:0:
248,280,129682,1,0,0:0:0:0:
232,192,129853,1,0,0:0:0:0:
216,112,130024,1,0,0:0:0:0:
280,56,130196,1,0,0:0:0:0:
200,32,130367,1,0,0:0:0:0:
136,88,130539,1,0,0:0:0:0:
152,168,130710,1,0,0:0:0:0:
168,248,130882,1,0,0:0:0:0:
88,224,131053,1,0,0:0:0:0:
296,271,131224,6,0,L|464:232,2,160
186,285,131739,1,0,0:0:0:0:
98,187,132082,5,0,0:0:0:0:
55,102,132253,1,0,0:0:0:0:
153,102,132424,1,0,0:0:0:0:
300,160,132767,1,0,0:0:0:0:
179,243,133110,1,0,0:0:0:0:
339,281,133453,1,0,0:0:0:0:
433,272,133624,1,0,0:0:0:0:
426,176,133796,1,0,0:0:0:0:
320,192,134139,6,0,L|151:221,1,160
72,200,134482,1,0,0:0:0:0:
184,64,134824,1,0,0:0:0:0:
296,48,134996,1,0,0:0:0:0:
256,144,135167,1,0,0:0:0:0:
372,254,135510,1,0,0:0:0:0:
222,306,135853,1,0,0:0:0:0:
102,252,136196,1,0,0:0:0:0:
52,163,136367,1,0,0:0:0:0:
160,168,136539,1,0,0:0:0:0:
272,272,136882,6,0,P|391:183|397:166,1,160
392,80,137224,1,0,0:0:0:0:
164,103,137567,1,0,0:0:0:0:
89,177,137739,1,0,0:0:0:0:
191,205,137910,1,0,0:0:0:0:
337,114,138253,1,0,0:0:0:0:
397,247,138596,1,0,0:0:0:0:
258,250,138939,2,0,L|384:352,2,160
62,230,139624,5,0,0:0:0:0:
64,128,139796,1,0,0:0:0:0:
160,184,139967,1,0,0:0:0:0:
298,89,140310,1,0,0:0:0:0:
350,182,140482,1,0,0:0:0:0:
416,88,140653,1,0,0:0:0:0:
227,236,140996,1,0,0:0:0:0:
123,282,141167,1,0,0:0:0:0:
128,168,141339,1,0,0:0:0:0:
291,123,141682,1,0,0:0:0:0:
358,271,142024,5,0,0:0:0:0:
207,285,142367,1,0,0:0:0:0:
296,192,142710,1,0,0:0:0:0:
98,229,143053,2,0,P|73:182|104:72,1,160
176,152,143396,1,0,0:0:0:0:
312,240,143739,1,0,0:0:0:0:
376,328,143910,1,0,0:0:0:0:
424,232,144082,1,0,0:0:0:0:
95,130,144424,1,0,0:0:0:0:
192,193,144596,1,0,0:0:0:0:
203,86,144767,1,0,0:0:0:0:
371,143,145110,1,0,0:0:0:0:
337,272,145453,5,0,0:0:0:0:
202,316,145796,1,0,0:0:0:0:
73,332,145967,1,0,0:0:0:0:
121,232,146139,1,0,0:0:0:0:
368,209,146482,1,0,0:0:0:0:
420,118,146653,1,0,0:0:0:0:
302,123,146824,1,0,0:0:0:0:
194,245,147167,1,0,0:0:0:0:
76,252,147339,1,0,0:0:0:0:
136,138,147510,1,0,0:0:0:0:
47,55,147853,1,0,0:0:0:0:
229,63,148196,5,0,0:0:0:0:
317,137,148539,2,0,L|480:144,2,160
260,255,149224,1,0,0:0:0:0:
202,331,149396,1,0,0:0:0:0:
159,244,149567,1,0,0:0:0:0:
88,128,149910,5,0,0:0:0:0:
144,40,150082,2,0,P|166:79|272:104,1,160
112,312,150596,1,0,0:0:0:0:
104,152,150939,6,0,L|125:151,6,20
256,224,151282,2,0,L|277:223,6,20
256,72,151624,2,0,L|277:71,6,20
400,144,151967,2,0,L|421:143,6,20
368,296,152310,1,0,0:0:0:0:
160,288,152653,1,0,0:0:0:0:
160,96,152996,1,0,0:0:0:0:
160,288,153339,1,0,0:0:0:0:
472,352,153682,6,0,L|352:240,1,160
408,168,154025,1,0,0:0:0:0:
192,112,154368,1,0,0:0:0:0:
184,216,154539,2,0,P|216:248|176:352,1,160
360,40,155053,1,0,0:0:0:0:
352,224,155396,1,0,0:0:0:0:
96,312,155739,5,0,0:0:0:0:
216,216,156082,1,0,0:0:0:0:
264,80,156424,1,0,0:0:0:0:
344,24,156596,1,0,0:0:0:0:
400,104,156767,1,0,0:0:0:0:
288,208,157110,2,0,L|192:360,2,160
400,328,157796,1,0,0:0:0:0:
408,112,158139,1,0,0:0:0:0:
248,56,158482,1,0,0:0:0:0:
136,176,158824,1,0,0:0:0:0:
48,288,159168,6,0,L|209:359,1,160
200,264,159511,1,0,0:0:0:0:
200,120,159853,1,0,0:0:0:0:
288,64,160024,2,0,P|326:46|423:110,1,160
232,304,160539,5,0,0:0:0:0:
384,80,160882,1,0,0:0:0:0:
384,224,161225,1,0,0:0:0:0:
256,320,161568,1,0,0:0:0:0:
192,184,161911,1,0,0:0:0:0:
117,123,162082,1,0,0:0:0:0:
202,64,162253,1,0,0:0:0:0:
376,96,162596,1,0,0:0:0:0:
432,168,162767,2,0,P|437:210|344:292,1,160
192,336,163282,6,0,L|392:72,1,320
248,72,163968,1,0,0:0:0:0:
335,124,164311,1,0,0:0:0:0:
434,256,164653,5,0,0:0:0:0:
304,320,164996,1,0,0:0:0:0:
264,224,165168,1,0,0:0:0:0:
192,304,165339,1,0,0:0:0:0:
64,288,165682,6,0,L|168:160,1,160
120,80,166025,1,0,0:0:0:0:
381,239,166368,5,0,0:0:0:0:
432,152,166539,1,0,0:0:0:0:
332,147,166711,1,0,0:0:0:0:
150,276,167053,1,0,0:0:0:0:
369,319,167396,5,0,0:0:0:0:
419,194,167739,1,0,0:0:0:0:
384,96,167911,1,0,0:0:0:0:
290,143,168082,1,0,0:0:0:0:
248,271,168425,6,0,L|88:336,1,160
56,240,168768,1,0,0:0:0:0:
241,161,169111,6,0,L|352:40,2,160
350,235,169796,1,0,0:0:0:0:
144,290,170139,5,0,0:0:0:0:
193,159,170482,2,0,P|184:136|272:48,2,160
328,160,171168,5,0,0:0:0:0:
384,56,171339,1,0,0:0:0:0:
456,152,171511,1,0,0:0:0:0:
368,240,171853,5,0,0:0:0:0:
328,336,172025,1,0,0:0:0:0:
256,256,172196,1,0,0:0:0:0:
80,320,172539,1,0,0:0:0:0:
96,150,172882,5,0,0:0:0:0:
144,72,173053,1,0,0:0:0:0:
240,40,173225,1,0,0:0:0:0:
328,80,173396,1,0,0:0:0:0:
376,160,173568,1,0,0:0:0:0:
373,309,173911,1,0,0:0:0:0:
160,304,174253,1,0,0:0:0:0:
256,160,174596,1,0,0:0:0:0:
160,304,174939,5,0,0:0:0:0:
64,176,175282,1,0,0:0:0:0:
160,32,175624,1,0,0:0:0:0:
208,200,175967,5,0,0:0:0:0:
268,271,176139,1,0,0:0:0:0:
320,192,176310,1,0,0:0:0:0:
408,80,176653,1,0,0:0:0:0:
344,8,176824,1,0,0:0:0:0:
288,80,176996,1,0,0:0:0:0:
144,88,177339,1,0,0:0:0:0:
48,56,177510,1,0,0:0:0:0:
40,144,177682,1,0,0:0:0:0:
144,248,178024,5,0,0:0:0:0:
218,319,178196,1,0,0:0:0:0:
264,232,178367,1,0,0:0:0:0:
376,156,178710,2,0,L|480:296,2,160
368,40,179396,2,0,L|200:72,1,160
132,94,179739,1,0,0:0:0:0:
8,136,180082,6,0,L|116:259,1,160
216,280,180424,1,0,0:0:0:0:
376,252,180767,5,0,0:0:0:0:
440,176,180939,1,0,0:0:0:0:
344,152,181110,1,0,0:0:0:0:
143,68,181453,5,0,0:0:0:0:
48,136,181624,1,0,0:0:0:0:
152,176,181796,1,0,0:0:0:0:
240,272,182139,5,0,0:0:0:0:
328,344,182310,1,0,0:0:0:0:
368,240,182482,1,0,0:0:0:0:
144,153,182824,2,0,L|-32:96,2,160
293,91,183510,5,0,0:0:0:0:
408,72,183682,1,0,0:0:0:0:
368,176,183853,1,0,0:0:0:0:
136,176,184196,5,0,0:0:0:0:
88,280,184367,1,0,0:0:0:0:
208,256,184539,1,0,0:0:0:0:
328,144,184882,1,0,0:0:0:0:
368,40,185053,1,0,0:0:0:0:
448,128,185224,1,0,0:0:0:0:
248,176,185567,5,0,0:0:0:0:
336,96,185910,5,0,0:0:0:0:
176,256,186082,1,0,0:0:0:0:
176,96,186253,1,0,0:0:0:0:
336,256,186424,1,0,0:0:0:0:
