osu file format v14

[General]
AudioFilename: audio.mp3
AudioLeadIn: 0
PreviewTime: 109110
Countdown: 0
SampleSet: Normal
StackLeniency: 0.7
Mode: 0
LetterboxInBreaks: 0
StoryFireInFront: 0
WidescreenStoryboard: 1

[Editor]
Bookmarks: 735,767,3121,4441,5567,11053,22024,31624,43967,54939,65910,76882,86482,87853,97453,109796,120767,131739,142710,148196,153682,164653,174253
DistanceSpacing: 0.95
BeatDivisor: 4
GridSize: 8
TimelineZoom: 2.499999

[Metadata]
Title:Whatever It Takes
TitleUnicode:Whatever It Takes
Artist:Hollywood Undead
ArtistUnicode:Hollywood Undead
Creator:hu4lifefllwer
Version:Expert
Source:"V"
Tags:hu; army; 2017; usa; american; five; rap; rock; rap-core; V;hollywood; undead; hollywood undead; whatever; it; takes; whatever it takes; rap; rapcore; rock;j-dog;johnny 3 tears; j3t; charlie scene; danny; funny man; da; kurlzz;
BeatmapID:1608245
BeatmapSetID:667151

[Difficulty]
HPDrainRate:7
CircleSize:4.5
OverallDifficulty:8
ApproachRate:9
SliderMultiplier:1.6
SliderTickRate:2

[Events]
//Background and Video events
0,0,"Hyper_BG.jpg",0,0
//Break Periods
2,55139,62567
2,131939,142110
//Storyboard Layer 0 (Background)
//Storyboard Layer 1 (Fail)
//Storyboard Layer 2 (Pass)
//Storyboard Layer 3 (Foreground)
//Storyboard Sound Samples

[TimingPoints]
82,342.857142857143,4,1,1,68,1,0
11053,-66.6666666666667,4,1,1,68,0,0
65910,-66.6666666666667,4,1,1,68,0,1
76882,-66.6666666666667,4,1,1,68,0,0
109796,-50,4,1,1,68,0,1
131739,-66.6666666666667,4,1,1,68,0,0

[Colours]
Combo1 : 91,91,91
Combo2 : 255,0,0
Combo3 : 192,192,192
Combo4 : 188,160,67

[HitObjects]
80,280,82,5,4,0:0:0:0:
124,128,424,1,0,0:0:0:0:
231,222,596,1,0,0:0:0:0:
264,96,767,1,0,0:0:0:0:
384,200,1110,2,0,B|416:248|408:288|408:288,2,80
272,64,1796,1,0,0:0:0:0:
392,40,1967,2,0,P|392:96|368:120,1,80
264,176,2482,1,0,0:0:0:0:
368,296,2653,1,0,0:0:0:0:
184,296,2824,1,0,0:0:0:0:
128,176,3167,5,0,0:0:0:0:
56,72,3339,1,0,0:0:0:0:
200,72,3510,1,0,0:0:0:0:
328,96,3853,2,0,P|392:120|400:152,1,80
424,232,4196,1,0,0:0:0:0:
224,272,4539,1,0,0:0:0:0:
168,152,4710,1,0,0:0:0:0:
264,56,4882,1,0,0:0:0:0:
232,72,5224,1,0,0:0:0:0:
368,216,5396,1,0,0:0:0:0:
168,248,5567,1,4,0:0:0:0:
408,168,5910,5,0,0:0:0:0:
344,248,6082,2,0,P|312:280|248:280,1,80
184,288,6424,1,0,0:0:0:0:
88,248,6596,1,0,0:0:0:0:
176,184,6767,2,0,P|208:160|248:160,1,80
312,240,7282,6,0,P|360:224|384:192,1,80
424,128,7624,1,0,0:0:0:0:
376,56,7796,2,0,P|336:40|288:40,1,80
224,72,8139,1,0,0:0:0:0:
192,160,8310,1,0,0:0:0:0:
344,160,8653,5,0,0:0:0:0:
384,240,8824,2,0,P|400:288|384:320,1,80
312,360,9167,1,0,0:0:0:0:
224,328,9339,2,0,P|192:304|176:264,1,80
176,176,9682,1,0,0:0:0:0:
296,184,10024,6,0,P|296:128|280:96,1,80
216,48,10367,1,0,0:0:0:0:
120,64,10539,2,0,P|80:88|64:128,1,80
64,208,10882,1,0,0:0:0:0:
144,272,11053,5,4,0:0:0:0:
240,320,11224,1,0,0:0:0:0:
232,216,11396,1,0,0:0:0:0:
328,264,11567,2,0,P|376:224|384:168,1,120.000004577637,0|8,0:0|0:0,0:0:0:0:
352,80,11910,1,0,0:0:0:0:
248,32,12082,1,0,0:0:0:0:
160,72,12253,2,0,P|136:112|144:192,1,120.000004577637
224,136,12596,5,0,0:0:0:0:
296,200,12767,2,0,P|320:256|296:320,1,120.000004577637
224,264,13110,1,8,0:0:0:0:
120,312,13282,1,0,0:0:0:0:
120,200,13453,1,0,0:0:0:0:
216,144,13624,2,0,P|256:64|304:56,1,120.000004577637,0|4,0:0|0:0,0:0:0:0:
304,136,13967,6,0,P|360:176|368:232,1,120.000004577637
272,224,14310,1,0,0:0:0:0:
216,328,14482,1,8,0:0:0:0:
152,232,14653,1,0,0:0:0:0:
216,128,14824,1,0,0:0:0:0:
336,120,14996,2,0,P|376:64|352:24,1,120.000004577637
192,32,15339,6,0,P|128:64|112:120,1,120.000004577637
120,208,15682,1,0,0:0:0:0:
208,272,15853,1,8,0:0:0:0:
216,168,16024,2,0,P|264:120|328:112,1,120.000004577637
312,216,16367,1,0,0:0:0:0:
312,328,16539,1,4,0:0:0:0:
416,272,16710,2,0,P|456:224|456:160,1,120.000004577637
368,104,17053,5,0,0:0:0:0:
256,144,17224,2,0,P|176:136|120:160,1,120.000004577637,8|0,0:0|0:0,0:0:0:0:
48,224,17567,1,0,0:0:0:0:
144,280,17739,2,0,P|200:296|272:272,1,120.000004577637
368,240,18082,1,0,0:0:0:0:
272,168,18253,1,0,0:0:0:0:
392,128,18424,2,0,P|416:64|368:40,1,120.000004577637,0|8,0:0|0:0,0:0:0:0:
264,24,18767,1,0,0:0:0:0:
168,96,18939,1,0,0:0:0:0:
280,128,19110,1,0,0:0:0:0:
192,200,19282,6,0,P|160:264|176:320,1,120.000004577637,4|0,0:0|0:0,0:0:0:0:
264,264,19624,1,0,0:0:0:0:
336,328,19796,1,0,0:0:0:0:
360,232,19967,2,0,P|408:192|416:136,1,120.000004577637,8|0,0:0|0:0,0:0:0:0:
304,144,20310,1,0,0:0:0:0:
176,120,20482,1,0,0:0:0:0:
64,56,20653,5,4,0:0:0:0:
448,336,20996,1,0,0:0:0:0:
64,56,21339,1,12,0:0:0:0:
448,336,21682,1,0,0:0:0:0:
64,56,22024,5,4,0:0:0:0:
216,120,22196,1,0,0:0:0:0:
64,176,22367,1,0,0:0:0:0:
216,240,22539,1,0,0:0:0:0:
56,304,22710,2,0,P|104:344|160:352,1,120.000004577637,8|0,0:0|0:0,0:0:0:0:
288,352,23053,1,0,0:0:0:0:
360,240,23224,2,0,P|416:200|440:144,1,120.000004577637
336,136,23567,1,0,0:0:0:0:
248,208,23739,2,0,P|176:216|128:200,1,120.000004577637
192,112,24082,1,8,0:0:0:0:
72,104,24253,2,0,P|32:168|32:248,1,120.000004577637
80,312,24596,1,0,0:0:0:0:
176,240,24767,6,0,P|232:208|296:224,1,120.000004577637,4|0,0:0|0:0,0:0:0:0:
248,304,25110,1,0,0:0:0:0:
360,304,25282,1,0,0:0:0:0:
392,208,25453,1,8,0:0:0:0:
328,120,25624,2,0,P|312:56|264:48,1,120.000004577637
160,64,25967,1,0,0:0:0:0:
136,152,26139,2,0,P|144:208|200:224,1,120.000004577637
304,200,26482,1,0,0:0:0:0:
408,208,26653,1,0,0:0:0:0:
352,304,26824,1,8,0:0:0:0:
232,328,26996,2,0,P|136:328|96:280,1,120.000004577637
72,216,27339,1,0,0:0:0:0:
192,216,27510,5,4,0:0:0:0:
312,248,27682,1,0,0:0:0:0:
280,144,27853,2,0,P|304:80|264:64,1,120.000004577637
168,64,28196,1,8,0:0:0:0:
96,136,28367,1,0,0:0:0:0:
144,232,28539,2,0,P|184:288|240:304,1,120.000004577637
312,304,28882,2,0,P|376:272|416:200,1,120.000004577637
272,184,29224,1,0,0:0:0:0:
128,168,29396,1,0,0:0:0:0:
56,56,29567,5,8,0:0:0:0:
456,336,29910,1,0,0:0:0:0:
56,56,30253,1,0,0:0:0:0:
456,336,30596,1,0,0:0:0:0:
456,48,30939,5,8,0:0:0:0:
56,336,31282,1,0,0:0:0:0:
456,48,31624,1,0,0:0:0:0:
56,336,31967,1,4,0:0:0:0:
56,56,32310,1,12,0:0:0:0:
456,336,32653,1,4,0:0:0:0:
56,56,32996,5,4,0:0:0:0:
160,112,33167,2,0,P|200:160|264:160,1,120.000004577637
352,104,33510,1,0,0:0:0:0:
360,216,33682,1,8,0:0:0:0:
256,272,33853,2,0,P|200:312|144:312,1,120.000004577637
168,192,34196,1,0,0:0:0:0:
64,120,34367,5,0,0:0:0:0:
472,184,34710,1,0,0:0:0:0:
72,280,35053,1,8,0:0:0:0:
472,184,35396,1,0,0:0:0:0:
416,272,35739,6,0,P|368:328|288:336,1,120.000004577637
200,344,36082,1,0,0:0:0:0:
248,240,36253,1,0,0:0:0:0:
128,256,36424,2,0,P|72:224|64:168,1,120.000004577637,8|0,0:0|0:0,0:0:0:0:
112,72,36767,1,0,0:0:0:0:
232,96,36939,2,0,P|320:112|360:144,1,120.000004577637
64,240,37453,5,0,0:0:0:0:
448,336,37796,1,8,0:0:0:0:
456,48,38139,1,0,0:0:0:0:
64,160,38482,6,0,P|128:128|192:128,1,120.000004577637
296,144,38824,1,0,0:0:0:0:
216,232,38996,2,0,P|200:296|240:328,1,120.000004577637,0|8,0:0|0:0,0:0:0:0:
344,320,39339,1,0,0:0:0:0:
416,240,39510,2,0,P|456:192|448:96,1,120.000004577637
448,32,39853,5,0,0:0:0:0:
64,344,40196,1,0,0:0:0:0:
72,40,40539,1,8,0:0:0:0:
456,344,40882,1,0,0:0:0:0:
272,264,41224,6,0,B|200:240|184:200|184:200|168:176|192:176,1,120.000004577637
192,72,41567,1,0,0:0:0:0:
304,120,41739,1,0,0:0:0:0:
328,232,41910,2,0,P|272:296|200:320,1,120.000004577637,8|0,0:0|0:0,0:0:0:0:
120,280,42253,1,0,0:0:0:0:
64,168,42424,1,0,0:0:0:0:
48,48,42596,5,4,0:0:0:0:
464,344,42939,1,4,0:0:0:0:
48,48,43282,1,12,0:0:0:0:
464,344,43624,1,4,0:0:0:0:
48,48,43967,5,4,0:0:0:0:
104,168,44310,1,0,0:0:0:0:
216,240,44482,2,0,B|288:224|304:176|304:176|304:152,1,120.000004577637,0|8,0:0|0:0,0:0:0:0:
288,72,44824,1,0,0:0:0:0:
432,104,44996,1,0,0:0:0:0:
416,240,45167,2,0,P|424:312|368:336,1,120.000004577637
240,320,45682,6,0,P|144:304|120:248,1,120.000004577637
96,192,46024,1,8,0:0:0:0:
128,88,46196,2,0,P|184:48|248:40,1,120.000004577637
256,288,46539,1,0,0:0:0:0:
384,192,46710,1,4,0:0:0:0:
232,136,47053,6,0,P|176:96|104:88,1,120.000004577637
24,152,47396,1,8,0:0:0:0:
104,256,47567,1,0,0:0:0:0:
216,312,47739,2,0,P|296:328|352:296,1,120.000004577637
408,224,48082,1,0,0:0:0:0:
296,72,48424,6,0,P|208:40|160:72,1,120.000004577637
96,128,48767,1,8,0:0:0:0:
136,240,48939,2,0,P|192:304|264:304,1,120.000004577637
344,304,49282,1,0,0:0:0:0:
424,216,49453,1,4,0:0:0:0:
224,64,49796,6,0,P|320:80|312:112,1,120.000004577637
312,160,50139,1,8,0:0:0:0:
240,240,50310,2,0,P|176:296|128:296,1,120.000004577637
48,232,50653,1,0,0:0:0:0:
144,136,50824,1,0,0:0:0:0:
344,160,51167,6,0,P|416:144|440:80,1,120.000004577637
328,32,51510,1,8,0:0:0:0:
192,112,51682,2,0,P|152:160|160:232,1,120.000004577637
272,304,52024,1,0,0:0:0:0:
440,344,52196,1,4,0:0:0:0:
48,48,52539,1,0,0:0:0:0:
440,344,52882,1,12,0:0:0:0:
48,48,53224,1,0,0:0:0:0:
144,136,53567,5,4,0:0:0:0:
344,136,53739,1,0,0:0:0:0:
240,288,53910,1,0,0:0:0:0:
344,248,54253,5,12,0:0:0:0:
240,104,54424,1,0,0:0:0:0:
136,248,54596,1,0,0:0:0:0:
240,200,54939,5,4,0:0:0:0:
256,192,63167,12,0,65224,0:0:0:0:
280,304,65567,5,0,0:0:0:0:
136,152,65910,2,0,P|144:88|200:72,1,120.000004577637,4|0,0:0|0:0,0:0:0:0:
248,160,66253,1,0,0:0:0:0:
320,64,66424,1,0,0:0:0:0:
360,160,66596,2,0,P|408:216|368:272,1,120.000004577637,8|0,0:0|0:0,0:0:0:0:
256,288,66939,1,0,0:0:0:0:
144,216,67110,2,0,P|80:184|80:128,1,120.000004577637
176,120,67453,1,0,0:0:0:0:
256,192,67624,2,0,P|344:192|376:120,1,120.000004577637
288,96,67967,1,8,0:0:0:0:
408,72,68139,2,0,P|456:128|456:192,1,120.000004577637
416,280,68482,1,0,0:0:0:0:
320,192,68653,5,4,0:0:0:0:
296,304,68824,2,0,P|240:336|176:320,1,120.000004577637
200,208,69167,1,0,0:0:0:0:
248,88,69339,1,8,0:0:0:0:
320,192,69510,2,0,P|328:248|288:312,1,120.000004577637
168,336,69853,1,0,0:0:0:0:
80,232,70024,1,0,0:0:0:0:
128,112,70196,2,0,P|184:72|248:80,1,120.000004577637
408,72,70539,1,0,0:0:0:0:
328,192,70710,1,8,0:0:0:0:
480,256,70882,1,0,0:0:0:0:
280,328,71053,2,0,P|176:328|144:288,1,120.000004577637
232,248,71396,5,4,0:0:0:0:
104,192,71567,1,0,0:0:0:0:
232,104,71739,2,0,P|280:64|352:64,1,120.000004577637
328,168,72082,1,8,0:0:0:0:
440,128,72253,2,0,B|472:184|440:240|432:240,1,120.000004577637
336,312,72596,1,0,0:0:0:0:
208,240,72767,1,0,0:0:0:0:
64,296,72939,1,0,0:0:0:0:
88,160,73110,2,0,P|96:80|160:40,1,120.000004577637
256,48,73453,1,8,0:0:0:0:
368,176,73624,1,0,0:0:0:0:
256,296,73796,6,0,P|200:320|136:304,1,120.000004577637
160,184,74139,1,0,0:0:0:0:
80,80,74310,1,0,0:0:0:0:
272,64,74482,1,0,0:0:0:0:
352,200,74653,2,0,P|408:176|432:104,1,120.000004577637,0|8,0:0|0:0,0:0:0:0:
272,80,74996,1,0,0:0:0:0:
216,216,75167,2,0,P|224:280|280:312,1,120.000004577637
456,344,75510,5,0,0:0:0:0:
48,40,75853,1,0,0:0:0:0:
456,344,76196,1,12,0:0:0:0:
48,40,76539,1,4,0:0:0:0:
256,192,76882,5,4,0:0:0:0:
400,256,77053,2,0,P|424:200|408:136,1,120.000004577637
256,72,77396,1,0,0:0:0:0:
144,128,77567,1,8,0:0:0:0:
136,240,77739,2,0,P|120:312|168:336,1,120.000004577637
256,344,78082,1,0,0:0:0:0:
384,320,78253,2,0,P|440:272|424:200,1,120.000004577637
312,200,78596,1,0,0:0:0:0:
400,104,78767,1,0,0:0:0:0:
240,80,78939,1,8,0:0:0:0:
168,192,79110,2,0,P|120:240|136:296,1,120.000004577637
248,352,79453,1,0,0:0:0:0:
344,272,79624,5,4,0:0:0:0:
432,216,79796,2,0,P|464:160|432:104,1,120.000004577637
304,152,80139,1,0,0:0:0:0:
328,24,80310,1,8,0:0:0:0:
184,72,80482,2,0,P|112:88|96:136,1,120.000004577637
96,256,80824,1,0,0:0:0:0:
224,336,80996,1,0,0:0:0:0:
224,192,81167,2,0,P|272:152|336:160,1,120.000004577637
416,264,81510,1,0,0:0:0:0:
488,160,81682,1,8,0:0:0:0:
408,56,81853,2,0,P|352:24|288:40,1,120.000004577637
320,168,82196,1,0,0:0:0:0:
176,104,82367,5,4,0:0:0:0:
192,224,82539,2,0,P|152:288|176:344,1,120.000004577637
320,304,82882,1,0,0:0:0:0:
432,216,83053,1,8,0:0:0:0:
304,168,83224,2,0,P|248:112|176:120,1,120.000004577637
96,160,83567,1,0,0:0:0:0:
168,256,83739,2,0,P|216:312|296:296,1,120.000004577637
384,280,84082,1,0,0:0:0:0:
288,208,84253,2,0,P|280:144|312:88,1,120.000004577637,0|8,0:0|0:0,0:0:0:0:
392,32,84596,1,0,0:0:0:0:
424,128,84767,2,0,P|448:192|416:256,1,120.000004577637
456,336,85110,5,4,0:0:0:0:
48,48,85453,1,4,0:0:0:0:
456,336,85796,1,12,0:0:0:0:
48,48,86139,1,0,0:0:0:0:
448,40,86482,5,0,0:0:0:0:
48,328,86824,1,0,0:0:0:0:
448,40,87167,1,12,0:0:0:0:
48,328,87510,1,4,0:0:0:0:
448,40,87853,6,0,P|480:104|440:144,1,120.000004577637,4|0,0:0|0:0,0:0:0:0:
368,240,88196,1,0,0:0:0:0:
304,120,88367,1,0,0:0:0:0:
224,232,88539,2,0,P|152:272|80:248,1,120.000004577637,8|0,0:0|0:0,0:0:0:0:
136,152,88882,1,0,0:0:0:0:
192,40,89053,1,0,0:0:0:0:
304,120,89224,5,0,0:0:0:0:
64,328,89567,1,0,0:0:0:0:
472,328,89910,1,8,0:0:0:0:
256,120,90253,1,4,0:0:0:0:
160,240,90596,5,4,0:0:0:0:
320,240,90767,2,0,B|392:232|416:176|416:176,1,120.000004577637
464,40,91110,1,0,0:0:0:0:
296,80,91282,1,8,0:0:0:0:
216,200,91453,2,0,P|144:192|96:144,1,120.000004577637
64,48,91796,1,0,0:0:0:0:
224,40,91967,5,0,0:0:0:0:
464,328,92310,1,0,0:0:0:0:
56,336,92653,1,8,0:0:0:0:
224,40,92996,1,4,0:0:0:0:
304,152,93339,6,0,P|320:224|264:272,1,120.000004577637,4|0,0:0|0:0,0:0:0:0:
144,200,93682,1,0,0:0:0:0:
184,64,93853,1,0,0:0:0:0:
344,24,94024,2,0,P|408:48|424:128,1,120.000004577637,8|0,0:0|0:0,0:0:0:0:
424,232,94367,1,0,0:0:0:0:
304,160,94539,2,0,P|224:184|208:256,1,120.000004577637
48,336,95053,5,0,0:0:0:0:
40,48,95396,1,8,0:0:0:0:
448,192,95739,1,4,0:0:0:0:
304,320,96082,6,0,P|232:312|160:240,1,120.000004577637,4|0,0:0|0:0,0:0:0:0:
288,192,96424,1,0,0:0:0:0:
168,112,96596,2,0,P|208:56|280:48,1,120.000004577637,0|8,0:0|0:0,0:0:0:0:
424,104,96939,1,0,0:0:0:0:
464,280,97110,1,0,0:0:0:0:
288,192,97282,1,0,0:0:0:0:
464,48,97453,5,0,0:0:0:0:
48,336,97796,1,0,0:0:0:0:
464,48,98139,1,8,0:0:0:0:
48,336,98482,1,4,0:0:0:0:
464,48,98824,5,4,0:0:0:0:
400,168,99167,1,0,0:0:0:0:
312,272,99339,1,0,0:0:0:0:
256,152,99510,2,0,P|240:88|176:64,1,120.000004577637,8|0,0:0|0:0,0:0:0:0:
112,184,99853,1,0,0:0:0:0:
224,320,100024,1,0,0:0:0:0:
384,224,100196,1,0,0:0:0:0:
240,48,100539,6,0,P|168:24|104:48,1,120.000004577637
160,176,100882,1,8,0:0:0:0:
256,304,101053,2,0,P|312:256|304:176,1,120.000004577637
320,40,101396,1,0,0:0:0:0:
456,128,101567,1,4,0:0:0:0:
336,320,101910,6,0,P|256:344|176:304,1,120.000004577637
256,176,102253,1,8,0:0:0:0:
136,88,102424,1,0,0:0:0:0:
80,216,102596,2,0,P|88:296|160:320,1,120.000004577637
264,328,102939,1,0,0:0:0:0:
232,160,103282,6,0,P|256:80|304:64,1,120.000004577637
368,160,103624,1,8,0:0:0:0:
304,296,103796,1,0,0:0:0:0:
160,280,103967,2,0,P|88:272|48:184,1,120.000004577637
48,96,104310,1,4,0:0:0:0:
304,104,104653,6,0,P|384:128|408:184,1,120.000004577637
280,248,104996,1,8,0:0:0:0:
136,160,105167,1,0,0:0:0:0:
208,48,105339,2,0,P|312:24|344:56,1,120.000004577637
296,176,105682,1,0,0:0:0:0:
80,168,106024,6,0,P|64:240|120:312,1,120.000004577637
216,216,106367,1,8,0:0:0:0:
312,320,106539,1,0,0:0:0:0:
360,192,106710,2,0,P|432:136|416:64,1,120.000004577637
464,336,107053,5,4,0:0:0:0:
48,40,107396,1,0,0:0:0:0:
464,336,107739,1,8,0:0:0:0:
48,40,108082,1,0,0:0:0:0:
256,128,108424,5,4,0:0:0:0:
152,280,108596,1,0,0:0:0:0:
352,280,108767,1,0,0:0:0:0:
368,168,109110,5,12,0:0:0:0:
256,344,109282,1,0,0:0:0:0:
144,176,109453,1,0,0:0:0:0:
256,240,109796,5,4,0:0:0:0:
448,184,110139,1,0,0:0:0:0:
296,64,110310,1,0,0:0:0:0:
144,144,110482,1,8,0:0:0:0:
344,296,110824,2,0,P|256:344|192:320,1,160
88,248,111167,1,0,0:0:0:0:
264,184,111339,1,0,0:0:0:0:
128,88,111510,1,0,0:0:0:0:
264,40,111682,2,0,P|352:16|432:72,1,160,0|8,0:0|0:0,0:0:0:0:
336,296,112196,1,0,0:0:0:0:
48,104,112539,5,4,0:0:0:0:
408,120,112882,1,0,0:0:0:0:
440,296,113053,1,0,0:0:0:0:
256,312,113224,1,8,0:0:0:0:
72,56,113567,1,0,0:0:0:0:
256,56,113739,1,0,0:0:0:0:
160,184,113910,1,0,0:0:0:0:
352,184,114082,2,0,P|424:112|424:48,1,160
256,56,114424,1,0,0:0:0:0:
160,184,114596,1,8,0:0:0:0:
424,312,114939,1,0,0:0:0:0:
48,48,115282,5,4,0:0:0:0:
104,272,115624,2,0,P|224:288|264:208,2,160,0|0|8,0:0|0:0|0:0,0:0:0:0:
184,112,116310,1,0,0:0:0:0:
352,32,116482,1,0,0:0:0:0:
336,168,116653,2,0,P|424:216|408:304,1,160
256,304,116996,1,0,0:0:0:0:
120,224,117167,1,0,0:0:0:0:
200,88,117339,1,8,0:0:0:0:
360,104,117510,2,0,P|408:176|368:256,1,160
232,184,117853,1,0,0:0:0:0:
48,72,118024,5,0,0:0:0:0:
96,296,118196,1,0,0:0:0:0:
328,344,118367,1,0,0:0:0:0:
248,144,118539,1,0,0:0:0:0:
480,128,118710,1,8,0:0:0:0:
392,328,118882,1,0,0:0:0:0:
152,272,119053,1,0,0:0:0:0:
152,56,119224,1,0,0:0:0:0:
368,176,119396,1,0,0:0:0:0:
168,264,119567,2,0,P|56:272|32:184,1,160
144,56,119910,1,0,0:0:0:0:
368,152,120082,1,8,0:0:0:0:
312,312,120253,2,0,P|400:344|488:264,2,160
96,312,120767,5,4,0:0:0:0:
192,88,121110,1,0,0:0:0:0:
344,32,121282,1,0,0:0:0:0:
328,184,121453,1,8,0:0:0:0:
48,192,121796,1,0,0:0:0:0:
160,312,121967,2,0,P|248:352|352:312,1,160
256,168,122310,1,0,0:0:0:0:
448,152,122482,1,0,0:0:0:0:
336,32,122653,2,0,P|232:16|144:56,1,160,0|8,0:0|0:0,0:0:0:0:
176,272,123167,1,0,0:0:0:0:
432,328,123510,5,4,0:0:0:0:
432,40,123853,1,0,0:0:0:0:
320,176,124024,1,0,0:0:0:0:
232,48,124196,1,8,0:0:0:0:
64,192,124539,2,0,P|40:288|104:344,1,160
192,248,124882,1,0,0:0:0:0:
320,328,125053,1,0,0:0:0:0:
320,192,125224,2,0,P|400:168|432:64,1,160
296,48,125567,1,8,0:0:0:0:
56,128,125910,1,0,0:0:0:0:
208,320,126253,5,4,0:0:0:0:
496,224,126596,1,0,0:0:0:0:
416,80,126767,1,0,0:0:0:0:
336,216,126939,1,8,0:0:0:0:
176,24,127282,1,0,0:0:0:0:
24,128,127453,2,0,P|104:168|128:248,1,160
168,376,127796,1,0,0:0:0:0:
280,280,127967,2,0,P|360:264|392:176,1,160
232,104,128310,1,8,0:0:0:0:
120,240,128482,1,0,0:0:0:0:
304,248,128653,2,0,P|384:288|448:208,1,160
368,128,128996,5,0,0:0:0:0:
32,80,129167,1,0,0:0:0:0:
136,336,129339,1,0,0:0:0:0:
456,344,129510,1,0,0:0:0:0:
496,104,129682,1,8,0:0:0:0:
256,216,129853,1,0,0:0:0:0:
328,16,130024,1,0,0:0:0:0:
96,120,130196,1,0,0:0:0:0:
136,328,130367,1,0,0:0:0:0:
328,176,130539,1,0,0:0:0:0:
488,336,130710,1,0,0:0:0:0:
504,184,130882,2,0,P|520:104|464:48,1,160,0|8,0:0|0:0,0:0:0:0:
296,64,131224,1,0,0:0:0:0:
192,224,131396,1,0,0:0:0:0:
72,72,131567,1,0,0:0:0:0:
0,264,131739,5,4,0:0:0:0:
360,96,142710,5,4,0:0:0:0:
208,152,142882,1,0,0:0:0:0:
336,248,143053,2,0,P|320:312|240:336,1,120.000004577637
120,336,143396,1,8,0:0:0:0:
32,208,143567,2,0,P|16:128|64:64,1,120.000004577637
160,32,143910,1,0,0:0:0:0:
160,176,144082,1,0,0:0:0:0:
280,112,144253,2,0,P|304:168|280:248,1,120.000004577637
176,312,144596,1,0,0:0:0:0:
320,352,144767,1,8,0:0:0:0:
320,352,144939,1,0,0:0:0:0:
448,264,145110,1,0,0:0:0:0:
448,264,145282,1,0,0:0:0:0:
288,192,145453,5,4,0:0:0:0:
408,96,145624,2,0,P|360:48|272:56,1,120.000004577637
160,104,145967,1,0,0:0:0:0:
136,256,146139,1,8,0:0:0:0:
336,320,146310,2,0,P|368:256|312:176,2,120.000004577637
160,320,146824,1,0,0:0:0:0:
240,184,146996,1,0,0:0:0:0:
72,160,147167,2,0,P|104:80|176:64,1,120.000004577637
312,48,147510,1,8,0:0:0:0:
408,160,147682,1,0,0:0:0:0:
312,280,147853,2,0,P|264:336|184:344,1,120.000004577637
184,200,148196,6,0,P|144:136|160:80,1,120.000004577637,4|0,0:0|0:0,0:0:0:0:
304,104,148539,1,0,0:0:0:0:
352,256,148710,1,0,0:0:0:0:
352,256,148882,1,8,0:0:0:0:
192,304,149053,2,0,P|112:304|48:240,1,120.000004577637
168,144,149396,1,0,0:0:0:0:
312,80,149567,1,0,0:0:0:0:
312,80,149739,1,0,0:0:0:0:
312,224,149910,1,0,0:0:0:0:
176,280,150082,2,0,P|104:272|32:216,1,120.000004577637,0|8,0:0|0:0,0:0:0:0:
160,136,150424,1,0,0:0:0:0:
160,136,150596,1,0,0:0:0:0:
312,80,150767,1,0,0:0:0:0:
456,40,150939,5,4,0:0:0:0:
48,336,151282,1,0,0:0:0:0:
456,40,151624,1,8,0:0:0:0:
48,336,151967,1,0,0:0:0:0:
48,40,152310,5,0,0:0:0:0:
464,336,152653,1,0,0:0:0:0:
48,40,152996,1,12,0:0:0:0:
464,336,153339,1,4,0:0:0:0:
48,40,153682,5,4,0:0:0:0:
72,176,153853,2,0,P|88:256|160:288,1,120.000004577637
216,168,154196,1,0,0:0:0:0:
264,48,154367,2,0,P|360:48|400:96,1,120.000004577637,8|0,0:0|0:0,0:0:0:0:
376,208,154710,1,0,0:0:0:0:
264,312,154882,1,0,0:0:0:0:
464,352,155053,5,0,0:0:0:0:
48,352,155396,1,0,0:0:0:0:
456,32,155739,1,8,0:0:0:0:
56,32,156082,1,0,0:0:0:0:
112,248,156424,5,4,0:0:0:0:
264,288,156596,1,0,0:0:0:0:
224,120,156767,2,0,P|272:56|352:64,1,120.000004577637
368,184,157110,1,8,0:0:0:0:
512,104,157282,1,0,0:0:0:0:
512,272,157453,2,0,P|456:328|368:336,1,120.000004577637
256,336,157796,5,0,0:0:0:0:
40,48,158139,1,0,0:0:0:0:
256,336,158482,1,8,0:0:0:0:
472,40,158824,1,4,0:0:0:0:
464,272,159167,5,4,0:0:0:0:
288,272,159339,1,0,0:0:0:0:
368,120,159510,2,0,P|264:104|216:128,1,120.000004577637
128,208,159853,1,8,0:0:0:0:
96,64,160024,1,0,0:0:0:0:
256,104,160196,1,0,0:0:0:0:
256,104,160367,1,0,0:0:0:0:
400,40,160539,5,0,0:0:0:0:
424,328,160882,1,0,0:0:0:0:
400,40,161224,1,8,0:0:0:0:
424,328,161567,1,4,0:0:0:0:
144,272,161910,6,0,P|80:232|96:144,1,120.000004577637,4|0,0:0|0:0,0:0:0:0:
232,128,162253,1,0,0:0:0:0:
320,272,162424,2,0,P|392:232|392:144,1,120.000004577637,0|8,0:0|0:0,0:0:0:0:
384,40,162767,1,0,0:0:0:0:
232,128,162939,1,0,0:0:0:0:
112,24,163110,2,0,P|56:88|64:152,1,120.000004577637
56,264,163453,1,0,0:0:0:0:
232,272,163624,1,0,0:0:0:0:
376,192,163796,2,0,P|448:168|464:88,1,120.000004577637,0|8,0:0|0:0,0:0:0:0:
336,48,164139,1,0,0:0:0:0:
200,136,164310,1,0,0:0:0:0:
200,136,164482,1,0,0:0:0:0:
112,264,164653,5,4,0:0:0:0:
384,272,164996,2,0,P|408:336|464:344,2,120.000004577637,0|0|8,0:0|0:0|0:0,0:0:0:0:
376,104,165510,1,0,0:0:0:0:
232,200,165682,1,0,0:0:0:0:
240,48,165853,1,0,0:0:0:0:
88,112,166024,1,0,0:0:0:0:
88,296,166367,5,0,0:0:0:0:
208,192,166539,2,0,P|280:192|344:264,1,120.000004577637,0|8,0:0|0:0,0:0:0:0:
424,320,166882,1,0,0:0:0:0:
504,208,167053,1,0,0:0:0:0:
408,96,167224,2,0,P|352:40|288:48,1,120.000004577637,0|4,0:0|0:0,0:0:0:0:
216,280,167739,5,0,0:0:0:0:
64,208,167910,2,0,P|112:144|184:144,1,120.000004577637,0|8,0:0|0:0,0:0:0:0:
320,152,168253,1,0,0:0:0:0:
400,280,168424,2,0,P|480:248|488:184,1,120.000004577637
496,80,168767,1,0,0:0:0:0:
144,80,169110,5,0,0:0:0:0:
144,248,169282,1,0,0:0:0:0:
144,248,169453,1,8,0:0:0:0:
280,144,169624,2,0,P|320:208|304:264,1,120.000004577637
224,368,169967,1,0,0:0:0:0:
400,368,170139,1,4,0:0:0:0:
96,88,170482,5,0,0:0:0:0:
96,88,170653,1,0,0:0:0:0:
64,224,170824,2,0,P|152:216|200:168,1,120.000004577637,8|0,0:0|0:0,0:0:0:0:
264,64,171167,1,0,0:0:0:0:
368,184,171339,1,0,0:0:0:0:
280,312,171510,1,0,0:0:0:0:
440,56,171853,5,0,0:0:0:0:
264,80,172024,1,0,0:0:0:0:
376,216,172196,1,8,0:0:0:0:
192,232,172367,2,0,P|136:176|56:200,1,120.000004577637
48,344,172710,1,0,0:0:0:0:
48,344,172882,5,4,0:0:0:0:
472,40,173224,1,0,0:0:0:0:
48,344,173567,1,8,0:0:0:0:
472,40,173910,1,4,0:0:0:0:
48,344,174253,5,4,0:0:0:0:
48,40,174596,1,0,0:0:0:0:
472,344,174939,1,8,0:0:0:0:
48,40,175282,1,0,0:0:0:0:
328,136,175624,1,4,0:0:0:0:
136,152,175967,5,0,0:0:0:0:
152,296,176139,1,0,0:0:0:0:
312,256,176310,1,8,0:0:0:0:
408,56,176653,5,0,0:0:0:0:
248,56,176824,1,0,0:0:0:0:
320,192,176996,1,0,0:0:0:0:
88,208,177339,6,0,P|104:272|176:320,2,120.000004577637,0|0|8,0:0|0:0|0:0,0:0:0:0:
232,48,178024,5,0,0:0:0:0:
320,176,178196,1,0,0:0:0:0:
408,48,178367,1,4,0:0:0:0:
152,344,178710,5,0,0:0:0:0:
56,200,178882,1,0,0:0:0:0:
248,200,179053,1,8,0:0:0:0:
416,280,179396,6,0,P|456:208|440:160,1,120.000004577637
384,48,179739,1,0,0:0:0:0:
168,168,180082,6,0,P|160:96|96:80,2,120.000004577637,0|0|8,0:0|0:0|0:0,0:0:0:0:
352,304,180767,5,0,0:0:0:0:
480,192,180939,1,0,0:0:0:0:
344,88,181110,1,4,0:0:0:0:
208,232,181453,5,0,0:0:0:0:
192,88,181624,1,0,0:0:0:0:
56,168,181796,1,8,0:0:0:0:
432,160,182139,6,0,P|424:80|368:64,2,120.000004577637
80,64,182824,5,0,0:0:0:0:
272,64,182996,1,0,0:0:0:0:
176,200,183167,1,8,0:0:0:0:
176,200,183510,5,0,0:0:0:0:
272,336,183682,1,0,0:0:0:0:
72,336,183853,1,4,0:0:0:0:
432,240,184196,5,0,0:0:0:0:
504,96,184367,1,0,0:0:0:0:
328,88,184539,1,8,0:0:0:0:
64,168,184882,5,0,0:0:0:0:
80,288,185053,2,0,P|160:328|224:280,1,120.000004577637
384,80,185567,5,0,0:0:0:0:
136,192,185910,1,0,0:0:0:0:
256,80,186082,1,0,0:0:0:0:
384,192,186253,1,0,0:0:0:0:
256,304,186424,1,4,0:0:0:0:
